osu file format v14

[General]
AudioFilename: audio.mp3
AudioLeadIn: 0
PreviewTime: 51191
Countdown: 0
SampleSet: Normal
StackLeniency: 0.7
Mode: 1
LetterboxInBreaks: 0
WidescreenStoryboard: 1

[Editor]
DistanceSpacing: 1.5
BeatDivisor: 12
GridSize: 8
TimelineZoom: 1.3

[Metadata]
Title:Atlantis
TitleUnicode:Atlantis
Artist:Two Steps From Hell
ArtistUnicode:Two Steps From Hell
Creator:Naotoshi
Version:Oni
Source:
Tags:tsfh nick bergersen thomas phoenix archangel twostepsfromthemusic
BeatmapID:1463507
BeatmapSetID:691575

[Difficulty]
HPDrainRate:5
CircleSize:2
OverallDifficulty:5
ApproachRate:6
SliderMultiplier:1.4
SliderTickRate:1

[Events]
//Background and Video events
0,0,"240718.jpg",0,0
//Break Periods
//Storyboard Layer 0 (Background)
//Storyboard Layer 1 (Fail)
//Storyboard Layer 2 (Pass)
//Storyboard Layer 3 (Foreground)
//Storyboard Sound Samples

[TimingPoints]
4350,500.208420175073,4,1,0,60,1,0
4350,-133.333333333333,4,1,0,60,0,0
51369,-100,4,1,0,60,0,0
52370,500.062507813477,4,1,0,60,1,8
108367,498.960498960499,4,1,0,60,1,0

[HitObjects]
256,192,4348,5,4,0:0:0:0:
255,192,5350,1,8,0:0:0:0:
255,192,6350,1,8,0:0:0:0:
256,192,7351,1,0,0:0:0:0:
256,192,7851,1,0,0:0:0:0:
256,192,8351,1,4,0:0:0:0:
255,192,9352,1,8,0:0:0:0:
255,192,10352,1,8,0:0:0:0:
256,192,11853,1,0,0:0:0:0:
256,192,12353,1,4,0:0:0:0:
257,193,13353,1,0,0:0:0:0:
257,193,13853,1,8,0:0:0:0:
256,192,14354,1,0,0:0:0:0:
256,192,15354,1,8,0:0:0:0:
256,192,16355,1,4,0:0:0:0:
259,194,17355,1,0,0:0:0:0:
259,194,18355,1,8,0:0:0:0:
256,192,19356,1,8,0:0:0:0:
256,192,20356,1,4,0:0:0:0:
256,192,21357,1,0,0:0:0:0:
256,192,21857,1,0,0:0:0:0:
256,192,22357,1,8,0:0:0:0:
256,192,23357,1,8,0:0:0:0:
256,192,23858,1,0,0:0:0:0:
256,192,24358,1,4,0:0:0:0:
256,192,25358,1,0,0:0:0:0:
256,192,25858,1,8,0:0:0:0:
256,192,26359,1,8,0:0:0:0:
256,192,27359,1,8,0:0:0:0:
256,192,27859,1,0,0:0:0:0:
256,192,28360,1,4,0:0:0:0:
256,192,29360,1,8,0:0:0:0:
256,192,29860,1,0,0:0:0:0:
256,192,30360,1,8,0:0:0:0:
256,192,31361,1,8,0:0:0:0:
256,192,31861,1,8,0:0:0:0:
256,192,32361,1,4,0:0:0:0:
256,192,33362,1,0,0:0:0:0:
256,192,33862,1,0,0:0:0:0:
256,192,34362,1,8,0:0:0:0:
256,192,35362,1,8,0:0:0:0:
256,192,35863,1,8,0:0:0:0:
256,192,36113,1,8,0:0:0:0:
256,192,36363,1,4,0:0:0:0:
256,192,38364,1,8,0:0:0:0:
256,192,39364,1,0,0:0:0:0:
256,192,40365,1,4,0:0:0:0:
256,192,42365,1,8,0:0:0:0:
256,192,42866,1,0,0:0:0:0:
256,192,43366,1,8,0:0:0:0:
256,192,44116,1,0,0:0:0:0:
256,192,44366,1,0,0:0:0:0:
256,192,45367,1,0,0:0:0:0:
256,192,46367,1,8,0:0:0:0:
256,192,47367,1,8,0:0:0:0:
256,192,47868,1,8,0:0:0:0:
256,192,48368,1,0,0:0:0:0:
256,192,49368,1,0,0:0:0:0:
256,192,50369,1,8,0:0:0:0:
256,192,50869,1,0,0:0:0:0:
256,192,51369,1,8,0:0:0:0:
256,192,51494,1,8,0:0:0:0:
256,192,51619,1,8,0:0:0:0:
256,192,51744,1,8,0:0:0:0:
256,192,51869,1,0,0:0:0:0:
256,192,51994,1,0,0:0:0:0:
256,192,52119,1,8,0:0:0:0:
256,192,52203,1,8,0:0:0:0:
256,192,52286,1,8,0:0:0:0:
256,192,52370,1,0,0:0:0:0:
256,192,52620,1,0,0:0:0:0:
256,192,52870,1,8,0:0:0:0:
256,192,53370,1,0,0:0:0:0:
256,192,53620,1,8,0:0:0:0:
256,192,53870,1,0,0:0:0:0:
256,192,54120,1,0,0:0:0:0:
256,192,54245,1,0,0:0:0:0:
256,192,54370,1,8,0:0:0:0:
256,192,54495,1,8,0:0:0:0:
256,192,54620,1,8,0:0:0:0:
256,192,54745,1,8,0:0:0:0:
256,192,54870,1,0,0:0:0:0:
256,192,55120,1,0,0:0:0:0:
256,192,55370,1,8,0:0:0:0:
256,192,55620,1,8,0:0:0:0:
256,192,55870,1,0,0:0:0:0:
256,192,56120,1,0,0:0:0:0:
256,192,56245,1,0,0:0:0:0:
256,192,56370,1,8,0:0:0:0:
256,192,56620,1,0,0:0:0:0:
256,192,56870,1,8,0:0:0:0:
256,192,57370,1,0,0:0:0:0:
256,192,57620,1,0,0:0:0:0:
256,192,57870,1,8,0:0:0:0:
256,192,58120,1,0,0:0:0:0:
256,192,58245,1,0,0:0:0:0:
256,192,58370,1,8,0:0:0:0:
256,192,58495,1,8,0:0:0:0:
256,192,58620,1,8,0:0:0:0:
256,192,58745,1,8,0:0:0:0:
256,192,58870,1,0,0:0:0:0:
256,192,59120,1,0,0:0:0:0:
256,192,59245,1,0,0:0:0:0:
256,192,59370,1,8,0:0:0:0:
256,192,59620,1,8,0:0:0:0:
256,192,59870,1,8,0:0:0:0:
256,192,59995,1,8,0:0:0:0:
256,192,60120,1,8,0:0:0:0:
256,192,60245,1,8,0:0:0:0:
256,192,60371,1,0,0:0:0:0:
256,192,60621,1,0,0:0:0:0:
256,192,60746,1,0,0:0:0:0:
256,192,60871,1,8,0:0:0:0:
256,192,61121,1,0,0:0:0:0:
256,192,61621,1,8,0:0:0:0:
256,192,61871,1,0,0:0:0:0:
256,192,61996,1,0,0:0:0:0:
256,192,62121,1,0,0:0:0:0:
256,192,62371,1,8,0:0:0:0:
256,192,62496,1,8,0:0:0:0:
256,192,62621,1,0,0:0:0:0:
256,192,62746,1,0,0:0:0:0:
256,192,62871,1,8,0:0:0:0:
256,192,62996,1,8,0:0:0:0:
256,192,63121,1,8,0:0:0:0:
256,192,63371,1,0,0:0:0:0:
256,192,63621,1,0,0:0:0:0:
256,192,63871,1,8,0:0:0:0:
256,192,63996,1,8,0:0:0:0:
256,192,64121,1,0,0:0:0:0:
256,192,64246,1,0,0:0:0:0:
256,192,64371,1,0,0:0:0:0:
256,192,64621,1,0,0:0:0:0:
256,192,64746,1,0,0:0:0:0:
256,192,64871,1,8,0:0:0:0:
256,192,65121,1,0,0:0:0:0:
256,192,65621,1,0,0:0:0:0:
256,192,65871,1,8,0:0:0:0:
256,192,66121,1,0,0:0:0:0:
256,192,66246,1,0,0:0:0:0:
256,192,66371,1,8,0:0:0:0:
256,192,66496,1,8,0:0:0:0:
256,192,66621,1,8,0:0:0:0:
256,192,66746,1,8,0:0:0:0:
256,192,66871,1,0,0:0:0:0:
256,192,66996,1,0,0:0:0:0:
256,192,67121,1,8,0:0:0:0:
256,192,67246,1,8,0:0:0:0:
256,192,67371,1,8,0:0:0:0:
256,192,67496,1,8,0:0:0:0:
256,192,67621,1,0,0:0:0:0:
256,192,67705,1,0,0:0:0:0:
256,192,67788,1,0,0:0:0:0:
256,192,67871,1,8,0:0:0:0:
256,192,68121,1,8,0:0:0:0:
256,192,68372,1,4,0:0:0:0:
256,192,68622,1,0,0:0:0:0:
256,192,68747,1,0,0:0:0:0:
256,192,68872,1,8,0:0:0:0:
256,192,69122,1,0,0:0:0:0:
256,192,69622,1,0,0:0:0:0:
256,192,69747,1,0,0:0:0:0:
256,192,69872,1,8,0:0:0:0:
256,192,70122,1,0,0:0:0:0:
256,192,70247,1,0,0:0:0:0:
256,192,70372,1,8,0:0:0:0:
256,192,70497,1,8,0:0:0:0:
256,192,70622,1,0,0:0:0:0:
256,192,70747,1,8,0:0:0:0:
256,192,70872,1,0,0:0:0:0:
256,192,71372,1,8,0:0:0:0:
256,192,71622,1,0,0:0:0:0:
256,192,71872,1,8,0:0:0:0:
256,192,72122,1,0,0:0:0:0:
256,192,72247,1,0,0:0:0:0:
256,192,72372,1,8,0:0:0:0:
256,192,72622,1,0,0:0:0:0:
256,192,72747,1,0,0:0:0:0:
256,192,72872,1,8,0:0:0:0:
256,192,73122,1,8,0:0:0:0:
256,192,73622,1,0,0:0:0:0:
256,192,73872,1,8,0:0:0:0:
256,192,74122,1,0,0:0:0:0:
256,192,74247,1,0,0:0:0:0:
256,192,74372,1,8,0:0:0:0:
256,192,74497,1,8,0:0:0:0:
256,192,74622,1,8,0:0:0:0:
256,192,74747,1,8,0:0:0:0:
256,192,74872,1,0,0:0:0:0:
256,192,75122,1,0,0:0:0:0:
256,192,75247,1,0,0:0:0:0:
256,192,75372,1,8,0:0:0:0:
256,192,75622,1,8,0:0:0:0:
256,192,75872,1,0,0:0:0:0:
256,192,76122,1,0,0:0:0:0:
256,192,76247,1,0,0:0:0:0:
256,192,76373,1,8,0:0:0:0:
256,192,76623,1,0,0:0:0:0:
256,192,76748,1,0,0:0:0:0:
256,192,76873,1,0,0:0:0:0:
256,192,77123,1,8,0:0:0:0:
256,192,77623,1,0,0:0:0:0:
256,192,77873,1,8,0:0:0:0:
256,192,78123,1,0,0:0:0:0:
256,192,78248,1,0,0:0:0:0:
256,192,78373,1,8,0:0:0:0:
256,192,78498,1,8,0:0:0:0:
256,192,78623,1,8,0:0:0:0:
256,192,78748,1,8,0:0:0:0:
256,192,78873,1,0,0:0:0:0:
256,192,79123,1,0,0:0:0:0:
256,192,79248,1,0,0:0:0:0:
256,192,79373,1,0,0:0:0:0:
256,192,79623,1,0,0:0:0:0:
256,192,79873,1,8,0:0:0:0:
256,192,79998,1,8,0:0:0:0:
256,192,80123,1,0,0:0:0:0:
256,192,80248,1,0,0:0:0:0:
256,192,80373,1,0,0:0:0:0:
256,192,80623,1,0,0:0:0:0:
256,192,80748,1,0,0:0:0:0:
256,192,80873,1,8,0:0:0:0:
256,192,81123,1,0,0:0:0:0:
256,192,81623,1,0,0:0:0:0:
256,192,81873,1,8,0:0:0:0:
256,192,82123,1,0,0:0:0:0:
256,192,82248,1,0,0:0:0:0:
256,192,82373,1,8,0:0:0:0:
256,192,82498,1,8,0:0:0:0:
256,192,82623,1,8,0:0:0:0:
256,192,82748,1,8,0:0:0:0:
256,192,82873,1,0,0:0:0:0:
256,192,82998,1,0,0:0:0:0:
256,192,83123,1,8,0:0:0:0:
256,192,83248,1,0,0:0:0:0:
256,192,83373,1,8,0:0:0:0:
256,192,83623,1,8,0:0:0:0:
256,192,83873,1,8,0:0:0:0:
256,192,84123,1,0,0:0:0:0:
256,192,84248,1,0,0:0:0:0:
256,192,84374,1,8,0:0:0:0:
256,192,84624,1,0,0:0:0:0:
256,192,84749,1,0,0:0:0:0:
256,192,84874,1,0,0:0:0:0:
256,192,85124,1,0,0:0:0:0:
256,192,85624,1,0,0:0:0:0:
256,192,85749,1,0,0:0:0:0:
256,192,85874,1,8,0:0:0:0:
256,192,85999,1,8,0:0:0:0:
256,192,86124,1,0,0:0:0:0:
256,192,86207,1,0,0:0:0:0:
256,192,86290,1,0,0:0:0:0:
256,192,86374,1,8,0:0:0:0:
256,192,86624,1,8,0:0:0:0:
256,192,86874,1,0,0:0:0:0:
256,192,87124,1,0,0:0:0:0:
256,192,87249,1,0,0:0:0:0:
256,192,87374,1,8,0:0:0:0:
256,192,87499,1,8,0:0:0:0:
256,192,87624,1,8,0:0:0:0:
256,192,87749,1,8,0:0:0:0:
256,192,87874,1,0,0:0:0:0:
256,192,88124,1,8,0:0:0:0:
256,192,88249,1,8,0:0:0:0:
256,192,88374,1,0,0:0:0:0:
256,192,88624,1,0,0:0:0:0:
256,192,88749,1,0,0:0:0:0:
256,192,88874,1,8,0:0:0:0:
256,192,89124,1,8,0:0:0:0:
256,192,89624,1,8,0:0:0:0:
256,192,89749,1,0,0:0:0:0:
256,192,89874,1,8,0:0:0:0:
256,192,89999,1,8,0:0:0:0:
256,192,90124,1,0,0:0:0:0:
256,192,90208,1,0,0:0:0:0:
256,192,90291,1,0,0:0:0:0:
256,192,90374,1,8,0:0:0:0:
256,192,90624,1,0,0:0:0:0:
256,192,90874,1,8,0:0:0:0:
256,192,91124,1,0,0:0:0:0:
256,192,91374,1,8,0:0:0:0:
256,192,91624,1,8,0:0:0:0:
256,192,91749,1,8,0:0:0:0:
256,192,91874,1,0,0:0:0:0:
256,192,92124,1,8,0:0:0:0:
256,192,92249,1,8,0:0:0:0:
256,192,92375,1,0,0:0:0:0:
256,192,92625,1,0,0:0:0:0:
256,192,92875,1,8,0:0:0:0:
256,192,93000,1,8,0:0:0:0:
256,192,93125,1,8,0:0:0:0:
256,192,93250,1,8,0:0:0:0:
256,192,93375,1,0,0:0:0:0:
256,192,93500,1,0,0:0:0:0:
256,192,93625,1,0,0:0:0:0:
256,192,93750,1,8,0:0:0:0:
256,192,93875,1,0,0:0:0:0:
256,192,94000,1,8,0:0:0:0:
256,192,94125,1,0,0:0:0:0:
256,192,94250,1,0,0:0:0:0:
256,192,94375,1,8,0:0:0:0:
256,192,94625,1,0,0:0:0:0:
256,192,94875,1,0,0:0:0:0:
256,192,95125,1,0,0:0:0:0:
256,192,95250,1,0,0:0:0:0:
256,192,95375,1,8,0:0:0:0:
256,192,95625,1,0,0:0:0:0:
256,192,95875,1,0,0:0:0:0:
256,192,96000,1,0,0:0:0:0:
256,192,96125,1,8,0:0:0:0:
256,192,96250,1,0,0:0:0:0:
256,192,96375,1,8,0:0:0:0:
256,192,96625,1,0,0:0:0:0:
256,192,96750,1,0,0:0:0:0:
256,192,96875,1,0,0:0:0:0:
256,192,97125,1,0,0:0:0:0:
256,192,97625,1,0,0:0:0:0:
256,192,97750,1,0,0:0:0:0:
256,192,97875,1,8,0:0:0:0:
256,192,98000,1,8,0:0:0:0:
256,192,98125,1,0,0:0:0:0:
256,192,98209,1,8,0:0:0:0:
256,192,98292,1,8,0:0:0:0:
256,192,98375,1,0,0:0:0:0:
256,192,98625,1,0,0:0:0:0:
256,192,98875,1,8,0:0:0:0:
256,192,99125,1,0,0:0:0:0:
256,192,99250,1,0,0:0:0:0:
256,192,99375,1,0,0:0:0:0:
256,192,99625,1,0,0:0:0:0:
256,192,99875,1,8,0:0:0:0:
256,192,100125,1,8,0:0:0:0:
256,192,100250,1,8,0:0:0:0:
256,192,100376,1,0,0:0:0:0:
256,192,100626,1,0,0:0:0:0:
256,192,100751,1,0,0:0:0:0:
256,192,100876,1,0,0:0:0:0:
256,192,101126,1,8,0:0:0:0:
256,192,101626,1,8,0:0:0:0:
256,192,101751,1,8,0:0:0:0:
256,192,101876,1,8,0:0:0:0:
256,192,102126,1,8,0:0:0:0:
256,192,102251,1,8,0:0:0:0:
256,192,102376,1,0,0:0:0:0:
256,192,102626,1,0,0:0:0:0:
256,192,102876,1,0,0:0:0:0:
256,192,103001,1,0,0:0:0:0:
256,192,103126,1,8,0:0:0:0:
256,192,103251,1,8,0:0:0:0:
256,192,103376,1,0,0:0:0:0:
256,192,103626,1,0,0:0:0:0:
256,192,103876,1,8,0:0:0:0:
256,192,104126,1,8,0:0:0:0:
256,192,104251,1,8,0:0:0:0:
256,192,104376,1,0,0:0:0:0:
256,192,104626,1,0,0:0:0:0:
256,192,104751,1,0,0:0:0:0:
256,192,104876,1,0,0:0:0:0:
256,192,105001,1,0,0:0:0:0:
256,192,105126,1,8,0:0:0:0:
256,192,105251,1,8,0:0:0:0:
256,192,105376,1,0,0:0:0:0:
256,192,105626,1,0,0:0:0:0:
256,192,105876,1,8,0:0:0:0:
256,192,106126,1,8,0:0:0:0:
256,192,106251,1,8,0:0:0:0:
256,192,106376,1,0,0:0:0:0:
256,192,106626,1,8,0:0:0:0:
256,192,106751,1,0,0:0:0:0:
256,192,106876,1,8,0:0:0:0:
256,192,107001,1,8,0:0:0:0:
256,192,107126,1,8,0:0:0:0:
256,192,107251,1,8,0:0:0:0:
256,192,107376,1,0,0:0:0:0:
256,192,107501,1,0,0:0:0:0:
256,192,107626,1,8,0:0:0:0:
256,192,107751,1,8,0:0:0:0:
256,192,107876,1,0,0:0:0:0:
256,192,108001,1,0,0:0:0:0:
256,192,108126,1,0,0:0:0:0:
256,192,108367,1,4,0:0:0:0:
256,192,108616,1,4,0:0:0:0:
256,192,109614,1,8,0:0:0:0:
256,192,109863,1,8,0:0:0:0:
256,192,110113,1,8,0:0:0:0:
256,192,110238,1,8,0:0:0:0:
256,192,110362,1,4,0:0:0:0:
256,192,110612,1,4,0:0:0:0:
256,192,111610,1,8,0:0:0:0:
256,192,111859,1,8,0:0:0:0:
256,192,112109,1,8,0:0:0:0:
256,192,112233,1,8,0:0:0:0:
256,192,112358,1,4,0:0:0:0:
256,192,112608,1,4,0:0:0:0:
256,192,113605,1,8,0:0:0:0:
256,192,113855,1,8,0:0:0:0:
256,192,114105,1,8,0:0:0:0:
256,192,114189,1,8,0:0:0:0:
256,192,114272,1,8,0:0:0:0:
256,192,114354,1,4,0:0:0:0:
