osu file format v14

[General]
AudioFilename: audio.mp3
AudioLeadIn: 0
PreviewTime: 51191
Countdown: 0
SampleSet: Normal
StackLeniency: 0.7
Mode: 1
LetterboxInBreaks: 0
WidescreenStoryboard: 1

[Editor]
DistanceSpacing: 1.5
BeatDivisor: 12
GridSize: 8
TimelineZoom: 1.3

[Metadata]
Title:Atlantis
TitleUnicode:Atlantis
Artist:Two Steps From Hell
ArtistUnicode:Two Steps From Hell
Creator:Naotoshi
Version:Futsuu
Source:
Tags:tsfh nick bergersen thomas phoenix archangel twostepsfromthemusic
BeatmapID:1463643
BeatmapSetID:691575

[Difficulty]
HPDrainRate:7
CircleSize:4
OverallDifficulty:4
ApproachRate:5
SliderMultiplier:1.4
SliderTickRate:1

[Events]
//Background and Video events
0,0,"240718.jpg",0,0
//Break Periods
//Storyboard Layer 0 (Background)
//Storyboard Layer 1 (Fail)
//Storyboard Layer 2 (Pass)
//Storyboard Layer 3 (Foreground)
//Storyboard Sound Samples

[TimingPoints]
4350,500.208420175073,4,1,0,50,1,0
4350,-111.111111111111,4,1,0,50,0,0
51369,-100,4,1,0,78,0,0
52370,500.062507813477,4,1,0,78,1,8
108367,498.960498960499,4,1,0,78,1,0

[HitObjects]
256,192,4349,5,4,0:0:0:0:
256,192,8350,1,4,0:0:0:0:
256,192,11852,1,0,0:0:0:0:
256,192,12352,1,4,0:0:0:0:
256,192,15353,1,8,0:0:0:0:
256,192,16354,1,4,0:0:0:0:
259,194,18354,1,8,0:0:0:0:
256,192,19355,1,8,0:0:0:0:
256,192,20355,1,4,0:0:0:0:
256,192,22356,1,8,0:0:0:0:
256,192,23356,1,8,0:0:0:0:
256,192,24357,1,4,0:0:0:0:
256,192,26358,1,8,0:0:0:0:
256,192,27358,1,8,0:0:0:0:
256,192,28359,1,4,0:0:0:0:
256,192,30359,1,8,0:0:0:0:
256,192,31360,1,8,0:0:0:0:
256,192,32360,1,4,0:0:0:0:
256,192,33361,1,0,0:0:0:0:
256,192,34361,1,8,0:0:0:0:
256,192,35361,1,8,0:0:0:0:
256,192,36362,1,4,0:0:0:0:
256,192,38363,1,8,0:0:0:0:
256,192,39363,1,0,0:0:0:0:
256,192,40364,1,4,0:0:0:0:
256,192,42364,1,8,0:0:0:0:
256,192,43365,1,8,0:0:0:0:
256,192,44365,1,0,0:0:0:0:
256,192,46366,1,8,0:0:0:0:
256,192,47867,1,8,0:0:0:0:
256,192,48367,1,0,0:0:0:0:
256,192,49367,1,0,0:0:0:0:
256,192,50368,1,8,0:0:0:0:
256,192,50868,1,0,0:0:0:0:
256,192,51368,1,8,0:0:0:0:
256,192,51618,1,8,0:0:0:0:
256,192,51868,1,0,0:0:0:0:
256,192,52369,1,4,0:0:0:0:
256,192,52869,1,8,0:0:0:0:
256,192,53369,1,0,0:0:0:0:
256,192,53619,1,8,0:0:0:0:
256,192,53869,1,0,0:0:0:0:
256,192,54369,1,8,0:0:0:0:
256,192,54619,1,8,0:0:0:0:
256,192,54869,1,0,0:0:0:0:
256,192,55369,1,8,0:0:0:0:
256,192,55869,1,0,0:0:0:0:
256,192,56119,1,0,0:0:0:0:
256,192,56369,1,8,0:0:0:0:
256,192,56869,1,8,0:0:0:0:
256,192,57369,1,0,0:0:0:0:
256,192,57619,1,0,0:0:0:0:
256,192,57869,1,8,0:0:0:0:
256,192,58369,1,8,0:0:0:0:
256,192,58619,1,8,0:0:0:0:
256,192,58869,1,0,0:0:0:0:
256,192,59119,1,0,0:0:0:0:
256,192,59369,1,8,0:0:0:0:
256,192,59869,1,8,0:0:0:0:
256,192,60119,1,8,0:0:0:0:
256,192,60370,1,0,0:0:0:0:
256,192,60870,1,0,0:0:0:0:
256,192,61370,1,0,0:0:0:0:
256,192,61620,1,0,0:0:0:0:
256,192,61870,1,8,0:0:0:0:
256,192,62370,1,8,0:0:0:0:
256,192,62620,1,8,0:0:0:0:
256,192,62870,1,0,0:0:0:0:
256,192,63370,1,0,0:0:0:0:
256,192,63870,1,8,0:0:0:0:
256,192,64370,1,0,0:0:0:0:
256,192,64620,1,0,0:0:0:0:
256,192,64870,1,8,0:0:0:0:
256,192,65120,1,0,0:0:0:0:
256,192,65620,1,0,0:0:0:0:
256,192,65870,1,8,0:0:0:0:
256,192,66370,1,8,0:0:0:0:
256,192,66620,1,8,0:0:0:0:
256,192,66870,1,8,0:0:0:0:
256,192,67370,1,0,0:0:0:0:
256,192,67870,1,4,0:0:0:0:
256,192,68371,1,4,0:0:0:0:
256,192,68871,1,8,0:0:0:0:
256,192,69121,1,0,0:0:0:0:
256,192,69621,1,0,0:0:0:0:
256,192,69871,1,8,0:0:0:0:
256,192,70371,1,8,0:0:0:0:
256,192,70621,1,8,0:0:0:0:
256,192,70871,1,0,0:0:0:0:
256,192,71371,1,0,0:0:0:0:
256,192,71621,1,0,0:0:0:0:
256,192,71871,1,8,0:0:0:0:
256,192,72371,1,8,0:0:0:0:
256,192,72621,1,8,0:0:0:0:
256,192,72871,1,0,0:0:0:0:
256,192,73121,1,0,0:0:0:0:
256,192,73621,1,0,0:0:0:0:
256,192,73871,1,8,0:0:0:0:
256,192,74371,1,8,0:0:0:0:
256,192,74621,1,8,0:0:0:0:
256,192,74871,1,0,0:0:0:0:
256,192,75371,1,8,0:0:0:0:
256,192,75871,1,0,0:0:0:0:
256,192,76372,1,0,0:0:0:0:
256,192,76622,1,8,0:0:0:0:
256,192,76872,1,8,0:0:0:0:
256,192,77122,1,0,0:0:0:0:
256,192,77622,1,0,0:0:0:0:
256,192,77872,1,8,0:0:0:0:
256,192,78372,1,8,0:0:0:0:
256,192,78622,1,8,0:0:0:0:
256,192,78872,1,0,0:0:0:0:
256,192,79372,1,0,0:0:0:0:
256,192,79872,1,8,0:0:0:0:
256,192,80122,1,0,0:0:0:0:
256,192,80372,1,0,0:0:0:0:
256,192,80872,1,8,0:0:0:0:
256,192,81122,1,0,0:0:0:0:
256,192,81622,1,0,0:0:0:0:
256,192,81872,1,8,0:0:0:0:
256,192,82372,1,8,0:0:0:0:
256,192,82622,1,8,0:0:0:0:
256,192,82872,1,0,0:0:0:0:
256,192,83372,1,8,0:0:0:0:
256,192,83622,1,0,0:0:0:0:
256,192,83872,1,8,0:0:0:0:
256,192,84373,1,12,0:0:0:0:
256,192,84873,1,0,0:0:0:0:
256,192,85873,1,8,0:0:0:0:
256,192,86123,1,8,0:0:0:0:
256,192,86373,1,0,0:0:0:0:
256,192,86873,1,8,0:0:0:0:
256,192,87373,1,8,0:0:0:0:
256,192,88123,1,8,0:0:0:0:
256,192,88373,1,0,0:0:0:0:
256,192,88873,1,0,0:0:0:0:
256,192,89123,1,8,0:0:0:0:
256,192,89623,1,8,0:0:0:0:
256,192,89873,1,8,0:0:0:0:
256,192,90123,1,8,0:0:0:0:
256,192,90373,1,0,0:0:0:0:
256,192,90873,1,0,0:0:0:0:
256,192,91373,1,8,0:0:0:0:
256,192,91623,1,8,0:0:0:0:
256,192,92123,1,8,0:0:0:0:
256,192,92374,1,0,0:0:0:0:
256,192,92624,1,0,0:0:0:0:
256,192,93124,1,0,0:0:0:0:
256,192,93624,1,8,0:0:0:0:
256,192,93874,1,8,0:0:0:0:
256,192,94374,1,0,0:0:0:0:
256,192,94874,1,0,0:0:0:0:
256,192,95374,1,8,0:0:0:0:
256,192,96124,1,8,0:0:0:0:
256,192,96374,1,8,0:0:0:0:
256,192,96624,1,0,0:0:0:0:
256,192,97124,1,0,0:0:0:0:
256,192,97624,1,0,0:0:0:0:
256,192,97874,1,8,0:0:0:0:
256,192,98374,1,0,0:0:0:0:
256,192,98624,1,0,0:0:0:0:
256,192,99374,1,0,0:0:0:0:
256,192,99874,1,8,0:0:0:0:
256,192,100375,1,4,0:0:0:0:
256,192,101375,1,0,0:0:0:0:
256,192,101625,1,8,0:0:0:0:
256,192,101875,1,8,0:0:0:0:
256,192,102375,1,8,0:0:0:0:
256,192,103375,1,0,0:0:0:0:
256,192,104125,1,8,0:0:0:0:
256,192,104375,1,8,0:0:0:0:
256,192,104625,1,0,0:0:0:0:
256,192,105125,1,8,0:0:0:0:
256,192,105375,1,8,0:0:0:0:
256,192,105625,1,0,0:0:0:0:
256,192,105875,1,8,0:0:0:0:
256,192,106375,1,0,0:0:0:0:
256,192,106875,1,8,0:0:0:0:
256,192,107125,1,8,0:0:0:0:
256,192,107375,1,0,0:0:0:0:
256,192,107875,1,0,0:0:0:0:
256,192,108367,1,8,0:0:0:0:
256,192,108616,1,8,0:0:0:0:
256,192,109613,1,8,0:0:0:0:
256,192,109863,1,0,0:0:0:0:
256,192,110362,1,8,0:0:0:0:
256,192,110611,1,8,0:0:0:0:
256,192,111609,1,8,0:0:0:0:
256,192,111859,1,8,0:0:0:0:
256,192,112358,1,8,0:0:0:0:
256,192,112607,1,8,0:0:0:0:
256,192,113605,1,8,0:0:0:0:
256,192,113855,1,8,0:0:0:0:
256,192,114104,1,8,0:0:0:0:
256,192,114354,1,4,0:0:0:0:
