osu file format v14

[General]
AudioFilename: audio.mp3
AudioLeadIn: 0
PreviewTime: 130954
Countdown: 0
SampleSet: None
StackLeniency: 0.3
Mode: 0
LetterboxInBreaks: 0
WidescreenStoryboard: 1

[Editor]
Bookmarks: 78032,85091,113327,130974,159209,179503,207738,221856
DistanceSpacing: 1.4
BeatDivisor: 3
GridSize: 8
TimelineZoom: 1.9

[Metadata]
Title:All Is Hell That Ends Well
TitleUnicode:All Is Hell That Ends Well
Artist:Two Steps From Hell
ArtistUnicode:Two Steps From Hell
Creator:[ Scarey ]
Version:Normal
Source:
Tags:epic music two steps from hell battle
BeatmapID:1268269
BeatmapSetID:600171

[Difficulty]
HPDrainRate:2.2
CircleSize:3.5
OverallDifficulty:3.5
ApproachRate:5
SliderMultiplier:1
SliderTickRate:1

[Events]
//Background and Video events
0,0,"epicBG.jpg",0,0
//Break Periods
2,53506,55242
2,67624,69360
2,78212,83771
2,113506,120830
2,159389,168577
//Storyboard Layer 0 (Background)
//Storyboard Layer 1 (Fail)
//Storyboard Layer 2 (Pass)
//Storyboard Layer 3 (Foreground)
//Storyboard Sound Samples

[TimingPoints]
35660,441.176470588235,4,3,2,75,1,0
78012,-100,4,3,2,5,0,0
85071,-100,4,3,2,75,0,0
113307,-83.3333333333333,4,3,2,5,0,0
122130,-83.3333333333333,4,3,2,75,0,0
130512,-83.3333333333333,4,3,2,5,0,0
130954,-83.3333333333333,4,3,2,75,0,1
159189,-100,4,3,2,5,0,0
169777,-100,4,3,2,75,0,0
179483,-83.3333333333333,4,3,2,75,0,1
198012,-66.6666666666667,4,3,2,75,0,1
198895,-83.3333333333333,4,3,2,75,0,1
207718,-100,4,3,2,75,0,0

[Colours]
Combo1 : 255,255,255
Combo2 : 235,114,41
Combo3 : 255,0,0
Combo4 : 206,206,206

[HitObjects]
64,80,35660,6,0,B|96:104|136:104|136:104|144:72|168:56|168:56|208:72|248:72,1,200,4|0,0:0|0:0,0:0:0:0:
344,160,36983,2,0,L|376:192,2,33.3333333333333
280,208,37424,6,0,B|264:248|224:264|224:264|208:232|208:232|168:256|112:248,1,200,4|0,0:0|0:0,0:0:0:0:
56,112,38748,2,0,L|40:80,2,33.3333333333333
120,64,39189,6,0,B|152:112|128:160|128:160|112:168|96:176|96:176|136:192|120:248,1,200,4|0,0:0|0:0,0:0:0:0:
216,320,40512,2,0,L|232:360,2,33.3333333333333
288,288,40954,6,0,B|264:256|256:224|256:224|280:232|312:224|312:224|288:192|296:128,1,200,4|0,0:0|0:0,0:0:0:0:
424,120,42277,2,0,L|464:144,2,33.3333333333333
344,88,42718,6,0,B|296:72|272:32|272:32|208:32|160:80,1,200,4|0,0:0|0:0,0:0:0:0:
56,144,44042,2,0,L|8:152,2,33.3333333333333
96,216,44483,6,0,B|112:272|176:272|176:272|200:224|280:256,1,200,4|0,0:0|0:0,0:0:0:0:
344,128,45807,2,0,L|360:88,2,33.3333333333333
424,152,46248,6,0,B|464:200|416:248|416:248|352:248|336:320,1,200,4|0,0:0|0:0,0:0:0:0:
216,352,47571,2,0,L|176:360,2,33.3333333333333
184,280,48012,6,0,B|160:248|160:208|160:208|232:168|208:96,1,200,4|0,0:0|0:0,0:0:0:0:
64,128,49336,2,0,L|32:136,2,33.3333333333333
136,96,49777,6,0,P|176:40|272:64,1,166.666666666667,4|0,0:0|0:0,0:0:0:0:
320,112,50659,2,0,B|336:144|336:184|336:184|320:176|304:184|304:184|312:216|304:264,1,166.666666666667
384,248,51542,6,0,B|376:312|304:352|232:280|232:280|240:240|224:176,1,300
160,96,53159,2,0,L|120:120,1,33.3333333333333,0|4,0:0|0:0,0:0:0:0:
456,240,56542,6,0,L|416:224,1,33.3333333333333
360,184,56836,6,0,B|328:160|296:112|296:112|264:144|224:144,1,166.666666666667,4|0,0:0|0:0,0:0:0:0:
240,216,57718,2,0,P|160:160|184:88,1,166.666666666667
221,48,58601,6,0,B|261:93|232:144|232:144|324:139|340:257|266:283,1,300
200,272,60071,2,0,L|152:256,2,33.3333333333333,0|0|4,0:0|0:0|0:0,0:0:0:0:
256,192,60586,12,0,63454,0:0:0:0:
336,88,63895,6,0,P|384:144|336:232,1,166.666666666667,4|0,0:0|0:0,0:0:0:0:
304,160,64777,2,0,P|272:216|344:304,1,166.666666666667
400,288,65659,6,0,P|456:216|384:24,1,300
320,56,67130,2,0,L|296:96,2,33.3333333333333,0|0|4,0:0|0:0|0:0,0:0:0:0:
48,288,70659,6,0,L|64:240,1,33.3333333333333
104,192,70954,6,0,B|144:216|160:248|160:248|200:224|264:248,1,166.666666666667,4|0,0:0|0:0,0:0:0:0:
328,232,71836,2,0,B|296:168|256:160|192:160|192:160|168:144,1,166.666666666667
128,120,72718,6,0,B|64:104|32:144|16:176|40:240|40:240|104:272|104:320,1,300
176,344,74189,2,0,L|216:352,2,33.3333333333333,0|0|4,0:0|0:0|0:0,0:0:0:0:
256,192,74704,12,0,78012,0:0:0:0:
72,80,85071,6,0,B|112:104|120:128|120:128|104:144|88:160|88:160|112:192|96:240,1,166.666666666667,8|0,0:0|0:0,0:0:0:0:
88,288,85954,2,0,L|48:304,2,33.3333333333333
168,312,86395,2,0,L|160:344,2,33.3333333333333
248,288,86836,6,0,B|280:256|280:224|280:224|256:232|240:232|240:232|240:200|216:160,1,166.666666666667,2|0,0:0|0:0,0:0:0:0:
144,168,87718,2,0,L|104:160,1,33.3333333333333
192,96,88012,2,0,L|176:64,1,33.3333333333333
280,112,88307,2,0,L|304:72,1,33.3333333333333
344,176,88601,6,0,B|368:200|424:200|424:200|400:232|408:296,1,166.666666666667,8|0,0:0|0:0,0:0:0:0:
336,336,89483,2,0,L|376:368,2,33.3333333333333
288,256,89924,2,0,L|264:216,2,33.3333333333333
216,320,90365,6,0,B|192:344|136:320|136:320|136:336|104:344|48:328,1,166.666666666667,2|0,0:0|0:0,0:0:0:0:
56,240,91248,5,2,0:0:0:0:
152,200,91542,5,2,0:0:0:0:
56,144,91836,5,2,0:0:0:0:
152,104,92130,6,0,B|176:72|224:56|224:56|240:80|280:104|320:96,1,166.666666666667,8|0,0:0|0:0,0:0:0:0:
368,64,93012,2,0,L|400:32,2,33.3333333333333
352,144,93454,2,0,L|376:192,2,33.3333333333333
280,184,93895,6,0,B|232:192|224:216|224:216|192:200|112:216,1,166.666666666667,2|0,0:0|0:0,0:0:0:0:
48,232,94777,2,0,L|0:272,1,33.3333333333333
104,296,95071,2,0,L|128:336,1,33.3333333333333
192,296,95365,2,0,L|240:304,1,33.3333333333333
304,280,95660,6,0,B|336:256|360:200|360:200|392:240|440:208,1,166.666666666667,8|0,0:0|0:0,0:0:0:0:
464,152,96542,2,0,P|464:104|440:72,1,66.6666666666667
376,64,96983,2,0,P|352:104|304:112,1,66.6666666666667
256,96,97424,5,2,0:0:0:0:
144,296,98307,1,0,0:0:0:0:
352,240,99189,5,8,0:0:0:0:
352,240,99630,2,0,P|328:200|272:184,1,100
216,136,100218,2,0,L|232:104,2,33.3333333333333
144,176,100659,2,0,L|120:232,1,33.3333333333333
96,280,100954,5,2,0:0:0:0:
96,280,101395,2,0,P|120:320|176:336,1,100
240,296,101983,2,0,L|256:256,2,33.3333333333333
320,328,102424,2,0,L|352:352,1,33.3333333333333
424,336,102718,5,8,0:0:0:0:
424,336,103159,6,0,P|464:296|448:248,1,100
448,176,103748,2,0,L|472:136,2,33.3333333333333
368,192,104189,2,0,L|320:200,1,33.3333333333333
256,208,104483,5,2,0:0:0:0:
256,208,104924,2,0,P|208:208|168:160,1,100,0|2,0:0|0:0,0:0:0:0:
216,32,105659,5,2,0:0:0:0:
312,120,105954,5,2,0:0:0:0:
172,173,106248,6,0,P|140:205|92:221,1,66.6666666666667,8|0,0:0|0:0,0:0:0:0:
160,288,106689,2,0,P|208:304|224:328,1,66.6666666666667
296,288,107130,2,0,L|320:240,2,33.3333333333333
384,232,107571,2,0,L|408:176,2,33.3333333333333
336,144,108012,6,0,P|312:96|272:80,1,66.6666666666667,2|0,0:0|0:0,0:0:0:0:
224,104,108454,2,0,P|192:144|152:144,1,66.6666666666667
96,160,108895,2,0,L|80:200,2,33.3333333333333
120,264,109336,2,0,L|104:304,2,33.3333333333333
184,328,109777,6,0,B|200:288|248:272|248:272|272:304|336:320,1,166.666666666667,8|0,0:0|0:0,0:0:0:0:
360,248,110659,2,0,B|304:232|296:208|296:208|352:184|376:136,1,166.666666666667,8|0,0:0|0:0,0:0:0:0:
304,104,111542,6,0,B|296:144|216:136|216:192|208:224|160:224,1,166.666666666667,8|0,0:0|0:0,0:0:0:0:
104,208,112424,2,0,P|48:144|54:218,1,200,8|0,0:0|0:0,0:0:0:0:
216,96,122130,6,0,P|160:72|128:80,1,79.9999975585938,2|0,0:0|0:0,0:0:0:0:
296,128,122571,2,0,P|336:144|400:120,1,79.9999975585938,2|0,0:0|0:0,0:0:0:0:
232,176,123012,2,0,P|224:216|176:232,1,79.9999975585938,2|0,0:0|0:0,0:0:0:0:
152,152,123454,2,0,L|72:184,1,79.9999975585938,2|0,0:0|0:0,0:0:0:0:
64,256,123895,6,0,P|88:288|80:336,1,79.9999975585938,2|0,0:0|0:0,0:0:0:0:
184,312,124336,2,0,P|168:256|192:224,1,79.9999975585938,2|0,0:0|0:0,0:0:0:0:
256,240,124777,2,0,P|312:256|344:216,1,79.9999975585938,2|0,0:0|0:0,0:0:0:0:
344,168,125218,2,0,L|288:104,1,79.9999975585938,2|0,0:0|0:0,0:0:0:0:
224,64,125659,5,10,0:0:0:0:
200,88,126101,5,2,0:0:0:0:
176,112,126542,5,2,0:0:0:0:
152,136,126983,5,2,0:0:0:0:
256,192,127424,12,0,130512,0:0:0:0:
192,128,130954,6,0,B|152:112|104:120|104:120|120:176|64:232,1,199.999993896485,12|0,0:0|0:0,0:0:0:0:
72,304,131836,2,0,L|88:344,2,39.9999987792969
144,264,132277,2,0,L|168:224,2,39.9999987792969
216,304,132718,6,0,B|264:344|328:344|328:344|328:304|360:256,1,199.999993896485,2|0,0:0|0:0,0:0:0:0:
432,264,133601,2,0,L|472:272,1,39.9999987792969
400,192,133895,2,0,L|424:152,1,39.9999987792969
320,200,134189,2,0,L|280:184,1,39.9999987792969
208,160,134483,6,0,B|160:176|128:168|128:168|136:152|136:112|136:112|96:128|40:112,1,199.999993896485,8|0,0:0|0:0,0:0:0:0:
64,40,135365,2,0,L|32:8,2,39.9999987792969
144,32,135807,2,0,L|128:-8,2,39.9999987792969
216,72,136248,6,0,B|272:88|296:136|296:136|336:120|424:128,1,199.999993896485,2|0,0:0|0:0,0:0:0:0:
464,152,137130,5,2,0:0:0:0:
432,288,137424,5,2,0:0:0:0:
320,208,137718,5,2,0:0:0:0:
288,336,138012,6,0,B|248:344|208:336|208:336|224:320|216:288|216:288|176:304|112:296,1,199.999993896485,8|0,0:0|0:0,0:0:0:0:
80,256,138895,2,0,L|72:208,2,39.9999987792969
152,208,139336,2,0,L|144:160,2,39.9999987792969
232,208,139777,6,0,B|280:208|296:200|296:200|288:240|288:256|288:256|328:240|392:248,1,199.999993896485,2|0,0:0|0:0,0:0:0:0:
424,296,140659,2,0,L|464:320,1,39.9999987792969
440,216,140954,2,0,L|480:208,1,39.9999987792969
376,168,141248,2,0,L|400:112,1,39.9999987792969
312,120,141542,6,0,B|280:96|288:48|288:48|240:64|160:56,1,199.999993896485,8|0,0:0|0:0,0:0:0:0:
96,88,142424,2,0,P|96:144|64:176,1,79.9999975585938
32,224,142865,2,0,P|64:256|64:312,1,79.9999975585938
120,352,143307,5,2,0:0:0:0:
360,256,144189,5,0,0:0:0:0:
272,40,145071,5,8,0:0:0:0:
272,40,145512,2,0,P|208:24|224:72,1,119.999996337891
176,128,146101,2,0,L|160:176,1,39.9999987792969
208,232,146395,2,0,L|224:296,2,39.9999987792969
272,176,146836,5,2,0:0:0:0:
272,176,147277,2,0,P|320:152|328:208,1,119.999996337891
368,272,147865,2,0,L|440:248,1,39.9999987792969
304,320,148159,2,0,L|240:344,2,39.9999987792969
248,256,148601,5,8,0:0:0:0:
248,256,149042,2,0,P|208:232|192:288,1,119.999996337891
120,328,149630,2,0,L|104:288,1,39.9999987792969
56,232,149924,2,0,L|8:240,2,39.9999987792969
96,160,150365,5,2,0:0:0:0:
96,160,150807,6,0,P|96:112|152:144,1,119.999996337891,0|2,0:0|0:0,0:0:0:0:
288,72,151542,5,2,0:0:0:0:
264,208,151836,5,2,0:0:0:0:
392,160,152130,6,0,P|440:192|456:232,1,79.9999975585938,8|0,0:0|0:0,0:0:0:0:
376,232,152571,2,0,P|320:184|320:144,1,79.9999975585938
264,120,153012,2,0,L|232:88,2,39.9999987792969
320,56,153454,2,0,L|344:24,2,39.9999987792969
248,16,153895,6,0,P|192:8|160:32,1,79.9999975585938,2|0,0:0|0:0,0:0:0:0:
96,88,154336,2,0,P|144:104|176:88,1,79.9999975585938
224,152,154777,2,0,L|208:192,2,39.9999987792969
288,208,155218,2,0,L|312:264,2,39.9999987792969
232,272,155659,6,0,B|192:304|192:352|192:352|160:320|80:328,1,199.999993896485,8|0,0:0|0:0,0:0:0:0:
32,272,156542,2,0,B|56:224|32:176|32:176|48:128|120:136,1,199.999993896485,8|0,0:0|0:0,0:0:0:0:
120,216,157424,6,0,B|112:240|112:256|112:256|184:160|280:184,1,199.999993896485,8|0,0:0|0:0,0:0:0:0:
328,192,158307,2,0,P|328:264|384:184,1,239.999992675781,8|4,0:0|0:0,0:0:0:0:
296,136,169777,6,0,L|312:96,2,33.3333333333333,8|0|0,0:0|0:0|0:0,0:0:0:0:
216,168,170218,2,0,L|168:144,2,33.3333333333333,8|0|0,0:0|0:0|0:0,0:0:0:0:
256,248,170659,2,0,L|240:296,2,33.3333333333333,8|0|0,0:0|0:0|0:0,0:0:0:0:
336,216,171101,2,0,L|384:240,2,33.3333333333333,8|0|0,0:0|0:0|0:0,0:0:0:0:
384,144,171542,6,0,L|432:128,2,33.3333333333333,8|0|0,0:0|0:0|0:0,0:0:0:0:
304,88,171983,2,0,L|248:112,2,33.3333333333333,8|0|0,0:0|0:0|0:0,0:0:0:0:
384,56,172424,2,0,L|432:40,2,33.3333333333333,8|0|0,0:0|0:0|0:0,0:0:0:0:
304,176,172865,2,0,L|256:192,2,33.3333333333333,8|0|0,0:0|0:0|0:0,0:0:0:0:
256,192,173307,12,4,178601,0:0:0:0:
328,48,179483,6,0,B|312:64|296:56|296:56|288:56|280:64|280:64|280:80|264:72|264:72|256:64|248:72|248:72|248:88|240:80|240:80|224:64|216:72|216:72|216:96|208:88|208:88|208:72|200:72|200:72|184:80|184:80,1,199.999993896485,8|0,0:0|0:0,0:0:0:0:
136,136,180365,2,2,P|104:184|112:216,2,79.9999975585938
232,232,181248,2,0,B|248:248|256:240|256:240|272:232|272:248|272:248|264:256|280:264|280:264|288:256|312:288,1,79.9999975585938,2|0,0:0|0:0,0:0:0:0:
344,312,181689,2,0,L|408:320,2,39.9999987792969
392,232,182130,2,0,P|400:176|384:136,1,79.9999975585938
312,152,182571,2,0,P|304:200|320:240,1,79.9999975585938
224,152,183012,6,0,B|208:144|208:160|208:160|200:176|192:168|192:168|184:152|176:160|176:160|184:176|184:192|184:192|168:176|152:168|152:168|152:176|160:192|160:192|144:200|112:192,1,199.999993896485,8|0,0:0|0:0,0:0:0:0:
80,264,183895,2,2,P|56:328|72:360,2,79.9999975585938
80,136,184777,6,0,P|56:96|72:48,1,79.9999975585938,2|0,0:0|0:0,0:0:0:0:
136,80,185218,2,0,L|176:128,2,39.9999987792969
208,40,185659,5,2,0:0:0:0:
264,176,185954,5,2,0:0:0:0:
352,72,186248,5,2,0:0:0:0:
416,200,186542,6,0,B|432:208|448:208|448:208|416:232|448:240|448:240|408:248|408:264|408:264|392:272|400:288|400:288|368:280|328:296,1,199.999993896485,8|0,0:0|0:0,0:0:0:0:
280,304,187424,2,2,P|232:320|208:344,2,79.9999975585938
208,192,188307,2,0,B|208:168|192:168|192:168|176:160|184:152|184:152|184:136|168:136|168:136|160:128,1,79.9999975585938,2|0,0:0|0:0,0:0:0:0:
104,88,188748,2,0,L|64:64,2,39.9999987792969
176,56,189189,2,0,P|232:32|272:32,1,79.9999975585938
296,96,189630,2,0,P|352:112|392:112,1,79.9999975585938
448,80,190071,6,0,B|456:88|448:96|448:96|448:104|456:112|456:112|456:120|464:128|464:128|456:136|448:144|448:144|480:160|448:152|448:152|456:160|456:160|456:168|456:176|464:176|472:184,1,119.999996337891,8|2,0:0|0:0,0:0:0:0:
312,224,190954,5,8,0:0:0:0:
312,224,191395,6,0,B|304:216|304:216|304:232|304:232|288:216|288:216|288:224|288:224|272:232|272:232|272:216|272:216|264:232|264:232|256:216|256:216|240:224,1,119.999996337891,2|8,0:0|0:0,0:0:0:0:
160,304,192277,6,0,B|160:288|152:288|152:288|136:296|136:280|136:280|144:272|136:264|136:264|112:272|120:256|120:256|128:232|112:232,1,119.999996337891,2|8,0:0|0:0,0:0:0:0:
80,160,192865,2,2,L|72:112,2,39.9999987792969
240,96,193601,6,0,B|256:88|256:104|256:104|264:112|272:104|272:104|272:96|288:96|288:96|288:104|304:112|304:112|312:96|320:96|320:96|328:112|344:120|344:120|344:96|360:104|360:104|384:112,1,199.999993896485,8|0,0:0|0:0,0:0:0:0:
384,192,194483,2,2,P|336:208|304:232,2,79.9999975585938
456,296,195365,2,0,L|464:336,2,39.9999987792969,2|0|0,0:0|0:0|0:0,0:0:0:0:
464,216,195807,2,0,L|488:160,2,39.9999987792969
392,248,196248,1,0,0:0:0:0:
248,320,196689,2,0,B|240:304|232:320|232:320|216:328|216:312|216:312|224:304|216:296|216:296|208:296|192:304|192:304|192:296,1,79.9999975585938
128,272,197130,6,0,B|120:256|120:256|128:256|136:256|136:256|128:248|120:240|120:240|144:240|144:240|136:216|120:224|120:224|112:208|136:200|136:200|136:176|120:176|120:176|112:176|120:152,1,199.999993896485,8|0,0:0|0:0,0:0:0:0:
120,80,198012,6,2,B|136:80|136:80|160:96|160:96|184:64|184:64|216:80|216:80|248:80,1,150.000005722046
208,248,198895,2,0,L|200:296,2,39.9999987792969,2|0|0,0:0|0:0|0:0,0:0:0:0:
280,200,199336,2,0,L|344:224,2,39.9999987792969
208,168,199777,5,2,0:0:0:0:
64,136,200071,5,2,0:0:0:0:
104,272,200365,5,2,0:0:0:0:
240,312,200659,6,0,B|256:320|264:312|264:312|272:296|280:312|280:312|280:320|296:312|296:312|296:304|304:312|304:312|312:320|320:312|320:312|320:304|336:304|336:304|344:320|352:312|352:312|352:304|368:312|368:312|360:328|376:328|376:328|408:312,1,199.999993896485,8|0,0:0|0:0,0:0:0:0:
440,256,201542,2,2,P|448:184|464:144,2,79.9999975585938
328,160,202424,2,0,B|320:152|312:160|312:160|312:168|296:160|296:160|296:152|288:160|288:160|288:168|272:160|272:160|272:152|264:152,1,79.9999975585938,2|0,0:0|0:0,0:0:0:0:
208,96,202865,2,0,L|200:48,2,39.9999987792969
192,176,203307,2,0,P|176:224|128:248,1,79.9999975585938
80,240,203748,2,0,P|103:182|137:169,1,79.9999975585938
128,96,204189,6,0,B|176:80|192:32|192:32|224:48|296:40,1,199.999993896485,8|0,0:0|0:0,0:0:0:0:
368,72,205071,2,0,B|336:120|304:120|232:120|232:120|208:144|168:160,1,199.999993896485,8|0,0:0|0:0,0:0:0:0:
120,168,205954,6,0,B|144:224|184:240|240:216|264:192|264:192|304:192|320:192,1,199.999993896485,8|0,0:0|0:0,0:0:0:0:
368,192,206836,2,0,P|454:231|360:256,1,239.999992675781,8|4,0:0|0:0,0:0:0:0:
176,64,208601,5,2,0:0:0:0:
72,152,209042,2,2,P|48:184|48:184,2,33.3333333333333
141,189,209483,2,0,P|176:248|200:256,1,66.6666666666667,8|2,0:0|0:0,0:0:0:0:
242,274,209924,2,0,P|240:208|192:176,1,100,2|2,0:0|0:0,0:0:0:0:
336,72,210807,6,2,L|360:40,2,33.3333333333333
256,88,211248,2,0,B|248:80|248:80|232:96|232:96|232:80|232:80|216:96|216:96|216:80|216:80|192:96|192:96|192:88|176:88|128:136,1,200,8|2,0:0|0:0,0:0:0:0:
88,288,212571,6,2,L|72:328,2,33.3333333333333
160,320,213012,2,0,L|200:336,1,33.3333333333333,8|0,0:0|0:0,0:0:0:0:
264,296,213307,2,0,L|320:280,1,33.3333333333333,8|0,0:0|0:0,0:0:0:0:
368,320,213601,2,0,L|408:336,1,33.3333333333333,8|0,0:0|0:0,0:0:0:0:
456,280,213895,6,2,P|488:240|480:168,1,100
464,120,214483,2,2,L|496:96,1,33.3333333333333
384,136,214777,2,0,B|360:120|360:120|336:136|336:136|336:120|336:120|304:128|304:128|296:144|296:144|272:128|256:144|256:144|256:128|256:128|224:136,1,200,8|2,0:0|0:0,0:0:0:0:
88,64,216101,6,2,L|56:16,2,33.3333333333333
56,136,216542,2,0,P|48:192|64:216,1,66.6666666666667,8|2,0:0|0:0,0:0:0:0:
96,264,216983,2,0,P|64:288|112:320,1,100,8|2,0:0|0:0,0:0:0:0:
288,336,217865,6,2,L|344:352,2,33.3333333333333
240,272,218307,2,0,B|264:232|264:232|256:224|256:224|272:224|272:224|296:192,2,100,8|8|2,0:0|0:0|0:0,0:0:0:0:
168,240,219630,2,2,L|152:200,2,33.3333333333333
88,256,220071,2,0,P|48:232|96:112,1,200,8|2,0:0|0:0,0:0:0:0:
256,104,221395,6,8,L|256:144,3,33.3333333333333,8|8|8|12,0:0|0:0|0:0|0:0,0:0:0:0:
