osu file format v14

[General]
AudioFilename: audio.mp3
AudioLeadIn: 0
PreviewTime: 5770
Countdown: 1
SampleSet: Soft
StackLeniency: 0.7
Mode: 0
LetterboxInBreaks: 0
WidescreenStoryboard: 1

[Editor]
Bookmarks: 25701,31816,38121,44045,50160,56274
DistanceSpacing: 1.2
BeatDivisor: 4
GridSize: 32
TimelineZoom: 2.899999

[Metadata]
Title:Adventure of a Lifetime
TitleUnicode:Adventure of a Lifetime
Artist:Two Steps From Hell
ArtistUnicode:Two Steps From Hell
Creator:Nao Tomori
Version:Normal
Source:
Tags:classics volume two 2 legend brass orchestral classical instrumental epic nick phoenix thomas bergersen tsfh emu1337
BeatmapID:2191733
BeatmapSetID:986567

[Difficulty]
HPDrainRate:3
CircleSize:3.3
OverallDifficulty:3
ApproachRate:5
SliderMultiplier:0.999999999999999
SliderTickRate:1

[Events]
//Background and Video events
0,0,"birb x2.jpg",0,0
//Break Periods
//Storyboard Layer 0 (Background)
//Storyboard Layer 1 (Fail)
//Storyboard Layer 2 (Pass)
//Storyboard Layer 3 (Foreground)
//Storyboard Layer 4 (Overlay)
//Storyboard Sound Samples

[TimingPoints]
1254,378.310214375788,4,2,0,57,1,0
1254,-101.282051282051,4,2,0,57,0,0
4283,375,4,2,0,57,1,0
4283,-102.564102564103,4,2,0,57,0,0
5033,382.165605095541,4,2,0,57,1,0
5415,429.338103756708,4,2,0,57,1,0
5415,-89.5833333333334,4,2,0,57,0,0
5629,454.545454545455,4,2,0,57,1,0
5629,-84.6153846153845,4,2,0,57,0,0
5856,377.358490566038,4,2,0,57,1,0
5856,-101.923076923077,4,2,0,57,0,0
7365,375,4,2,0,57,1,0
7365,-102.564102564103,4,2,0,67,0,0
7740,-100,4,2,0,57,0,0
8865,379.746835443038,4,2,0,57,1,0
8865,-101.282051282051,4,2,0,57,0,0
9996,387.096774193548,4,2,0,57,1,0
10383,382.65306122449,4,2,0,57,1,0
10383,-100.641025641026,4,2,0,57,0,0
11911,-87.1794871794872,4,2,0,57,0,0
12352,380.952380952381,4,2,0,57,1,0
12352,-110.576923076923,4,2,0,57,0,0
13103,-110.576923076923,4,2,0,57,0,0
13440,388.349514563107,4,2,0,57,1,0
13440,-99.3589743589745,4,2,0,57,0,0
14216,390.117035110533,4,2,0,57,1,0
14601,-81.4102564102564,4,2,0,57,0,0
14826,389.61038961039,4,2,0,57,1,0
14826,-104.807692307692,4,2,0,57,0,0
15020,365.853658536585,4,2,0,57,1,0
15020,-105.128205128205,4,2,0,57,0,0
15934,419.58041958042,4,2,0,57,1,0
15934,-91.6666666666666,4,2,0,57,0,0
16563,376.175548589342,4,2,0,57,1,0
16563,-101.923076923077,4,2,0,57,0,0
18072,377.358490566038,4,2,0,57,1,0
18072,-101.522842639594,4,2,0,57,0,0
19204,408.163265306122,4,2,0,57,1,0
19204,-94.2307692307693,4,2,0,57,0,0
19612,384.615384615385,4,2,0,57,1,0
19612,-99.9999999999999,4,2,0,67,0,0
19979,-100,4,2,0,57,0,0
21150,377.358490566038,4,2,0,57,1,0
21150,-101.923076923077,4,2,0,57,0,0
21716,358.208955223881,4,2,0,57,1,0
21716,-107.692307692308,4,2,0,57,0,0
22253,408.163265306122,4,2,0,57,1,0
22253,-98.5576923076924,4,2,0,57,0,0
22661,406.779661016949,4,2,0,57,1,0
22661,-98.0769230769231,4,2,0,57,0,0
23067,398.671096345515,4,2,0,57,1,0
23465,382.165605095541,4,2,0,57,1,0
23465,-98.0392156862745,4,2,0,57,0,0
24229,379.746835443038,4,2,0,57,1,0
25747,384.615384615385,4,2,0,37,1,0
25747,-99.9999999999999,4,2,0,37,0,0
27285,372.670807453416,4,2,0,47,1,0
27285,-103.205128205128,4,2,0,47,0,0
28775,377.358490566038,4,2,0,57,1,0
28775,-101.923076923077,4,2,0,57,0,0
29529,402.684563758389,4,2,0,57,1,0
29529,-94.871794871795,4,2,0,57,0,0
30339,360.36036036036,4,2,0,77,1,0
30339,-112.820512820513,4,2,0,77,0,0
30679,-101.282051282051,4,2,0,77,0,0
31058,394.736842105263,4,2,0,77,1,0
31058,-97.4358974358975,4,2,0,77,0,0
31847,379.746835443038,4,2,0,77,1,1
31847,-101.282051282051,4,2,0,77,0,1
34884,382.165605095541,4,2,0,77,1,1
34884,-100.641025641026,4,2,0,77,0,1
36412,385.232744783307,4,2,0,77,1,1
36412,-99.8397435897435,4,2,0,77,0,1
37952,383.0194701564,4,2,0,57,1,0
37952,-104.48717948718,4,2,0,57,0,0
38688,-100.641025641026,4,2,0,57,0,0
38718,375,4,2,0,57,1,0
39087,365.853658536585,4,2,0,57,1,0
39452,381.436745073109,4,2,0,57,1,0
39452,-100.833333333333,4,2,0,57,0,0
40977,392.156862745098,4,2,0,57,1,0
40977,-98.0769230769231,4,2,0,57,0,0
42545,382.165605095541,4,2,0,57,1,0
42545,-100.641025641026,4,2,0,57,0,0
42927,377.358490566038,4,2,0,57,1,0
43299,384.615384615385,4,2,0,57,1,0
44073,390.879478827362,4,2,0,67,1,1
44073,-98.3974358974358,4,2,0,67,0,1
44854,393.44262295082,4,2,0,67,1,1
44854,-99.009900990099,4,2,0,67,0,1
45636,-103.846153846154,4,2,0,67,0,1
45640,372.670807453416,4,2,0,67,1,1
46376,-101.121794871795,4,2,0,67,0,1
46389,373.831775700935,4,2,0,67,1,1
47136,382.165605095541,4,2,0,67,1,1
47136,-100.641025641026,4,2,0,67,0,1
48282,402.684563758389,4,2,0,67,1,1
48282,-95.5128205128206,4,2,0,67,0,1
48684,392.156862745098,4,2,0,67,1,1
48684,-98.0769230769231,4,2,0,67,0,1
49468,337.078651685393,4,2,0,67,1,1
49468,-114.102564102564,4,2,0,67,0,1
49971,-91.9871794871794,4,2,0,67,0,1
49974,413.793103448276,4,2,0,67,1,1
50180,397.350993377483,4,2,0,67,1,0
50180,-96.7948717948719,4,2,0,67,0,0
50378,-94.3396226415094,4,2,0,67,0,0
50577,379.746835443038,4,2,0,67,1,0
50577,-101.282051282051,4,2,0,67,0,0
51716,382.165605095541,4,2,0,67,1,0
51716,-100.641025641026,4,2,0,67,0,0
52862,402.684563758389,4,2,0,67,1,0
53244,-99.3589743589745,4,2,0,67,0,0
53264,379.746835443038,4,2,0,67,1,0
54405,387.096774193548,4,2,0,67,1,0
54792,372.670807453416,4,2,0,67,1,0
54792,-107.051282051282,4,2,0,67,0,0
55510,-94.2307692307693,4,2,0,67,0,0
55537,394.736842105263,4,2,0,67,1,0
56326,375,4,2,0,67,1,0
56326,-102.564102564103,4,2,0,67,0,0
58951,394.736842105263,4,2,0,67,1,0
58951,-97.4358974358975,4,2,0,67,0,0
59345,395.256916996047,4,2,0,77,1,1
59345,-98.0769230769231,4,2,0,67,0,1
60011,-100,4,2,0,67,0,1
60129,-103.846153846154,4,2,0,67,0,1
60135,367.421922841396,4,2,0,67,1,1
60869,389.61038961039,4,2,0,67,1,1
60869,-98.7179487179486,4,2,0,67,0,1
61550,-100,4,2,0,67,0,1
61636,-100,4,2,0,67,0,1
62330,-100,4,2,0,67,0,1
62400,-100,4,2,0,67,0,1
65544,-98.7179487179486,4,2,0,57,0,0

[Colours]
Combo1 : 248,120,120
Combo2 : 112,243,157
Combo3 : 243,146,86
Combo4 : 128,173,249

[HitObjects]
63,167,1254,6,0,P|44:207|53:265,1,98.7341774058941,2|2,2:2|2:2,0:0:0:0:
157,278,2010,2,0,P|175:237|166:179,1,98.7341774058941,2|2,2:2|2:2,0:0:0:0:
256,119,2767,2,0,L|377:104,1,98.7341774058941,2|2,2:2|2:2,0:0:0:0:
376,213,3523,2,0,L|255:228,1,98.7341774058941,2|2,2:2|2:2,0:0:0:0:
208,308,4283,2,0,B|158:299|158:299|99:321,1,97.5000003719329,2|2,2:2|2:2,0:0:0:0:
21,260,5033,2,0,B|6:233|4:216|4:216|12:193|19:150,1,99.9999999999999,2|2,2:2|2:2,0:0:0:0:
59,59,5856,5,0,3:2:0:0:
170,98,6233,1,0,3:2:0:0:
170,98,6422,1,0,3:2:0:0:
170,98,6610,2,0,P|224:78|290:137,1,147.169806236302,0|2,3:2|3:2,0:0:0:0:
331,162,7365,6,0,L|341:272,1,97.5000003719329,6|2,2:2|3:2,0:0:0:0:
425,323,8115,2,0,P|447:275|426:213,1,99.9999999999999,2|0,3:2|2:2,0:0:0:0:
481,133,8865,2,0,L|463:31,1,98.7341774058941,2|0,3:2|3:2,0:0:0:0:
412,17,9434,2,0,L|332:83,1,98.7341774058941,2|0,2:2|3:2,0:0:0:0:
282,72,9996,1,2,3:2:0:0:
201,144,10383,6,0,P|154:120|44:193,2,198.726107310309,2|2|2,3:2|3:2|3:2,0:0:0:0:
277,243,12352,1,4,2:3:0:0:
277,243,12542,2,0,P|345:225|382:219,1,90.4347854885397,8|0,2:3|2:2,0:0:0:0:
412,234,13113,1,8,2:3:0:0:
451,324,13440,6,0,P|394:335|354:316,1,100.645165055322,6|2,3:2|3:2,0:0:0:0:
255,360,14216,2,0,P|159:351|141:348,1,99.9999999999999,2|0,3:2|2:2,0:0:0:0:
110,331,14826,1,2,2:2:0:0:
110,331,15020,2,0,P|94:288|102:234,1,95.1219519275344,2|2,3:2|3:2,0:0:0:0:
154,135,15751,1,2,2:2:0:0:
154,135,15934,1,2,3:2:0:0:
268,171,16353,1,2,2:2:0:0:
268,171,16563,6,0,P|283:150|202:19,1,196.22640831507,2|2,3:2|2:2,0:0:0:0:
170,47,17503,1,2,3:2:0:0:
62,47,17879,1,0,3:2:0:0:
62,47,18072,2,0,P|52:145|50:212,1,147.750000338173,2|2,3:2|2:2,0:0:0:0:
18,238,18826,2,0,B|6:265|6:266|6:266|27:291|42:340,1,98.5000002254485,0|4,0:0|0:3,0:0:0:0:
149,365,19612,5,6,3:2:0:0:
242,307,19996,1,2,3:2:0:0:
275,202,20381,2,0,P|269:152|259:100,1,99.9999999999999,2|0,3:2|3:2,0:0:0:0:
365,88,21150,2,0,P|370:145|377:185,1,98.113204157535,2|0,3:2|3:2,0:0:0:0:
427,211,21716,2,0,B|438:245|438:245|435:277|414:310,1,92.8571438692053,2|0,2:2|3:2,0:0:0:0:
389,344,22253,1,2,3:2:0:0:
281,314,22661,6,0,P|219:298|177:320,1,101.960787974427,2|4,3:2|2:3,0:0:0:0:
74,291,23465,2,0,P|65:248|44:187,1,102.000000622558,6|0,3:2|2:2,0:0:0:0:
95,92,24229,1,2,3:2:0:0:
189,147,24608,1,2,3:2:0:0:
291,107,24988,2,0,B|377:86|351:154|448:131,1,150,2|8,3:2|2:3,0:0:0:0:
485,112,25747,6,0,P|474:153|468:225,1,99.9999999999999,6|2,3:2|2:2,0:0:0:0:
483,319,26516,2,0,P|448:308|337:365,1,150,2|2,3:2|2:2,0:0:0:0:
293,339,27285,2,0,L|187:328,1,96.8944068156083,2|0,3:2|0:0,0:0:0:0:
166,226,28030,2,0,L|272:237,1,96.8944068156083,2|0,3:2|0:0,0:0:0:0:
357,188,28775,5,2,3:2:0:0:
328,83,29152,1,2,3:2:0:0:
230,128,29529,2,0,P|182:143|119:123,1,105.405404536022,2|0,3:2|3:2,0:0:0:0:
76,107,30133,1,2,2:2:0:0:
76,107,30339,2,0,P|88:162|79:196,1,88.6363651732767,2|2,3:2|3:2,0:0:0:0:
57,298,31059,2,0,B|119:277|119:277|157:320|205:310,1,153.947367802881,6|0,3:2|2:2,0:0:0:0:
250,335,31847,5,6,3:2:0:0:
349,292,32226,1,2,3:2:0:0:
284,204,32606,2,0,L|273:96,1,98.7341774058941,2|0,3:2|2:2,0:0:0:0:
341,20,33365,1,2,3:2:0:0:
436,71,33745,1,2,3:2:0:0:
379,163,34125,1,2,2:2:0:0:
379,163,34315,2,0,P|363:219|359:269,1,98.7341774058941,2|0,2:2|2:2,0:0:0:0:
383,307,34884,6,0,P|321:292|236:340,1,149.044580482732,2|0,2:2|3:2,0:0:0:0:
194,310,35648,2,0,L|91:296,1,99.3630536551543,2|0,2:2|3:2,0:0:0:0:
22,215,36412,1,2,2:2:0:0:
119,164,36797,1,0,3:2:0:0:
223,199,37182,1,2,3:2:0:0:
321,149,37567,1,0,3:2:0:0:
419,197,37952,6,0,L|424:244,2,47.8527593027236,6|0|0,3:2|2:2|2:2,0:0:0:0:
484,114,38718,1,2,2:2:0:0:
401,42,39087,1,2,2:2:0:0:
300,85,39452,2,0,L|247:60,2,49.5867756088691,2|0|0,2:2|2:2|2:2,0:0:0:0:
305,193,40214,1,0,2:2:0:0:
217,257,40596,1,2,2:2:0:0:
123,201,40977,6,0,L|127:150,2,50.9803939872135,6|0|0,3:2|2:2|2:2,0:0:0:0:
35,271,41761,1,2,2:2:0:0:
88,369,42153,1,2,2:2:0:0:
189,320,42545,2,0,L|238:330,2,49.6815268275772,2|0|2,2:2|2:2|2:2,0:0:0:0:
157,215,43299,1,2,2:2:0:0:
157,215,43491,1,2,2:2:0:0:
157,215,43683,1,6,3:2:0:0:
235,138,44073,6,0,B|280:115|280:115|343:136,1,101.628662272569,8|4,2:3|2:3,0:0:0:0:
441,135,44854,2,0,B|435:203|435:203|433:205|433:205|426:286,1,151.499996994781,2|2,3:2|2:2,0:0:0:0:
414,341,45640,1,2,3:2:0:0:
310,317,46012,1,2,3:2:0:0:
210,353,46385,1,2,3:2:0:0:
108,312,46762,1,2,3:2:0:0:
7,353,47136,6,0,B|-7:306|-7:306|9:253,1,99.3630536551543,6|2,3:2|3:2,0:0:0:0:
93,190,47900,2,0,B|107:141|107:141|93:94,1,99.3630536551543,2|0,3:2|3:2,0:0:0:0:
61,47,48483,1,2,2:2:0:0:
61,47,48684,2,0,P|97:59|170:33,1,101.960787974427,2|2,3:2|3:2,0:0:0:0:
257,94,49468,2,0,B|283:90|283:90|309:116|359:100,1,87.640451091029,2|8,3:2|2:3,0:0:0:0:
445,62,50180,5,6,3:2:0:0:
445,62,50378,2,0,P|462:94|440:174,1,103.311261827666,2|0,2:2|0:0,0:0:0:0:
417,197,50956,1,2,2:2:0:0:
456,298,51336,1,2,2:2:0:0:
369,364,51716,1,2,3:2:0:0:
263,336,52098,2,0,P|206:326|155:350,2,99.3630536551543,2|8|4,3:2|2:3|2:3,0:0:0:0:
300,233,53264,5,6,3:2:0:0:
300,233,53453,2,0,P|293:174|282:115,1,99.9999999999999,2|2,2:2|2:2,0:0:0:0:
272,79,54023,1,2,2:2:0:0:
162,62,54403,1,2,2:2:0:0:
78,134,54792,2,0,P|64:161|78:230,1,93.4131712628494,2|2,3:2|3:2,0:0:0:0:
157,279,55537,1,2,3:2:0:0:
263,231,55931,1,2,3:2:0:0:
371,273,56326,5,2,3:2:0:0:
256,192,56513,12,2,58576,3:2:0:0:
470,198,59345,6,0,P|463:164|317:149,1,203.921575948854,6|2,2:2|2:2,0:0:0:0:
260,227,60502,1,2,2:2:0:0:
260,227,60686,1,2,2:2:0:0:
260,227,60869,2,0,P|212:260|115:228,1,151.948051646942,2|0,2:2|0:0,0:0:0:0:
70,246,61648,2,0,B|44:201|44:201|65:91,1,150,2|0,2:2|0:0,0:0:0:0:
76,48,62427,5,2,2:2:0:0:
256,192,62622,12,6,65544,2:2:0:0:
