osu file format v14

[General]
AudioFilename: audio.mp3
AudioLeadIn: 0
PreviewTime: 5770
Countdown: 1
SampleSet: Soft
StackLeniency: 0.7
Mode: 0
LetterboxInBreaks: 0
WidescreenStoryboard: 0

[Editor]
Bookmarks: 25701,31816,38121,44045,50160,56274
DistanceSpacing: 1.2
BeatDivisor: 4
GridSize: 32
TimelineZoom: 2.899999

[Metadata]
Title:Adventure of a Lifetime
TitleUnicode:Adventure of a Lifetime
Artist:Two Steps From Hell
ArtistUnicode:Two Steps From Hell
Creator:Nao Tomori
Version:Insane
Source:
Tags:classics volume two 2 legend brass orchestral classical instrumental epic nick phoenix thomas bergersen tsfh emu1337
BeatmapID:2063907
BeatmapSetID:986567

[Difficulty]
HPDrainRate:5.5
CircleSize:4.2
OverallDifficulty:7
ApproachRate:8.6
SliderMultiplier:1.8
SliderTickRate:1

[Events]
//Background and Video events
0,0,"birb x2.jpg",0,0
//Break Periods
//Storyboard Layer 0 (Background)
//Storyboard Layer 1 (Fail)
//Storyboard Layer 2 (Pass)
//Storyboard Layer 3 (Foreground)
//Storyboard Layer 4 (Overlay)
//Storyboard Sound Samples

[TimingPoints]
1254,378.310214375788,4,2,0,57,1,0
1254,-133.333333333333,4,2,0,57,0,0
4283,375,4,2,0,57,1,0
4283,-135.135135135135,4,2,0,57,0,0
5033,382.165605095541,4,2,0,57,1,0
5033,-133.333333333333,4,2,0,57,0,0
5415,429.338103756708,4,2,0,57,1,0
5415,-100,4,2,0,57,0,0
5629,454.545454545455,4,2,0,57,1,0
5856,377.358490566038,4,2,0,57,1,0
6985,-100,4,2,0,57,0,0
7365,375,4,2,0,57,1,0
7365,-50,4,2,0,67,0,0
7740,-83.3333333333333,4,2,0,57,0,0
8865,379.746835443038,4,2,0,57,1,0
8865,-83.3333333333333,4,2,0,57,0,0
9996,387.096774193548,4,2,0,57,1,0
10383,382.65306122449,4,2,0,57,1,0
10383,-83.3333333333333,4,2,0,57,0,0
11911,-80,4,2,0,57,0,0
12352,380.952380952381,4,2,0,57,1,0
12362,-100,4,2,0,57,0,0
12542,-86.2068965517241,4,2,0,57,0,0
13103,-100,4,2,0,57,0,0
13133,-100,4,2,0,57,0,0
13440,388.349514563107,4,2,0,57,1,0
13440,-83.3333333333333,4,2,0,57,0,0
14216,390.117035110533,4,2,0,57,1,0
14216,-83.3333333333333,4,2,0,57,0,0
14826,389.61038961039,4,2,0,57,1,0
15020,365.853658536585,4,2,0,57,1,0
15020,-80.6451612903226,4,2,0,57,0,0
15934,419.58041958042,4,2,0,57,1,0
15934,-76.9230769230769,4,2,0,57,0,0
16563,376.175548589342,4,2,0,57,1,0
16563,-83.3333333333333,4,2,0,57,0,0
18072,377.358490566038,4,2,0,57,1,0
19204,408.163265306122,4,2,0,57,1,0
19612,384.615384615385,4,2,0,57,1,0
19612,-50,4,2,0,67,0,0
19979,-83.3333333333333,4,2,0,57,0,0
21150,377.358490566038,4,2,0,57,1,0
21150,-83.3333333333333,4,2,0,57,0,0
21716,358.208955223881,4,2,0,57,1,0
21716,-83.3333333333333,4,2,0,57,0,0
22253,408.163265306122,4,2,0,57,1,0
22253,-83.3333333333333,4,2,0,57,0,0
22661,406.779661016949,4,2,0,57,1,0
22661,-90.9090909090909,4,2,0,57,0,0
23033,-133.333333333333,4,2,0,57,0,0
23067,398.671096345515,4,2,0,57,1,0
23465,382.165605095541,4,2,0,57,1,0
23465,-71.4285714285714,4,2,0,57,0,0
24229,379.746835443038,4,2,0,57,1,0
24229,-90.9090909090909,4,2,0,57,0,0
24565,-105.263157894737,4,2,0,57,0,0
24947,-250,4,2,0,57,0,0
25711,-100,4,2,0,57,0,0
25747,384.615384615385,4,2,0,37,1,0
25747,-100,4,2,0,37,0,0
27285,372.670807453416,4,2,0,47,1,0
27285,-142.857142857143,4,2,0,47,0,0
28775,377.358490566038,4,2,0,57,1,0
28775,-100,4,2,0,57,0,0
29529,402.684563758389,4,2,0,57,1,0
29529,-125,4,2,0,57,0,0
30339,360.36036036036,4,2,0,77,1,0
30339,-76.9230769230769,4,2,0,77,0,0
30679,-83.3333333333333,4,2,0,77,0,0
31058,394.736842105263,4,2,0,77,1,0
31058,-71.4285714285714,4,2,0,77,0,0
31847,379.746835443038,4,2,0,77,1,1
31847,-83.3333333333333,4,2,0,77,0,1
34884,382.165605095541,4,2,0,77,1,1
34884,-83.3333333333333,4,2,0,77,0,1
36412,385.232744783307,4,2,0,77,1,1
36412,-83.3333333333333,4,2,0,77,0,1
37952,383.0194701564,4,2,0,57,1,0
37952,-100,4,2,0,57,0,0
37960,-83.3333333333333,4,2,0,57,0,0
38718,375,4,2,0,57,1,0
39087,365.853658536585,4,2,0,57,1,0
39452,381.436745073109,4,2,0,57,1,0
40977,392.156862745098,4,2,0,57,1,0
42545,382.165605095541,4,2,0,57,1,0
42927,377.358490566038,4,2,0,57,1,0
43299,384.615384615385,4,2,0,57,1,0
43674,-62.5,4,2,0,57,0,0
44073,390.879478827362,4,2,0,67,1,1
44073,-133.333333333333,4,2,0,67,0,1
44820,-100,4,2,0,67,0,1
44854,393.44262295082,4,2,0,67,1,1
45640,372.670807453416,4,2,0,67,1,1
46389,373.831775700935,4,2,0,67,1,1
46389,-83.3333333333333,4,2,0,67,0,1
47113,-66.6666666666667,4,2,0,67,0,1
47136,382.165605095541,4,2,0,67,1,1
47136,-66.6666666666667,4,2,0,67,0,1
47496,-133.333333333333,4,2,0,67,0,1
47878,-100,4,2,0,67,0,1
48282,402.684563758389,4,2,0,67,1,1
48684,392.156862745098,4,2,0,67,1,1
49024,-80,4,2,0,67,0,1
49468,337.078651685393,4,2,0,67,1,1
49468,-71.4285714285714,4,2,0,67,0,1
49974,413.793103448276,4,2,0,67,1,1
50180,397.350993377483,4,2,0,67,1,0
50180,-83.3333333333333,4,2,0,67,0,0
50189,-83.3333333333333,4,2,0,67,0,0
50577,379.746835443038,4,2,0,67,1,0
50577,-83.3333333333333,4,2,0,67,0,0
50956,-83.3333333333333,4,2,0,67,0,0
51716,382.165605095541,4,2,0,67,1,0
51716,-83.3333333333333,4,2,0,67,0,0
52464,-133.333333333333,4,2,0,67,0,0
52862,402.684563758389,4,2,0,67,1,0
53228,-74.0740740740741,4,2,0,67,0,0
53244,-74.0740740740741,4,2,0,67,0,0
53264,379.746835443038,4,2,0,67,1,0
54405,387.096774193548,4,2,0,67,1,0
54792,372.670807453416,4,2,0,67,1,0
54792,-74.0740740740741,4,2,0,67,0,0
55537,394.736842105263,4,2,0,67,1,0
55537,-71.4285714285714,4,2,0,67,0,0
56304,-83.3333333333333,4,2,0,67,0,0
56326,375,4,2,0,67,1,0
56326,-83.3333333333333,4,2,0,67,0,0
58951,394.736842105263,4,2,0,67,1,0
59345,395.256916996047,4,2,0,77,1,1
59345,-125,4,2,0,67,0,1
59725,-125,4,2,0,67,0,1
60011,-125,4,2,0,67,0,1
60135,367.421922841396,4,2,0,67,1,1
60135,-133.333333333333,4,2,0,67,0,1
60394,-125,4,2,0,67,0,1
60489,-125,4,2,0,67,0,1
60869,389.61038961039,4,2,0,67,1,1
60869,-166.666666666667,4,2,0,67,0,1
61253,-125,4,2,0,67,0,1
61550,-125,4,2,0,67,0,1
61636,-166.666666666667,4,2,0,67,0,1
62018,-125,4,2,0,67,0,1
62330,-125,4,2,0,27,0,1
62400,-125,4,2,0,67,0,1
65476,-83.3333333333333,4,2,0,67,0,1
65544,-83.3333333333333,4,2,0,57,0,0

[Colours]
Combo1 : 248,120,120
Combo2 : 112,243,157
Combo3 : 243,146,86
Combo4 : 128,173,249

[HitObjects]
9,268,1254,6,0,L|2:345,1,67.5000025749208,2|0,2:2|2:2,2:2:0:0:
80,368,1632,2,0,L|86:290,1,67.5000025749208,2|0,2:2|2:2,2:2:0:0:
226,212,2010,6,0,L|219:289,1,67.5000025749208,2|0,2:2|2:2,2:2:0:0:
298,317,2388,2,0,L|304:239,1,67.5000025749208,2|0,2:2|2:2,2:2:0:0:
406,281,2767,6,0,P|425:325|425:373,1,67.5000025749208,2|0,2:2|2:2,2:2:0:0:
477,139,3145,2,0,P|459:173|454:212,1,67.5000025749208,2|0,2:2|2:2,2:2:0:0:
299,76,3523,6,0,B|326:89|326:89|377:77|385:75,1,67.5000025749208,2|0,2:2|2:2,2:2:0:0:
220,160,3902,2,0,B|205:163|256:151|256:151|283:164,1,67.5000025749208,2|0,2:2|2:2,2:2:0:0:
101,56,4283,6,0,L|96:139,1,66.6000016259766,2|0,2:2|2:2,2:2:0:0:
7,134,4658,2,0,L|15:220,1,66.6000016259766,2|0,2:2|2:2,2:2:0:0:
203,141,5033,6,0,B|194:111|201:103|201:103|226:78,1,67.5000025749208,2|0,2:2|2:2,2:2:0:0:
294,134,5415,2,0,B|299:176|303:243,1,90,2|0,2:2|2:2,2:2:0:0:
388,298,5856,5,0,3:2:0:0:
395,288,5950,1,0,3:2:0:0:
405,274,6044,1,0,3:2:0:0:
415,253,6139,1,0,3:2:0:0:
424,226,6233,1,0,3:2:0:0:
428,192,6327,1,0,3:2:0:0:
424,151,6422,1,0,3:2:0:0:
407,108,6516,1,0,3:2:0:0:
374,68,6610,1,0,3:2:0:0:
326,37,6705,1,0,3:2:0:0:
263,25,6799,1,0,3:2:0:0:
196,40,6893,1,0,3:2:0:0:
137,85,6988,2,0,P|125:133|123:161,1,45,2|0,3:2|3:2,2:2:0:0:
221,242,7176,2,0,P|233:289|235:317,1,45,2|0,3:2|3:2,2:2:0:0:
17,384,7365,6,2,B|-40:341|-4:271|38:253|38:253|88:296|148:272|201:256,1,270,6|0,2:2|2:2,2:1:0:0:
221,242,7740,6,0,P|243:192|225:140,1,107.999996704102,2|0,3:2|2:2,2:2:0:0:
102,62,8115,2,0,P|147:99|294:38,1,215.999993408203,2|0,3:2|2:2,2:2:0:0:
483,150,8677,1,2,2:2:0:0:
481,161,8740,1,2,2:2:0:0:
480,173,8802,1,2,2:2:0:0:
478,186,8865,6,0,B|467:230|425:249|425:249|348:212|272:248,1,215.999993408203,2|0,3:2|3:2,2:2:0:0:
112,243,9434,2,0,B|127:220|155:205|155:205|226:268|162:363,1,215.999993408203,2|0,2:2|3:2,2:2:0:0:
15,294,9996,2,0,B|13:261|5:241|5:241|19:191,1,90,2|0,3:2|3:2,2:2:0:0:
152,55,10383,6,0,B|191:104|246:87|246:87|288:42|345:61,1,215.999993408203,2|0,3:2|2:2,2:2:0:0:
345,61,10956,1,0,2:2:0:0:
403,237,11147,2,0,B|385:259|356:275|356:275|273:218|324:118,1,215.999993408203,2|0,3:2|2:2,2:2:0:0:
403,237,11722,1,0,2:2:0:0:
249,352,11913,2,0,B|168:315|177:387|66:344,1,168.75,2|0,3:2|2:2,2:2:0:0:
22,292,12352,5,4,2:3:0:0:
196,222,12542,2,0,P|135:235|38:100,1,208.80000637207,4|0,0:3|0:0,0:0:0:0:
156,28,13113,2,0,B|164:73|164:73|163:81|163:81|176:142,1,90,8|0,0:3|0:0,0:0:0:0:
217,210,13440,6,0,P|280:224|331:186,1,107.999996704102,6|0,3:2|2:2,2:2:0:0:
313,4,13827,2,0,B|292:28|292:28|286:68|317:133,1,107.999996704102,2|0,3:2|2:2,2:2:0:0:
499,181,14216,2,0,B|451:135|379:152|379:152|359:207|305:206,1,215.999993408203,2|0,3:2|2:2,2:2:0:0:
141,133,14826,1,2,2:2:0:0:
130,96,14923,1,2,2:2:0:0:
131,58,15020,6,0,P|179:106|169:187,1,111.59999557251,2|0,3:2|2:2,2:2:0:0:
39,363,15385,2,0,L|55:241,1,111.59999557251,2|0,3:2|2:2,2:2:0:0:
12,94,15751,1,2,2:2:0:0:
182,256,15934,2,0,B|225:276|268:260|268:260|305:282|305:282|357:262|431:303,1,233.999989288331,2|2,3:2|2:2,2:2:0:0:
484,135,16563,6,0,P|502:82|398:60,1,161.999995056153,2|0,3:2|2:2,2:2:0:0:
331,47,16940,2,0,B|314:79|314:79|323:118|346:177,1,107.999996704102,2|0,2:2|2:2,2:2:0:0:
194,310,17315,1,2,2:2:0:0:
120,229,17503,2,0,P|58:212|16:336,1,215.999993408203,2|0,3:2|3:2,2:2:0:0:
220,211,18072,6,0,B|230:76|230:76|199:113|189:121,1,180,2|0,3:2|2:2,2:2:0:0:
291,298,18638,1,2,2:2:0:0:
291,298,18732,1,2,2:2:0:0:
291,298,18826,2,0,P|354:314|402:280,1,90,2|0,3:2|2:2,2:2:0:0:
191,372,19204,1,8,2:3:0:0:
155,352,19306,1,8,2:3:0:0:
115,346,19408,1,8,2:3:0:0:
76,355,19510,1,8,2:3:0:0:
42,376,19612,6,2,B|54:314|27:268|27:268|45:214|45:214|7:147|33:52,1,270,6|0,3:2|2:2,2:1:0:0:
108,39,19996,6,0,B|125:86|125:86|111:154,1,107.999996704102,2|0,3:2|2:2,2:2:0:0:
208,309,20381,2,0,B|283:280|283:280|348:306|348:306|447:291,1,215.999993408203,2|0,3:2|3:2,2:2:0:0:
499,133,20958,1,2,2:2:0:0:
477,94,21054,1,2,2:2:0:0:
442,67,21150,6,0,B|331:43|354:141|233:112,1,215.999993408203,2|0,3:2|3:2,2:2:0:0:
98,229,21716,2,0,P|184:206|280:287,1,215.999993408203,2|0,2:2|3:2,2:2:0:0:
6,284,22253,2,0,B|-8:230|-8:230|11:160,1,107.999996704102,2|0,3:2|3:2,2:2:0:0:
240,220,22661,6,0,B|216:228|191:218|191:218|154:235|154:235|128:224|70:231,1,148.50000453186,2|0,3:2|2:2,2:2:0:0:
229,130,23067,6,0,B|252:154|257:183|257:183|232:234,1,90,4|0,2:3|2:2,2:2:0:0:
169,51,23465,2,0,B|304:-6|280:132|430:66,1,251.999992309571,2|0,3:1|2:2,2:2:0:0:
75,23,24038,1,2,2:2:0:0:
203,236,24229,6,0,L|225:116,1,99.0000030212403,2|0,3:2|2:2,2:2:0:0:
124,278,24608,2,0,L|103:175,1,85.4999977169037,2|0,3:2|2:2,2:2:0:0:
273,313,24988,2,0,L|321:247,1,72,2|0,3:2|2:2,2:2:0:0:
323,245,25558,1,8,2:3:0:0:
424,344,25747,6,0,B|470:332|470:332|528:340,1,90,6|0,3:2|2:2,2:2:0:0:
377,140,26131,2,0,P|321:151|272:135,1,90,2|0,2:2|2:2,2:2:0:0:
460,74,26516,2,0,B|499:134|500:195|500:195|462:254,1,180,2|0,3:2|2:2,2:2:0:0:
309,348,27093,1,2,2:2:0:0:
309,348,27189,1,2,0:0:0:0:
309,348,27285,6,0,B|282:311|231:319|231:319|191:356|124:336,1,188.999994232178,2|0,3:2|2:2,2:2:0:0:
116,156,28030,2,0,B|127:134|145:114|145:114|190:185|160:253,1,188.999994232178,2|0,3:2|2:2,2:2:0:0:
83,40,28775,6,0,B|151:19|151:19|224:50,1,135,2|0,3:2|2:2,2:2:0:0:
284,105,29152,2,0,P|347:123|419:69,1,135,2|0,3:2|2:2,2:2:0:0:
498,14,29529,2,0,P|491:85|498:182,1,144,2|0,3:2|3:2,2:2:0:0:
409,348,30133,5,2,2:2:0:0:
409,348,30233,1,2,2:2:0:0:
409,348,30339,2,0,P|360:293|391:188,1,175.499991966248,2|0,3:2|2:2,2:2:0:0:
280,130,30699,2,0,B|202:111|203:186|91:151,1,161.999995056153,2|0,3:2|2:2,2:2:0:0:
15,36,31058,6,2,B|109:0|109:0|62:287,1,377.999988464356,6|0,3:2|2:2,2:1:0:0:
288,352,31847,6,0,P|349:334|410:354,1,107.999996704102,6|0,3:2|2:2,2:2:0:0:
492,177,32226,2,0,P|430:195|352:142,1,161.999995056153,2|0,3:2|2:2,2:2:0:0:
287,216,32606,2,0,B|173:225|196:159|49:182,1,215.999993408203,2|0,3:2|2:2,2:2:0:0:
0,310,33176,5,2,2:2:0:0:
0,310,33271,1,2,2:2:0:0:
0,310,33365,2,0,P|63:339|119:311,1,107.999996704102,2|0,3:1|2:2,2:2:0:0:
287,216,33745,2,0,B|234:203|234:203|156:217,1,107.999996704102,2|0,3:2|2:2,2:2:0:0:
354,330,34125,1,2,2:2:0:0:
466,91,34315,2,0,B|363:80|363:80|363:77|363:77|245:65,1,215.999993408203,2|0,2:1|2:2,2:2:0:0:
0,217,34884,6,0,B|56:206|99:248|99:248|159:263|206:217,1,215.999993408203,2|0,2:1|3:2,2:2:0:0:
203,217,35457,1,0,3:2:0:0:
492,277,35648,6,0,P|435:260|320:351,1,215.999993408203,2|0,2:1|3:2,2:2:0:0:
324,357,36221,1,0,3:2:0:0:
459,138,36412,6,0,B|352:116|352:116|234:160,1,215.999993408203,2|0,2:1|3:2,2:2:0:0:
55,85,36989,1,0,3:2:0:0:
55,85,37086,1,0,3:2:0:0:
55,85,37182,6,0,P|37:135|54:214,1,107.999996704102,2|0,3:1|2:2,2:2:0:0:
176,361,37567,2,0,P|194:311|177:232,1,107.999996704102,2|0,3:2|2:2,2:2:0:0:
98,288,37952,5,6,3:2:0:0:
269,358,38143,1,0,2:2:0:0:
269,358,38335,1,0,2:2:0:0:
302,224,38526,5,2,2:2:0:0:
365,331,38718,1,2,2:2:0:0:
365,331,38905,1,2,2:2:0:0:
439,223,39087,5,2,2:2:0:0:
463,316,39269,1,0,2:2:0:0:
411,123,39452,5,2,2:2:0:0:
318,228,39642,1,0,2:2:0:0:
318,228,39833,1,0,2:2:0:0:
256,146,40024,5,2,2:2:0:0:
140,228,40214,1,0,2:2:0:0:
0,195,40405,1,2,2:2:0:0:
116,113,40596,2,0,P|142:180|128:222,1,90,2|0,2:2|2:2,2:2:0:0:
23,74,40977,5,6,3:2:0:0:
223,147,41173,1,0,2:2:0:0:
223,147,41369,1,0,2:2:0:0:
175,19,41565,5,2,2:2:0:0:
161,235,41761,1,2,2:2:0:0:
161,235,41957,1,2,2:2:0:0:
298,83,42153,5,2,2:2:0:0:
332,274,42349,1,0,2:2:0:0:
417,122,42545,1,2,2:2:0:0:
395,354,42736,1,0,2:2:0:0:
498,244,42927,5,2,2:2:0:0:
432,211,43052,1,2,2:2:0:0:
360,232,43178,1,2,2:2:0:0:
353,256,43299,5,2,2:2:0:0:
245,129,43491,1,2,2:2:0:0:
91,283,43683,2,2,B|81:277|48:271|48:271|228:241,1,216,6|0,3:2|2:2,2:1:0:0:
225,244,44073,6,0,P|253:299|259:333,1,67.5000025749208,8|0,2:3|2:2,2:2:0:0:
316,189,44463,2,0,L|320:108,1,67.5000025749208,4|0,2:3|2:2,2:2:0:0:
512,272,44854,2,0,B|457:254|457:254|408:304|330:272,1,180,2|0,3:2|2:2,2:3:0:0:
173,145,45444,5,2,2:2:0:0:
186,120,45542,1,2,2:2:0:0:
210,102,45640,2,0,P|234:184|228:207,1,90,2|0,3:2|2:2,2:2:0:0:
43,250,46012,2,0,P|19:168|25:145,1,90,2|0,3:2|2:2,2:2:0:0:
206,294,46389,6,0,B|255:274|255:274|335:276,1,107.999996704102,2|0,3:2|2:2,2:2:0:0:
102,122,46762,2,0,B|58:148|31:149|31:149|-10:129,1,107.999996704102,2|0,3:2|2:2,2:2:0:0:
171,202,47136,2,0,B|218:202|244:185|244:185|294:195|294:195|326:171|398:174,1,202.500007724762,6|0,3:2|2:2,2:2:0:0:
384,188,47518,6,0,P|408:135|388:84,1,101.250003862381,2|0,3:2|2:2,2:2:0:0:
217,51,47900,2,0,B|183:80|183:80|225:88|264:67|264:67|296:67|346:97,1,180,2|0,3:2|3:2,2:2:0:0:
495,206,48483,1,2,2:2:0:0:
502,195,48550,1,2,2:2:0:0:
506,181,48617,1,2,2:2:0:0:
505,167,48684,6,0,B|464:178|421:154|421:154|384:158|348:183,1,135,2|0,3:2|2:2,2:2:0:0:
248,162,49076,2,0,B|275:125|275:125|291:280,1,168.75,2|0,3:2|2:2,2:2:0:0:
152,326,49468,2,0,P|199:279|340:355,1,251.999992309571,2|8,3:2|2:3,2:2:0:0:
336,359,49974,1,8,2:3:0:0:
129,206,50180,5,6,3:2:0:0:
129,206,50378,2,0,L|141:93,1,107.999996704102,2|0,2:2|2:2,2:2:0:0:
331,136,50766,1,2,2:2:0:0:
331,136,50956,2,0,L|344:25,1,107.999996704102,2|0,2:2|2:2,2:2:0:0:
177,290,51336,1,2,2:2:0:0:
158,282,51431,1,2,2:2:0:0:
137,280,51526,1,2,2:2:0:0:
116,288,51621,1,2,2:2:0:0:
100,302,51716,5,2,2:2:0:0:
140,98,51907,1,2,2:2:0:0:
297,239,52098,2,0,P|363:263|407:280,1,107.999996704102,2|0,0:0|0:0,0:0:0:0:
366,115,52480,5,8,2:3:0:0:
364,98,52575,1,8,2:3:0:0:
362,81,52671,1,8,2:3:0:0:
360,64,52766,1,8,2:3:0:0:
357,49,52862,2,0,L|310:35,1,45,4|4,2:3|2:3,2:2:0:0:
244,102,53063,2,0,L|190:117,1,45,4|4,2:3|2:3,2:2:0:0:
107,62,53264,5,6,3:2:0:0:
192,212,53453,2,0,L|306:195,1,90,2|0,2:2|2:2,2:2:0:0:
121,271,53833,1,2,2:2:0:0:
363,91,54023,2,0,L|274:105,1,90,2|0,2:2|2:2,2:2:0:0:
349,295,54405,1,2,2:2:0:0:
389,274,54502,1,2,2:2:0:0:
434,270,54598,1,2,2:2:0:0:
477,284,54695,1,2,2:2:0:0:
511,313,54792,6,0,L|493:154,1,121.500000463486,2|0,3:2|2:2,2:2:0:0:
367,13,55164,2,0,L|361:163,1,121.500000463486,2|0,3:2|2:2,2:2:0:0:
233,364,55537,2,0,B|226:307|226:307|227:303|227:303|220:223,1,125.999996154785,2|0,3:1|2:2,2:2:0:0:
90,65,55931,2,0,B|87:127|87:127|83:122|83:122|79:198,1,125.999996154785,2|0,3:1|2:2,2:2:0:0:
2,316,56326,5,2,3:2:0:0:
17,303,56419,1,0,3:2:0:0:
36,295,56513,1,0,3:2:0:0:
56,293,56607,1,0,3:2:0:0:
76,295,56701,1,0,3:2:0:0:
95,303,56794,1,0,3:2:0:0:
110,316,56888,1,0,3:2:0:0:
122,332,56982,1,0,3:2:0:0:
130,349,57076,6,0,L|148:286,3,53.9999983520508,2|2|2|2,2:2|2:2|2:2|2:2,2:2:0:0:
236,325,57451,2,0,L|250:273,3,53.9999983520508,2|2|2|2,2:2|2:2|2:2|2:2,2:2:0:0:
338,356,57826,5,0,3:2:0:0:
375,371,57919,1,0,3:2:0:0:
414,364,58013,1,0,3:2:0:0:
444,337,58107,1,0,3:2:0:0:
455,299,58201,2,0,L|441:233,1,53.9999983520508,2|0,3:2|3:2,2:2:0:0:
339,202,58388,1,0,3:2:0:0:
339,202,58482,1,0,3:2:0:0:
339,202,58576,6,0,L|351:129,1,53.9999983520508,2|0,3:2|3:2,2:2:0:0:
264,73,58763,2,0,L|255:126,1,53.9999983520508,2|0,3:2|3:2,2:2:0:0:
172,206,58951,1,2,2:2:0:0:
132,195,59049,1,2,2:2:0:0:
93,186,59148,1,2,2:2:0:0:
54,176,59247,1,2,2:2:0:0:
14,168,59345,6,0,B|-3:207|-12:280|61:303|61:303|107:257|160:272,1,252,6|0,2:2|2:2,2:2:0:0:
219,320,60135,2,0,P|284:333|342:301,1,135.000005149842,2|2,2:2|2:2,2:2:0:0:
271,238,60686,1,2,2:2:0:0:
416,46,60869,6,0,P|412:140|423:234,1,188.999994232178,2|0,2:2|2:2,2:2:0:0:
271,238,61648,2,0,P|274:143|263:49,1,188.999994232178,2|0,2:2|2:2,2:2:0:0:
162,148,62427,5,2,2:1:0:0:
256,192,62524,12,6,65544,2:2:0:0:
