osu file format v14

[General]
AudioFilename: Dragon Rider.mp3
AudioLeadIn: 0
PreviewTime: 23112
Countdown: 0
SampleSet: None
StackLeniency: 0.7
Mode: 2
LetterboxInBreaks: 0
WidescreenStoryboard: 0

[Editor]
DistanceSpacing: 1.3
BeatDivisor: 4
GridSize: 4
TimelineZoom: 1

[Metadata]
Title:Dragon Rider
TitleUnicode:Dragon Rider
Artist:Two Step From Hell
ArtistUnicode:Two Step From Hell
Creator:Kyuare
Version:Rain
Source:
Tags:
BeatmapID:1562570
BeatmapSetID:740683

[Difficulty]
HPDrainRate:6
CircleSize:4
OverallDifficulty:9
ApproachRate:9
SliderMultiplier:2
SliderTickRate:2

[Events]
//Background and Video events
0,0,"Youmou-Wind.jpg",0,0
//Break Periods
//Storyboard Layer 0 (Background)
//Storyboard Layer 1 (Fail)
//Storyboard Layer 2 (Pass)
//Storyboard Layer 3 (Foreground)
//Storyboard Sound Samples

[TimingPoints]
237,375,4,2,0,50,1,0
330,-100,4,2,0,20,0,0
987,-100,4,1,0,50,0,0
1080,-100,4,2,0,20,0,0
1737,-100,4,1,0,50,0,0
1830,-100,4,2,0,20,0,0
2487,-100,4,1,0,50,0,0
2580,-100,4,2,0,20,0,0
2674,-100,4,2,0,20,0,0
3237,-100,4,1,0,50,0,0
3330,-100,4,2,0,30,0,0
3987,-100,4,1,0,50,0,0
4080,-100,4,2,0,30,0,0
4737,-100,4,1,0,50,0,0
4830,-100,4,2,0,30,0,0
5487,-100,4,1,0,55,0,0
5580,-100,4,2,0,45,0,0
5674,-100,4,2,0,20,0,0
6237,-100,4,1,0,50,0,0
6330,-100,4,2,0,35,0,0
6496,-100,4,2,0,40,0,0
6683,-100,4,2,0,45,0,0
6987,-100,4,1,0,55,0,0
7174,-100,4,2,0,45,0,0
7246,-100,4,2,0,40,0,0
7433,-100,4,2,0,50,0,0
7737,-100,4,1,0,55,0,0
7830,-100,4,2,0,40,0,0
7924,-100,4,2,0,40,0,0
8112,-100,4,2,0,50,0,0
8487,-100,4,1,0,55,0,0
8674,-100,4,2,0,20,0,0
9121,-100,4,1,0,50,0,0
9424,-100,4,2,0,40,0,0
9987,-100,4,1,0,50,0,0
10174,-100,4,2,0,40,0,0
10737,-100,4,1,0,50,0,0
10830,-100,4,2,0,40,0,0
11862,-133.333333333333,4,2,0,45,0,0
11933,-133.333333333333,4,2,0,55,0,0
12237,-100,4,2,0,55,0,0
12496,-100,4,2,0,10,0,0
12777,-100,4,2,0,55,0,0
13362,-76.9230769230769,4,2,0,55,0,0
13737,-83.3333333333333,4,2,0,55,0,0
14112,-90.9090909090909,4,2,0,55,0,0
14487,-100,4,2,0,55,0,0
14746,-100,4,2,0,40,0,0
14933,-100,4,2,0,55,0,0
20862,-100,4,2,0,35,0,0
22152,-100,4,2,0,60,0,0
22621,-100,4,2,0,65,0,0
23558,-100,4,2,0,70,0,0
23746,-100,4,2,0,60,0,0
23862,-90.9090909090909,4,1,2,40,0,1
24023,-90.9090909090909,4,2,1,42,0,1
24987,-90.9090909090909,4,1,2,40,0,1
25080,-90.9090909090909,4,2,1,52,0,1
26862,-90.9090909090909,4,1,2,50,0,1
26929,-83.3333333333333,4,2,1,42,0,1
27424,-80,4,2,1,52,0,1
27987,-76.9230769230769,4,2,1,52,0,1
29862,-90.9090909090909,4,1,2,40,0,1
29955,-76.9230769230769,4,2,1,42,0,1
31362,-90.9090909090909,4,1,2,40,0,1
31455,-76.9230769230769,4,2,1,50,0,1
32367,-76.9230769230769,4,1,1,50,0,1
32554,-76.9230769230769,4,2,1,42,0,1
32862,-76.9230769230769,4,2,1,52,0,1
35862,-90.9090909090909,4,1,2,40,0,1
35955,-76.9230769230769,4,2,1,42,0,1
39424,-90.9090909090909,4,1,2,40,0,1
39518,-76.9230769230769,4,2,1,42,0,1
39987,-90.9090909090909,4,1,2,40,0,1
40080,-76.9230769230769,4,2,1,42,0,1
46362,-83.3333333333333,4,2,1,42,0,1
46737,-90.9090909090909,4,2,1,42,0,1
47112,-100,4,2,1,42,0,1
47742,-76.9230769230769,4,2,1,35,0,1
47862,-66.6666666666667,4,2,1,35,0,1
48117,-76.9230769230769,4,2,1,25,0,1
48211,-76.9230769230769,4,2,1,20,0,1
48304,-76.9230769230769,4,2,1,30,0,1
48398,-76.9230769230769,4,2,1,35,0,1
48492,-100,4,2,0,42,0,0
48539,-100,4,2,0,42,0,0
48612,-90.9090909090909,4,1,2,40,0,1
48705,-100,4,2,0,52,0,0
58711,-100,4,2,0,52,0,0
59273,-90.9090909090909,4,2,0,56,0,0
59648,-90.9090909090909,4,2,0,60,0,0
60586,-100,4,2,0,60,0,1
60679,-90.9090909090909,4,2,0,60,0,0
63492,-100,4,2,0,60,0,0
63679,-100,4,2,0,60,0,0
63820,-100,4,2,0,0,0,0
63914,-100,4,2,0,60,0,0
64429,-100,4,2,0,53,0,0
64664,-100,4,2,0,60,0,0
64877,-100,4,2,0,60,0,0
64992,-100,4,2,0,60,0,0
65836,-100,4,2,0,49,0,0
66023,-100,4,2,0,60,0,0
66539,-100,4,2,0,60,0,0
66679,-90.9090909090909,4,2,0,55,0,0
68039,-100,4,2,0,55,0,0
68179,-100,4,2,0,70,0,0
68789,-100,4,2,0,55,0,0
69398,-100,4,2,0,60,0,0
69612,-90.9090909090909,4,2,0,60,0,0
71112,-86.9565217391304,4,2,0,65,0,0
71862,-66.6666666666667,4,2,0,65,0,0
72539,-100,4,2,0,50,0,0
72679,-100,4,2,0,50,0,0
73336,-200,4,2,0,15,0,0
73711,-200,4,2,0,15,0,0
74367,-200,4,2,0,40,0,0
74648,-83.3333333333333,4,2,0,80,0,0
75612,-76.9230769230769,4,2,0,51,0,1
76242,-76.9230769230769,4,2,0,51,0,1
76429,-76.9230769230769,4,2,0,51,0,1
81304,-76.9230769230769,4,2,0,41,0,0
81492,-76.9230769230769,4,2,0,51,0,1
86414,-76.9230769230769,4,2,0,46,0,1
86507,-76.9230769230769,4,2,0,51,0,1
86789,-100,4,2,0,41,0,1
86929,-100,4,2,0,51,0,1
89955,-100,4,2,0,26,0,1
90143,-100,4,2,0,51,0,0
91830,-100,4,2,0,32,0,0
91992,-100,4,2,0,41,0,0
92461,-100,4,2,0,36,0,0
92836,-100,4,2,0,51,0,0
93492,-200,4,2,0,51,0,0
93612,-200,4,2,0,51,0,0
94148,-200,4,2,0,51,0,0
94523,-200,4,2,0,51,0,0
94804,-200,4,2,0,51,0,0
94992,-200,4,2,0,75,0,0
95273,-200,4,2,0,75,0,0
95554,-100,4,2,0,60,0,0
96398,-100,4,2,0,65,0,0
96612,-200,4,2,0,65,0,0
96773,-200,4,2,0,20,0,0
97898,-200,4,2,0,80,0,0
99612,-100,4,2,0,45,0,1
100242,-83.3333333333333,4,2,0,35,0,1
101112,-200,4,2,0,70,0,0

[Colours]
Combo1 : 106,77,125
Combo2 : 105,131,135
Combo3 : 125,130,176
Combo4 : 173,10,34

[HitObjects]
176,68,237,5,0,1:0:0:0:
68,164,424,2,0,L|188:152,1,100,0|2,0:0|0:0,0:0:0:0:
236,148,799,1,0,0:0:0:0:
372,240,987,2,0,L|260:224,1,100,0|0,1:1|0:0,0:0:0:0:
196,212,1362,1,2,0:0:0:0:
236,148,1549,5,0,0:0:0:0:
424,144,1737,2,0,L|304:144,1,100,0|0,1:1|0:0,0:0:0:0:
424,76,2112,1,2,0:0:0:0:
204,148,2299,2,0,L|324:148,2,100,0|0|0,0:0|1:1|0:0,0:0:0:0:
336,128,3049,5,2,0:0:0:0:
164,184,3237,2,0,L|292:216,1,100,0|0,1:0|0:0,0:0:0:0:
160,256,3612,1,2,0:0:0:0:
336,204,3799,5,0,0:0:0:0:
476,88,3987,2,0,L|364:104,1,100,0|0,0:0|0:0,0:0:0:0:
288,116,4362,1,2,0:0:0:0:
208,192,4549,5,0,0:0:0:0:
40,128,4737,2,0,L|164:128,1,100,0|0,0:0|0:0,0:0:0:0:
288,164,5112,1,2,0:0:0:0:
452,260,5299,6,0,L|344:216,2,100,0|4|0,0:0|0:0|0:0,0:0:0:0:
256,212,6049,5,0,0:0:0:0:
64,184,6237,2,0,L|184:184,2,100,0|0|2,0:0|0:0|0:0,0:0:0:0:
256,280,6799,1,0,2:0:0:0:
448,184,6987,2,0,L|328:184,2,100,0|0|2,0:0|0:0|0:0,0:0:0:0:
256,180,7549,1,0,0:0:0:0:
132,72,7737,6,0,L|244:72,1,100,0|0,0:0|0:0,0:0:0:0:
84,144,8112,1,2,0:0:0:0:
208,144,8299,1,0,0:0:0:0:
36,224,8487,2,0,L|156:224,1,100,0|0,0:0|0:0,0:0:0:0:
428,176,9049,5,0,0:0:0:0:
224,176,9237,2,0,L|332:176,1,100,0|0,0:0|0:0,0:0:0:0:
256,176,9612,1,2,0:0:0:0:
424,176,9799,5,0,0:0:0:0:
248,176,9987,2,0,L|360:176,1,100,0|0,0:0|0:0,0:0:0:0:
196,172,10362,1,2,0:0:0:0:
296,172,10549,2,0,L|172:172,1,100,0|0,0:0|0:0,0:0:0:0:
352,112,10924,2,0,L|240:64,1,100,0|2,0:0|0:0,0:0:0:0:
424,176,11299,2,0,L|312:176,2,100,0|4|0,0:0|0:0|0:0,0:0:0:0:
56,116,11862,6,0,P|108:140|196:132,1,112.500004291535,2|0,0:0|0:0,0:0:0:0:
296,160,12237,1,0,0:0:0:0:
228,140,12330,1,0,0:0:0:0:
160,140,12424,2,0,L|60:140,1,100,0|8,0:0|0:0,0:0:0:0:
156,192,12799,1,0,0:0:0:0:
256,248,12987,2,0,L|132:248,1,100,8|0,0:0|0:0,0:0:0:0:
96,252,13362,6,0,P|184:208|332:92,1,259.999988098145
408,44,13830,2,0,P|360:96|296:112,1,119.999996337891
192,168,14112,2,0,P|256:116|308:112,1,110.000003356934,0|0,0:0|0:0,0:0:0:0:
372,72,14487,2,0,P|312:56|252:68,1,100,8|0,0:0|0:0,0:0:0:0:
352,256,14862,1,0,0:0:0:0:
452,184,15049,2,0,L|332:184,1,100,0|8,0:0|0:0,0:0:0:0:
272,184,15424,1,0,0:0:0:0:
132,248,15612,6,0,L|244:248,1,100
88,188,15987,2,0,L|184:148,1,100,8|0,0:0|0:0,0:0:0:0:
88,300,16362,1,0,0:0:0:0:
452,184,16549,2,0,L|380:260,1,100,0|8,0:0|0:0,0:0:0:0:
120,188,16924,2,0,L|236:188,1,100,0|0,0:0|0:0,0:0:0:0:
152,116,17299,1,0,0:0:0:0:
316,112,17487,2,0,L|196:112,1,100,8|0,0:0|0:0,0:0:0:0:
112,184,17862,6,0,P|64:224|160:280,1,200,0|8,0:0|0:0,0:0:0:0:
204,264,18330,1,0,0:0:0:0:
264,224,18424,2,0,L|380:224,1,100
452,164,18799,1,0,0:0:0:0:
288,160,18987,2,0,L|404:160,1,100,8|0,0:0|0:0,0:0:0:0:
184,144,19362,6,0,P|108:124|168:40,1,200,0|8,0:0|0:0,0:0:0:0:
216,52,19830,1,0,0:0:0:0:
284,76,19924,2,0,L|380:112,1,100
248,180,20299,2,0,L|192:268,1,100,0|8,0:0|0:0,0:0:0:0:
344,176,20674,1,0,0:0:0:0:
192,120,20862,6,0,P|180:180|128:192,1,100,2|0,0:0|0:0,0:0:0:0:
48,160,21237,2,0,P|60:220|104:224,1,100,2|0,0:0|0:0,0:0:0:0:
192,236,21612,2,0,P|160:284|104:288,1,100,2|0,0:0|0:0,0:0:0:0:
256,292,21987,1,2,0:0:0:0:
256,192,22362,12,2,23112,0:0:0:0:
360,96,23299,5,0,0:0:0:0:
232,128,23487,1,2,0:0:0:0:
424,192,23674,2,0,L|320:192,1,100,0|8,0:0|0:0,0:0:0:0:
132,192,23955,1,0,0:0:0:0:
64,152,24049,2,0,P|156:208|168:216,1,110.000003356934,0|2,0:0|0:0,0:0:0:0:
368,148,24424,2,0,L|272:224,1,110.000003356934
140,80,24799,2,0,L|208:80,1,55.0000016784668
108,80,24987,2,0,P|68:136|120:276,1,220.000006713867,2|8,0:0|0:0,0:0:0:0:
272,224,25549,2,0,L|388:224,1,110.000003356934,0|8,0:0|0:0,0:0:0:0:
224,160,25924,5,8,0:0:0:0:
308,224,26112,1,8,0:0:0:0:
196,160,26299,2,8,L|64:160,1,110.000003356934,0|2,0:0|0:0,0:0:0:0:
224,160,26674,1,0,0:0:0:0:
512,160,26862,5,2,0:0:0:0:
244,224,27049,2,0,L|364:224,1,119.999996337891,0|2,0:0|0:0,0:0:0:0:
244,224,27424,1,4,0:0:0:0:
512,188,27612,2,0,L|387:188,1,125,2|8,0:0|0:0,0:0:0:0:
132,268,27987,1,4,0:0:0:0:
308,224,28174,1,0,0:0:0:0:
388,188,28362,1,0,0:0:0:0:
296,268,28549,2,0,L|160:268,1,129.999994049073,0|2,0:0|0:0,0:0:0:0:
416,68,28924,1,8,0:0:0:0:
376,112,29018,1,2,0:0:0:0:
260,136,29299,5,0,0:0:0:0:
124,136,29487,1,8,0:0:0:0:
320,216,29674,2,0,P|260:240|176:236,1,129.999994049073,2|2,0:0|0:0,0:0:0:0:
416,68,29955,2,0,L|472:20,1,64.9999970245363,8|8,0:0|0:0,0:0:0:0:
328,72,30237,1,2,0:0:0:0:
164,72,30424,2,0,L|308:72,1,129.999994049073,8|0,0:0|0:0,0:0:0:0:
168,140,30799,1,2,0:0:0:0:
108,140,30893,1,8,0:0:0:0:
200,140,30987,6,0,P|292:228|440:224,1,259.999988098145,8|2,0:0|0:0,0:0:0:0:
332,200,31549,1,8,0:0:0:0:
168,240,31737,2,0,L|308:240,1,129.999994049073,8|8,0:0|0:0,0:0:0:0:
128,300,32112,1,2,0:0:0:0:
300,240,32299,2,0,L|156:240,1,129.999994049073,8|8,0:0|0:0,0:0:0:0:
236,240,32674,1,0,0:0:0:0:
512,200,32862,6,0,L|364:200,1,129.999994049073,4|8,0:0|0:0,0:0:0:0:
484,200,33237,1,2,0:0:0:0:
236,240,33424,2,0,L|376:240,1,129.999994049073,4|8,0:0|0:0,0:0:0:0:
268,240,33799,1,0,0:0:0:0:
0,240,33987,2,4,L|148:240,1,129.999994049073,8|8,1:1|0:0,0:0:0:0:
424,148,34362,2,0,L|332:244,1,129.999994049073
208,240,34737,1,2,0:0:0:0:
376,244,34924,2,0,L|312:244,1,64.9999970245363,8|8,0:0|0:0,0:0:0:0:
208,240,35112,2,0,L|284:240,1,64.9999970245363,2|0,0:0|0:0,0:0:0:0:
344,244,35299,5,0,0:0:0:0:
208,240,35487,1,8,1:0:0:0:
512,148,35674,1,2,0:0:0:0:
456,148,35862,1,8,0:0:0:0:
272,172,35955,1,8,0:0:0:0:
172,156,36049,2,0,L|284:264,1,129.999994049073,8|2,0:0|0:0,0:0:0:0:
272,172,36424,1,0,0:0:0:0:
344,208,36612,2,0,L|192:208,1,129.999994049073,2|8,0:0|0:0,0:0:0:0:
244,208,36893,1,8,0:0:0:0:
408,248,36987,6,0,P|464:132|476:0,1,259.999988098145,8|8,1:1|0:0,0:0:0:0:
372,112,37549,1,8,0:0:0:0:
440,112,37737,2,0,L|292:112,1,129.999994049073,2|0,0:0|0:0,0:0:0:0:
128,240,38112,1,8,0:0:0:0:
292,208,38299,1,8,0:0:0:0:
164,240,38487,2,0,L|280:308,1,129.999994049073,8|8,1:1|0:0,0:0:0:0:
412,188,38862,5,4,0:0:0:0:
240,188,39049,2,0,L|384:188,1,129.999994049073,0|2,0:0|0:0,0:0:0:0:
116,240,39424,2,0,L|232:280,1,110.000003356934,2|8,0:0|0:0,0:0:0:0:
320,320,39799,1,8,0:0:0:0:
60,240,39987,1,8,0:0:0:0:
196,240,40174,6,0,L|340:240,1,129.999994049073,8|8,0:0|0:0,0:0:0:0:
260,240,40549,2,0,L|108:240,1,129.999994049073,8|2,0:0|0:0,0:0:0:0:
196,240,40924,6,0,L|264:240,2,64.9999970245363,2|8|8,0:0|0:0|0:0,0:0:0:0:
360,240,41299,6,0,B|220:240|220:240|216:244,1,129.999994049073,0|2,0:0|0:0,0:0:0:0:
396,240,41674,1,0,0:0:0:0:
260,240,41862,2,0,B|200:208|64:208|0:268,1,259.999988098145,8|2,0:0|0:0,0:0:0:0:
200,208,42424,2,0,L|68:232,1,129.999994049073,8|2,0:0|0:0,0:0:0:0:
248,244,42987,1,2,0:0:0:0:
312,280,43174,2,0,L|452:280,1,129.999994049073,8|8,0:0|0:0,0:0:0:0:
328,208,43549,1,8,0:0:0:0:
248,64,43737,5,2,0:0:0:0:
380,92,43924,2,0,L|264:164,1,129.999994049073,8|8,0:0|0:0,0:0:0:0:
432,240,44487,1,2,0:0:0:0:
172,260,44862,6,0,P|80:184|120:64,1,259.999988098145,0|2,0:0|0:0,0:0:0:0:
240,260,45424,2,0,L|380:260,1,129.999994049073,8|0,0:0|0:0,0:0:0:0:
300,200,45799,1,8,0:0:0:0:
368,136,45987,2,0,L|208:136,1,129.999994049073,2|8,0:0|0:0,0:0:0:0:
112,188,46362,6,0,L|240:188,1,119.999996337891,4|0,0:0|0:0,0:0:0:0:
172,128,46737,1,2,0:0:0:0:
244,60,46924,2,0,L|112:60,1,110.000003356934,8|4,0:0|0:0,0:0:0:0:
248,128,47299,1,0,0:0:0:0:
364,196,47487,2,0,L|248:196,1,100,4|0,0:0|0:0,0:0:0:0:
108,184,47862,6,8,L|32:184,1,75.0000028610231,2|8,0:0|0:0,0:0:0:0:
112,272,48049,1,8,0:0:0:0:
180,272,48143,1,8,0:0:0:0:
276,184,48237,2,8,L|184:184,1,64.9999970245363,2|8,0:0|0:0,0:0:0:0:
276,184,48424,1,8,0:0:0:0:
364,184,48518,1,0,0:0:0:0:
212,184,48612,6,0,P|156:176|20:240,1,200,8|2,0:0|0:0,0:0:0:0:
212,184,49174,1,0,0:0:0:0:
348,208,49362,2,0,L|472:208,1,100
300,264,49737,1,2,0:0:0:0:
392,264,49924,1,0,0:0:0:0:
180,184,50112,6,0,P|96:156|60:44,1,200,0|2,0:0|0:0,0:0:0:0:
300,176,50674,2,0,L|176:176,1,100
372,104,51049,1,0,0:0:0:0:
240,104,51237,2,0,L|348:104,1,100,2|0,0:0|0:0,0:0:0:0:
172,104,51612,6,0,P|104:140|68:272,1,200,0|2,0:0|0:0,0:0:0:0:
196,252,52174,2,0,L|76:252,1,100,0|0,0:0|0:0,0:0:0:0:
248,188,52549,1,0,0:0:0:0:
392,192,52737,2,0,L|516:192,1,100,2|0,0:0|0:0,0:0:0:0:
392,192,53112,6,0,P|368:132|232:64,1,200,0|2,0:0|0:0,0:0:0:0:
148,128,53674,2,0,L|272:128,1,100
92,192,54049,1,0,0:0:0:0:
224,192,54237,1,2,0:0:0:0:
68,260,54424,1,0,0:0:0:0:
252,260,54612,6,0,P|328:228|292:124,1,200,0|2,0:0|0:0,0:0:0:0:
184,168,55174,1,0,0:0:0:0:
248,104,55362,2,0,L|380:104,1,100
432,36,55737,2,0,L|320:36,1,100,2|0,0:0|0:0,0:0:0:0:
432,156,56112,6,0,P|396:216|252:264,1,200,0|2,0:0|0:0,0:0:0:0:
188,208,56674,1,0,0:0:0:0:
280,164,56862,2,0,L|392:164,2,100,0|0|2,0:0|0:0|0:0,0:0:0:0:
224,164,57330,1,0,0:0:0:0:
164,164,57424,1,0,0:0:0:0:
56,164,57612,6,0,P|120:124|260:100,1,200,0|2,0:0|0:0,0:0:0:0:
404,216,58174,2,0,L|292:216,2,100,0|0|0,0:0|0:0|0:0,0:0:0:0:
256,152,58737,1,2,0:0:0:0:
200,152,58830,1,0,0:0:0:0:
144,152,58924,1,0,0:0:0:0:
256,244,59112,6,0,P|324:232|424:128,1,200,0|2,0:0|0:0,0:0:0:0:
352,144,59580,1,0,0:0:0:0:
292,144,59674,2,0,L|176:144,1,110.000003356934
120,68,60049,1,0,0:0:0:0:
256,128,60237,1,2,0:0:0:0:
120,128,60424,1,0,0:0:0:0:
204,216,60612,6,0,P|260:232|376:152,1,200,4|2,0:0|0:0,0:0:0:0:
296,160,61080,1,0,0:0:0:0:
224,160,61174,1,0,0:0:0:0:
372,160,61362,1,0,0:0:0:0:
416,64,61549,2,0,L|304:64,1,110.000003356934,0|2,0:0|0:0,0:0:0:0:
240,64,61830,1,0,0:0:0:0:
336,64,61924,1,0,0:0:0:0:
201,230,62112,6,0,P|306:261|416:256,1,220.000006713867,0|2,0:0|0:0,0:0:0:0:
360,264,62580,1,0,0:0:0:0:
200,232,62674,2,0,L|328:232|324:232,1,110.000003356934
452,232,63049,1,0,0:0:0:0:
324,124,63237,1,2,0:0:0:0:
248,124,63330,1,0,0:0:0:0:
176,124,63424,1,0,0:0:0:0:
136,228,63612,6,0,P|196:256|360:240,1,200,0|2,0:0|0:0,0:0:0:0:
448,188,64080,1,0,0:0:0:0:
392,188,64174,2,0,L|276:188,1,100,0|0,0:0|0:0,0:0:0:0:
232,188,64549,1,0,0:0:0:0:
92,140,64737,2,0,L|208:140,2,100,2|0|0,0:0|0:0|0:0,0:0:0:0:
192,196,65299,1,0,0:0:0:0:
296,264,65487,6,0,P|372:248|388:208,1,100,2|0,0:0|0:0,0:0:0:0:
316,188,65768,2,0,L|256:188,1,50
208,108,66049,2,0,L|340:108,1,100,0|2,0:0|0:0,0:0:0:0:
376,72,66330,2,0,L|424:44,1,50,0|0,0:0|0:0,0:0:0:0:
316,188,66612,6,0,P|256:224|104:212,1,200,0|2,0:0|0:0,0:0:0:0:
44,212,67080,2,0,L|116:212,1,55.0000016784668
236,232,67362,2,0,L|124:232,1,110.000003356934
208,288,67737,1,2,0:0:0:0:
276,288,67830,1,0,0:0:0:0:
384,180,67924,2,0,L|320:272,1,110.000003356934
208,120,68299,2,0,L|268:216,1,100,0|2,0:0|0:0,0:0:0:0:
416,180,68580,1,0,0:0:0:0:
484,180,68674,2,0,L|384:180,1,100
448,180,69049,1,0,0:0:0:0:
308,120,69237,6,0,L|188:120,1,100,2|0,0:0|0:0,0:0:0:0:
92,160,69612,2,0,P|100:228|252:280,1,220.000006713867,0|2,0:0|0:0,0:0:0:0:
292,240,70080,2,0,L|360:240|356:240,1,55.0000016784668
232,168,70362,2,0,L|104:168,1,110.000003356934,0|0,0:0|0:0,0:0:0:0:
216,96,70737,2,0,L|340:96,1,110.000003356934,2|0,0:0|0:0,0:0:0:0:
420,116,71112,6,0,P|404:188|252:256,1,230.000004386902,0|2,0:0|0:0,0:0:0:0:
180,208,71580,2,0,L|112:208,1,57.5000010967255,0|0,0:0|0:0,0:0:0:0:
180,280,71862,2,0,L|256:280,1,75.0000028610231
344,280,72049,2,0,L|248:280,1,75.0000028610231
180,160,72237,1,2,0:0:0:0:
100,160,72330,1,0,0:0:0:0:
140,96,72424,2,0,L|224:96,1,75.0000028610231
276,96,72612,1,0,0:0:0:0:
340,96,72705,1,0,0:0:0:0:
400,96,72799,6,0,B|436:132|436:132|496:132,1,100
436,132,73080,1,0,0:0:0:0:
260,164,73174,6,0,B|224:200|224:200|144:200,1,100,0|0,0:0|0:0,0:0:0:0:
144,200,73455,1,0,0:0:0:0:
68,200,73549,1,0,0:0:0:0:
136,200,73643,1,0,0:0:0:0:
260,164,73737,1,0,0:0:0:0:
328,164,73830,1,0,0:0:0:0:
396,164,73924,1,0,0:0:0:0:
432,164,74018,1,0,0:0:0:0:
208,200,74112,1,0,0:0:0:0:
144,200,74205,1,0,0:0:0:0:
68,200,74299,2,0,L|93:200,1,25
312,164,74487,6,0,L|356:164,1,25
272,208,74674,2,0,L|212:208,1,59.9999981689454
144,200,74862,2,0,L|264:200,1,119.999996337891
100,160,75237,1,0,0:0:0:0:
364,160,75424,2,0,L|472:232,1,119.999996337891,0|4,0:0|0:0,0:0:0:0:
300,160,75705,1,0,0:0:0:0:
244,160,75799,1,0,0:0:0:0:
188,160,75987,1,0,0:0:0:0:
340,144,76174,2,0,L|492:144,1,129.999994049073
376,144,76549,2,0,L|441:144,1,64.9999970245363
160,112,76737,2,0,P|272:52|396:88,1,259.999988098145,2|0,0:0|0:0,0:0:0:0:
212,132,77299,5,0,0:0:0:0:
28,188,77487,2,0,L|98:78,1,129.999994049073,2|0,0:0|0:0,0:0:0:0:
180,188,77862,1,0,0:0:0:0:
336,188,78049,2,0,L|192:188,1,129.999994049073,0|2,0:0|0:0,0:0:0:0:
176,244,78424,1,0,0:0:0:0:
96,128,78612,6,0,L|252:128,2,129.999994049073,4|0|0,0:0|0:0|0:0,0:0:0:0:
360,240,79174,1,4,0:0:0:0:
200,240,79362,2,0,L|344:240,1,129.999994049073
176,236,79737,1,4,0:0:0:0:
248,64,79924,6,0,L|336:176,1,129.999994049073
408,64,80299,2,0,L|320:176,1,129.999994049073
264,184,80580,1,0,0:0:0:0:
204,200,80674,6,0,L|80:248,1,129.999994049073
176,268,80955,1,0,0:0:0:0:
268,288,81049,1,0,0:0:0:0:
224,280,81143,1,0,0:0:0:0:
376,280,81237,6,0,B|420:220|420:220|404:160,1,129.999994049073
264,184,81612,1,4,0:0:0:0:
432,204,81705,5,0,0:0:0:0:
500,204,81799,2,0,L|512:60,1,129.999994049073
250,176,82174,2,0,L|380:176,1,129.999994049073
316,236,82549,1,0,0:0:0:0:
136,136,82737,2,0,L|32:52,2,129.999994049073,2|0|0,0:0|0:0|0:0,0:0:0:0:
136,204,83299,1,0,0:0:0:0:
36,208,83487,1,2,0:0:0:0:
240,172,83674,5,0,0:0:0:0:
324,268,83862,2,0,L|192:268,1,129.999994049073
360,268,84237,6,0,P|408:212|312:76,1,259.999988098145,0|4,0:0|0:0,0:0:0:0:
0,208,84799,2,0,L|136:208,1,129.999994049073,0|2,0:0|0:0,0:0:0:0:
264,200,85174,1,4,0:0:0:0:
148,80,85362,2,0,L|244:176,1,129.999994049073
88,112,85737,2,0,L|-12:224,1,129.999994049073,4|0,0:0|0:0,0:0:0:0:
384,104,86112,2,0,L|296:204,1,129.999994049073,4|0,0:0|0:0,0:0:0:0:
168,304,86487,6,0,L|304:304,1,129.999994049073,2|0,0:0|0:0,0:0:0:0:
264,304,86768,1,0,0:0:0:0:
96,212,86862,2,0,P|132:160|188:152,1,100
60,212,87237,2,0,P|80:144|116:120,1,100,2|0,0:0|0:0,0:0:0:0:
376,180,87612,5,4,0:0:0:0:
416,136,87705,2,0,L|368:96,1,50
244,64,87987,1,2,0:0:0:0:
136,124,88174,2,0,L|252:124,2,100,0|0|0,0:0|0:0|0:0,0:0:0:0:
336,124,88737,2,0,L|220:124,2,100,2|0|0,0:0|0:0|0:0,0:0:0:0:
68,272,89299,2,0,L|176:272,1,100,0|2,0:0|0:0,0:0:0:0:
352,204,89674,2,0,P|360:136|176:120,1,300,0|2,0:0|0:0,0:0:0:0:
216,112,90424,6,0,L|176:212,1,100,0|4,0:0|0:0,0:0:0:0:
512,152,90799,2,0,L|440:244,1,100,0|2,0:0|0:0,0:0:0:0:
352,204,91174,1,0,0:0:0:0:
76,204,91362,2,0,L|32:108,2,100,4|0|2,0:0|0:0|0:0,0:0:0:0:
352,204,91924,2,0,L|408:304,1,100,4|4,0:0|0:0,0:0:0:0:
44,204,92299,5,0,0:0:0:0:
76,204,92487,2,0,L|204:204,1,100,2|0,0:0|0:0,0:0:0:0:
352,204,92862,1,0,0:0:0:0:
268,244,93049,1,0,0:0:0:0:
0,108,93237,6,0,L|32:212,1,100,2|0,0:0|0:0,0:0:0:0:
280,288,93612,2,0,P|340:236|384:112,1,200,0|2,0:0|0:0,0:0:0:0:
232,180,94549,1,0,0:0:0:0:
100,156,94737,2,0,P|116:120|136:108,1,50,2|0,0:0|0:0,0:0:0:0:
156,116,95018,1,0,0:0:0:0:
376,208,95112,2,0,P|356:176|244:132,1,150,0|2,0:0|0:0,0:0:0:0:
212,148,95862,1,0,0:0:0:0:
256,132,96049,1,0,0:0:0:0:
112,148,96237,6,0,L|216:148,1,100
56,196,96612,2,0,P|48:248|176:316,1,200,0|2,0:0|0:0,0:0:0:0:
56,196,97549,1,2,0:0:0:0:
220,152,97737,2,0,L|156:152,1,50,2|0,0:0|0:0,0:0:0:0:
276,300,98112,2,0,P|312:256|152:168,1,300,0|2,0:0|0:0,0:0:0:0:
316,232,99424,1,0,0:0:0:0:
148,104,99612,6,0,L|44:104,1,100,8|0,0:3|1:0,0:0:0:0:
364,296,99987,2,0,L|472:296,1,100,2|8,0:3|0:3,0:0:0:0:
292,272,100362,1,8,1:0:0:0:
172,200,100549,1,4,3:0:0:0:
336,200,100737,1,8,1:0:0:0:
84,112,100924,1,4,3:0:0:0:
416,120,101112,1,4,0:0:0:0:
