osu file format v14

[General]
AudioFilename: audio.mp3
AudioLeadIn: 0
PreviewTime: 111488
Countdown: 0
SampleSet: Normal
StackLeniency: 0.7
Mode: 0
LetterboxInBreaks: 0
WidescreenStoryboard: 1

[Editor]
Bookmarks: 7136,14069,21171,28287,39078,41453,51165,69294,83107,96920,110733,113755,125409,138359,141812,155625,169438
DistanceSpacing: 3
BeatDivisor: 4
GridSize: 4
TimelineZoom: 4.399999

[Metadata]
Title:What You Know
TitleUnicode:What You Know
Artist:Two Door Cinema Club
ArtistUnicode:Two Door Cinema Club
Creator:buhaha
Version:meh
Source:
Tags:TDCC indie electronic british alternative rock synth
BeatmapID:1251818
BeatmapSetID:590132

[Difficulty]
HPDrainRate:7
CircleSize:4
OverallDifficulty:7.4
ApproachRate:9.2
SliderMultiplier:2.4
SliderTickRate:2

[Events]
//Background and Video events
0,0,"58396_anime_scenery.jpg",0,0
//Break Periods
2,138139,141062
//Storyboard Layer 0 (Background)
//Storyboard Layer 1 (Fail)
//Storyboard Layer 2 (Pass)
//Storyboard Layer 3 (Foreground)
//Storyboard Sound Samples

[TimingPoints]
242,431.654676258993,4,1,0,30,1,0
7136,-181.818181818182,4,1,0,30,0,0
14042,-133.333333333333,4,1,0,30,0,0
28287,-200,4,2,0,50,0,0
33035,-100,4,2,0,50,0,0
34546,-200,4,2,0,50,0,0
38215,-133.333333333333,4,2,0,50,0,0
39078,-100,4,2,0,50,0,0
39942,-133.333333333333,4,2,0,50,0,0
45985,-200,4,2,0,50,0,0
46848,-133.333333333333,4,2,0,50,0,0
52028,-133.333333333333,4,1,0,30,0,0
54834,-100,4,1,0,30,0,0
56237,-100,4,1,0,30,0,1
61105,-100,4,1,0,30,0,1
82783,-100,4,1,0,30,0,0
111596,-100,4,1,0,30,0,1
137927,-100,4,1,0,30,0,0

[Colours]
Combo1 : 255,255,255
Combo2 : 255,128,255
Combo3 : 255,255,128
Combo4 : 128,255,255

[HitObjects]
64,144,7148,6,0,B|132:136|120:152|120:152|204:144,1,132.00000402832
280,236,7795,1,0,0:0:0:0:
300,260,7903,1,0,0:0:0:0:
320,284,8011,6,0,B|388:292|376:276|376:276|460:284,1,132.00000402832
484,156,8659,1,0,0:0:0:0:
464,132,8767,1,0,0:0:0:0:
444,108,8875,6,0,B|376:116|388:100|388:100|304:108,1,132.00000402832
196,152,9522,1,0,0:0:0:0:
196,152,9630,1,0,0:0:0:0:
196,152,9738,1,0,0:0:0:0:
196,152,10170,1,0,0:0:0:0:
196,152,10601,6,0,P|128:136|64:152,1,132.00000402832
84,280,11249,1,0,0:0:0:0:
104,308,11357,1,0,0:0:0:0:
124,332,11465,6,0,P|196:348|260:332,1,132.00000402832
308,216,12112,1,0,0:0:0:0:
328,188,12220,1,0,0:0:0:0:
348,164,12328,6,0,P|420:148|484:164,1,132.00000402832
452,288,12975,1,0,0:0:0:0:
452,288,13083,1,0,0:0:0:0:
452,288,13191,1,0,0:0:0:0:
300,228,13407,5,0,0:0:0:0:
324,64,13623,1,0,0:0:0:0:
388,232,13839,1,0,0:0:0:0:
164,140,14054,5,0,0:0:0:0:
312,244,14270,1,0,0:0:0:0:
332,268,14378,1,0,0:0:0:0:
352,292,14486,2,0,B|256:300,1,90.0000034332277
84,316,14918,1,0,0:0:0:0:
156,152,15134,1,0,0:0:0:0:
180,132,15242,1,0,0:0:0:0:
204,112,15349,2,0,B|300:124,1,90.0000034332277
472,148,15781,1,0,0:0:0:0:
332,244,15997,5,0,0:0:0:0:
318,268,16105,1,0,0:0:0:0:
302,292,16213,2,0,B|206:304,1,90.0000034332277
40,356,16644,2,0,P|28:304|36:268,1,90.0000034332277
52,244,16968,1,0,0:0:0:0:
72,220,17076,1,0,0:0:0:0:
192,279,17292,1,0,0:0:0:0:
372,264,17508,2,0,P|344:216|348:180,1,90.0000034332277
352,148,17831,1,0,0:0:0:0:
360,116,17939,2,0,B|271:128,1,90.0000034332277
92,152,18371,5,0,0:0:0:0:
224,239,18587,1,0,0:0:0:0:
220,271,18695,1,0,0:0:0:0:
212,303,18803,2,0,B|301:291,1,90.0000034332277
444,180,19234,2,0,P|404:188|324:136,1,135.000005149841
304,120,19666,2,0,B|215:132,1,90.0000034332277
248,324,20098,2,0,B|160:336|160:336|104:328,1,135.000005149841
168,256,20529,2,0,L|264:244,1,90.0000034332277
440,244,20961,6,0,P|416:200|416:148,1,90.0000034332277
420,128,21285,1,0,0:0:0:0:
432,100,21393,2,0,L|336:112,1,90.0000034332277
164,136,21824,1,0,0:0:0:0:
257,244,22040,1,0,0:0:0:0:
257,244,22148,1,0,0:0:0:0:
257,244,22256,1,0,0:0:0:0:
428,296,22472,1,0,0:0:0:0:
312,312,22688,1,0,0:0:0:0:
408,156,22903,5,0,0:0:0:0:
420,128,23011,1,0,0:0:0:0:
432,100,23119,2,0,L|336:112,1,90.0000034332277
176,144,23551,2,0,B|208:172|208:172|236:132,1,90.0000034332277
288,116,23875,1,0,0:0:0:0:
342,111,23983,2,0,L|431:99,1,90.0000034332277
304,228,24414,2,0,L|200:244,1,90.0000034332277
124,252,24738,1,0,0:0:0:0:
160,340,24846,2,0,P|120:348|68:328,1,90.0000034332277
124,160,25277,5,0,0:0:0:0:
292,100,25493,1,0,0:0:0:0:
368,48,25601,1,0,0:0:0:0:
292,100,25709,2,0,L|196:112,1,90.0000034332277
104,260,26141,2,0,L|193:248,1,90.0000034332277
252,180,26465,1,0,0:0:0:0:
292,100,26572,2,0,L|196:112,1,90.0000034332277
116,144,27004,1,0,0:0:0:0:
160,200,27436,1,0,0:0:0:0:
204,260,27867,1,0,0:0:0:0:
244,320,28299,5,0,0:0:0:0:
180,152,28515,1,0,0:0:0:0:
125,322,28731,2,0,B|169:326|206:314|206:314|257:322,1,120
492,60,29594,2,0,P|428:52|404:56,1,90
324,100,30026,1,0,0:0:0:0:
256,268,30242,1,0,0:0:0:0:
205,96,30457,2,0,B|249:100|287:91|287:91|337:103,1,120
388,268,31105,1,0,0:0:0:0:
388,268,31321,2,0,P|324:260|300:264,1,90
228,320,31752,1,0,0:0:0:0:
168,152,31968,5,0,0:0:0:0:
109,316,32184,2,0,B|153:320|191:311|191:311|241:323,1,120
332,160,32831,1,0,0:0:0:0:
332,160,33047,2,0,P|376:192|352:188,1,180
340,244,33479,2,0,B|376:260|424:276|456:196|492:200|460:152|468:128,1,180
464,120,33911,2,0,B|448:84|424:44|391:43|344:56|331:34|296:84|280:96|276:116,1,240
168,320,34558,1,0,0:0:0:0:
168,320,34666,1,0,0:0:0:0:
168,320,34774,2,0,P|112:312|48:320,1,120
257,314,35421,5,0,0:0:0:0:
257,314,35637,2,0,P|201:322|141:314,1,90
88,152,36069,1,0,0:0:0:0:
88,152,36500,1,0,0:0:0:0:
88,152,36932,1,0,0:0:0:0:
320,296,37364,6,0,P|299:271|299:276,1,90
306,256,37795,1,0,0:0:0:0:
300,180,38227,6,0,P|312:132|292:168,1,135.000005149841
294,144,38659,1,0,0:0:0:0:
216,88,39090,6,0,P|224:28|204:72,1,180
204,52,39522,1,0,0:0:0:0:
116,68,39954,6,0,P|84:25|96:65,1,135.000005149841
81,45,40385,1,0,0:0:0:0:
382,64,40817,2,0,L|202:56,1,180.000006866455
52,224,41465,5,0,0:0:0:0:
60,220,41572,1,0,0:0:0:0:
68,216,41680,1,0,0:0:0:0:
228,296,41896,1,0,0:0:0:0:
284,280,42004,1,0,0:0:0:0:
336,300,42112,2,0,P|384:288|428:300,1,90.0000034332277
416,40,42544,6,0,L|368:32,1,45.0000017166138
424,132,42759,2,0,L|379:124,1,45.0000017166138
432,224,42975,2,0,L|388:216,1,45.0000017166138
336,192,43191,1,0,0:0:0:0:
284,168,43299,1,0,0:0:0:0:
236,156,43407,2,0,P|188:144|144:156,1,90.0000034332277
236,248,43731,1,0,0:0:0:0:
348,340,43839,6,0,L|248:320,1,90.0000034332277
228,56,44270,6,0,L|180:48,1,45.0000017166138
228,152,44485,2,0,L|180:144,1,45.0000017166138
236,248,44702,1,0,0:0:0:0:
212,244,44810,1,0,0:0:0:0:
188,240,44918,1,0,0:0:0:0:
164,236,45026,1,0,0:0:0:0:
140,232,45134,1,0,0:0:0:0:
364,80,45349,5,0,0:0:0:0:
364,80,45565,2,0,L|251:59,1,90.0000034332277
156,200,45997,1,0,0:0:0:0:
148,216,46105,1,0,0:0:0:0:
140,232,46213,1,0,0:0:0:0:
136,248,46321,1,0,0:0:0:0:
132,264,46429,2,0,L|221:272,1,90.0000034332277
356,276,46860,6,0,P|368:228|348:264,1,135.000005149841
221,272,47292,2,0,L|61:256,1,135.000005149841
20,252,47724,2,0,L|200:272,1,180.000006866455
224,280,48263,1,0,0:0:0:0:
244,300,48371,1,0,0:0:0:0:
264,316,48479,1,0,0:0:0:0:
288,332,48587,2,0,P|276:280|288:232,1,90.0000034332277
484,64,49018,5,0,0:0:0:0:
472,136,49234,1,0,0:0:0:0:
412,92,49450,6,0,L|364:84,1,45.0000017166138
416,188,49666,2,0,L|368:180,1,45.0000017166138
416,284,49882,2,0,L|372:276,1,45.0000017166138
288,244,50098,1,0,0:0:0:0:
288,244,50206,1,0,0:0:0:0:
204,208,50313,2,0,P|160:196|116:208,1,90.0000034332277
28,136,50637,1,0,0:0:0:0:
118,206,50745,2,0,L|106:302,1,90.0000034332277
276,224,51177,5,0,0:0:0:0:
332,168,51608,1,0,0:0:0:0:
408,144,52040,2,0,B|424:224|488:220|488:220|492:372|376:304,1,315.000012016297
332,260,52903,2,0,B|356:240|408:156|276:160|252:256|252:256|199:239|148:256,1,315.000012016297
244,322,53767,2,0,B|196:311|176:323|184:247|184:247|152:251|120:271|120:271|68:343|68:343|60:240,1,360.000013732911
308,88,54846,5,0,0:0:0:0:
308,112,54954,1,0,0:0:0:0:
296,136,55062,1,0,0:0:0:0:
272,160,55170,1,0,0:0:0:0:
240,176,55277,1,0,0:0:0:0:
196,184,55385,1,0,0:0:0:0:
168,180,55493,2,0,B|88:169|32:128|32:128|26:171,1,180
80,268,55925,2,0,L|216:304,1,120
248,256,56357,5,0,0:0:0:0:
316,256,56788,1,0,0:0:0:0:
364,304,57220,1,0,0:0:0:0:
420,264,57652,1,0,0:0:0:0:
400,200,58083,1,0,0:0:0:0:
420,136,58515,1,0,0:0:0:0:
456,80,58947,1,0,0:0:0:0:
280,120,59162,5,0,0:0:0:0:
348,60,59270,1,0,0:0:0:0:
280,120,59378,2,0,L|152:132,1,120
456,80,59810,1,0,0:0:0:0:
352,324,60026,5,0,0:0:0:0:
420,264,60134,1,0,0:0:0:0:
352,324,60242,2,0,L|224:336,1,120
28,116,60673,6,0,B|148:112|148:112|216:116,1,180
324,220,61105,6,0,P|276:172|276:180,1,180
282,153,61536,1,0,0:0:0:0:
40,64,61968,1,0,0:0:0:0:
292,288,62400,1,0,0:0:0:0:
344,128,62616,5,0,0:0:0:0:
392,52,62724,1,0,0:0:0:0:
344,128,62831,2,0,P|284:116|224:128,1,120
76,204,63263,1,0,0:0:0:0:
320,232,63479,1,0,0:0:0:0:
276,312,63587,1,0,0:0:0:0:
320,232,63695,2,0,P|260:220|200:232,1,120
188,331,64126,5,0,0:0:0:0:
132,280,64558,1,0,0:0:0:0:
52,332,64990,1,0,0:0:0:0:
48,212,65421,1,0,0:0:0:0:
140,104,65853,1,0,0:0:0:0:
216,240,66069,1,0,0:0:0:0:
256,160,66177,1,0,0:0:0:0:
220,244,66285,2,0,P|284:232|348:244,1,120
488,344,66716,6,0,L|464:152,1,180
476,76,67148,2,0,B|460:128|468:176|468:176|472:208,1,120
336,72,67580,2,0,L|144:60,1,180
240,96,68011,2,0,L|108:116,1,120
196,280,68443,1,0,0:0:0:0:
200,284,68875,5,0,0:0:0:0:
168,296,68983,1,0,0:0:0:0:
140,300,69090,1,0,0:0:0:0:
108,296,69198,1,0,0:0:0:0:
76,288,69306,2,0,P|36:272|20:144,1,180
84,200,69738,2,0,B|148:120|148:120|164:132,1,120
224,156,70170,5,0,0:0:0:0:
224,252,70601,1,0,0:0:0:0:
296,316,71033,1,0,0:0:0:0:
412,284,71465,1,0,0:0:0:0:
464,148,71896,1,0,0:0:0:0:
316,232,72328,1,0,0:0:0:0:
168,112,72759,1,0,0:0:0:0:
316,32,72975,1,0,0:0:0:0:
256,92,73083,1,0,0:0:0:0:
252,88,73191,2,0,L|384:104,1,120
432,260,73623,5,0,0:0:0:0:
432,260,73839,1,0,0:0:0:0:
348,252,73947,1,0,0:0:0:0:
432,260,74054,2,0,P|416:320|360:344,1,120
200,320,74486,2,0,P|152:328|16:312,1,180
44,232,74918,2,0,L|116:336,1,120
204,188,75349,2,0,P|320:172|392:200,1,180
356,272,75781,2,0,P|372:240|368:144,1,120
456,304,76213,6,0,B|472:180,1,120
456,104,76536,1,0,0:0:0:0:
392,48,76644,2,0,P|360:36|268:56,1,120
280,56,77076,5,0,0:0:0:0:
180,256,77292,1,0,0:0:0:0:
140,180,77400,1,0,0:0:0:0:
180,256,77508,2,0,P|128:264|64:216,1,120
80,64,77939,2,0,L|264:44,1,180
176,52,78371,2,0,L|300:84,1,120
372,232,78803,1,0,0:0:0:0:
372,232,79234,1,0,0:0:0:0:
372,232,79666,1,0,0:0:0:0:
216,232,79882,1,0,0:0:0:0:
224,316,79990,1,0,0:0:0:0:
216,232,80098,2,0,P|176:232|92:252,1,120
232,148,80529,6,0,L|48:116,1,180
48,32,80961,2,0,P|56:72|40:172,1,120
188,56,81393,2,0,L|392:44,1,180
284,52,81824,2,0,L|408:88,1,120
460,208,82256,1,0,0:0:0:0:
460,208,82688,1,0,0:0:0:0:
460,208,83119,5,0,0:0:0:0:
396,292,83335,1,0,0:0:0:0:
368,308,83443,1,0,0:0:0:0:
336,316,83551,2,0,B|256:324,1,65
168,320,83983,1,0,0:0:0:0:
144,320,84090,1,0,0:0:0:0:
120,320,84198,1,0,0:0:0:0:
96,324,84306,1,0,0:0:0:0:
72,320,84414,2,0,L|48:292,3,32.5
32,276,84846,1,0,0:0:0:0:
32,276,85277,6,0,L|48:196,1,65
100,124,85709,1,0,0:0:0:0:
120,96,85817,1,0,0:0:0:0:
148,76,85925,1,0,0:0:0:0:
176,64,86033,1,0,0:0:0:0:
200,60,86141,2,0,L|252:52,3,32.5
272,64,86572,2,0,P|308:68|344:80,1,65
364,92,86896,1,0,0:0:0:0:
392,108,87004,2,0,B|424:124|424:124|456:128,1,65
476,228,87436,2,0,P|416:240|344:224,1,130
248,244,88083,5,0,0:0:0:0:
248,244,88299,2,0,B|284:300|284:300|248:304,1,97.5
224,312,88731,2,0,P|196:324|160:328,1,65
60,340,89162,1,0,0:0:0:0:
80,316,89270,1,0,0:0:0:0:
100,292,89378,1,0,0:0:0:0:
24,244,89594,2,0,L|16:188,3,32.5
16,180,90026,2,0,P|32:128|36:84,1,97.5
52,56,90457,2,0,L|132:72,1,65
204,128,90889,5,0,0:0:0:0:
215,158,90997,1,0,0:0:0:0:
226,188,91105,1,0,0:0:0:0:
328,212,91321,2,0,L|312:248,2,32.5
344,184,91644,1,0,0:0:0:0:
376,176,91752,2,0,P|420:172|452:176,1,65
468,188,92076,1,0,0:0:0:0:
488,216,92184,2,0,L|460:276,1,65
320,328,92616,6,0,P|256:340|180:328,1,130
96,292,93263,1,0,0:0:0:0:
192,331,93479,2,0,L|184:228,1,97.5
216,224,93911,2,0,L|220:160,1,65
296,232,94342,2,0,P|340:204|368:168,1,97.5
404,168,94774,2,0,L|380:228,1,65
336,324,95206,6,0,B|360:304|360:304|396:316|396:316|416:296|416:296|444:312|444:312|488:300|496:224,1,227.5
476,208,96069,2,0,L|488:120,1,65
496,80,96500,1,0,0:0:0:0:
484,52,96608,1,0,0:0:0:0:
456,36,96716,1,0,0:0:0:0:
424,32,96824,1,0,0:0:0:0:
392,32,96932,6,0,L|280:40,1,97.5
276,64,97364,2,0,L|348:56,1,65
316,156,97795,2,0,L|264:164,3,32.5
252,168,98227,2,0,L|220:180,1,32.5
192,192,98443,1,0,0:0:0:0:
160,188,98551,1,0,0:0:0:0:
128,188,98659,2,0,P|92:184|56:172,1,65
88,276,99090,1,0,0:0:0:0:
96,276,99306,5,0,0:0:0:0:
96,276,99522,2,0,B|148:288|148:288,3,32.5
160,280,99954,2,0,L|212:276,1,32.5
224,284,100170,1,0,0:0:0:0:
252,300,100277,1,0,0:0:0:0:
280,312,100385,2,0,P|324:320|368:312,1,65
408,236,100817,2,0,B|336:228,1,65
416,152,101249,2,0,B|432:56|432:56|396:80,1,130
320,128,101896,5,0,0:0:0:0:
328,124,102112,2,0,L|224:148,1,97.5
208,128,102544,2,0,B|128:112|128:112|148:128,1,97.5
132,152,102975,2,0,P|116:228|104:248,1,97.5
80,224,103407,1,0,0:0:0:0:
68,196,103515,1,0,0:0:0:0:
68,152,103623,1,0,0:0:0:0:
72,120,103731,1,0,0:0:0:0:
104,112,103839,2,0,L|216:132,1,97.5
220,156,104270,6,0,L|312:136,1,65
412,66,104702,2,0,P|444:118|440:174,1,97.5
436,184,105134,1,0,0:0:0:0:
420,212,105242,1,0,0:0:0:0:
436,240,105349,1,0,0:0:0:0:
396,336,105565,1,0,0:0:0:0:
396,336,105781,1,0,0:0:0:0:
364,340,105889,1,0,0:0:0:0:
332,340,105997,2,0,P|300:348|260:344,1,65
172,304,106429,5,0,0:0:0:0:
172,304,106860,1,0,0:0:0:0:
172,304,107292,2,0,L|60:304,1,97.5
56,332,107724,2,0,L|64:244,1,65
156,224,108155,2,0,L|180:120,1,97.5
204,128,108587,2,0,P|212:168|220:192,1,65
292,116,109018,2,0,P|348:112|400:124,1,97.5
416,164,109450,2,0,L|332:172,1,65
316,268,109882,6,0,L|392:256,1,65
412,260,110206,1,0,0:0:0:0:
440,272,110313,1,0,0:0:0:0:
460,296,110421,1,0,0:0:0:0:
472,264,110529,1,0,0:0:0:0:
484,232,110637,1,0,0:0:0:0:
488,200,110745,2,0,B|492:112|492:112|476:120,1,97.5
448,124,111177,2,0,L|424:188,1,65
320,188,111608,5,0,0:0:0:0:
180,32,112040,1,0,0:0:0:0:
388,32,112472,1,0,0:0:0:0:
216,148,112903,1,0,0:0:0:0:
388,32,113335,1,0,0:0:0:0:
180,32,113767,1,0,0:0:0:0:
320,188,114198,1,0,0:0:0:0:
284,284,114414,5,0,0:0:0:0:
256,300,114522,1,0,0:0:0:0:
224,312,114630,2,0,P|180:324|136:320,1,65
60,304,115062,1,0,0:0:0:0:
52,200,115277,1,0,0:0:0:0:
84,196,115385,1,0,0:0:0:0:
116,188,115493,2,0,P|152:176|176:156,1,65
216,64,115925,2,0,L|112:88,1,97.5
96,64,116357,2,0,P|136:44|164:12,1,65
300,48,116788,5,0,0:0:0:0:
300,48,117220,1,0,0:0:0:0:
300,48,117652,1,0,0:0:0:0:
352,148,117867,1,0,0:0:0:0:
377,167,117975,1,0,0:0:0:0:
405,183,118083,2,0,P|439:200|470:203,1,65
432,304,118515,1,0,0:0:0:0:
344,356,118731,1,0,0:0:0:0:
315,338,118839,1,0,0:0:0:0:
289,316,118947,2,0,P|257:283|239:242,1,65
260,164,119378,5,0,0:0:0:0:
260,164,119810,1,0,0:0:0:0:
260,164,120242,1,0,0:0:0:0:
260,164,120673,1,0,0:0:0:0:
260,164,121105,1,0,0:0:0:0:
200,80,121321,1,0,0:0:0:0:
168,72,121429,1,0,0:0:0:0:
136,68,121536,2,0,P|96:64|52:72,1,65
100,176,121968,2,0,L|92:272,1,65
84,272,122292,1,0,0:0:0:0:
80,304,122400,2,0,P|120:296|148:296,1,65
240,336,122831,6,0,L|352:328,1,97.5
352,304,123263,2,0,L|448:312,1,65
496,240,123695,1,0,0:0:0:0:
304,316,124126,2,0,L|400:324,1,65
360,312,124450,1,0,0:0:0:0:
352,304,124558,2,0,L|448:312,1,65
476,224,124990,2,0,L|484:148,1,65
416,80,125421,5,0,0:0:0:0:
256,216,125853,1,0,0:0:0:0:
92,96,126285,1,0,0:0:0:0:
296,148,126716,1,0,0:0:0:0:
92,96,127148,1,0,0:0:0:0:
256,216,127580,1,0,0:0:0:0:
416,80,128011,1,0,0:0:0:0:
464,172,128227,5,0,0:0:0:0:
472,204,128335,1,0,0:0:0:0:
476,236,128443,2,0,P|480:276|472:316,1,65
376,336,128875,1,0,0:0:0:0:
296,276,129090,1,0,0:0:0:0:
268,296,129198,1,0,0:0:0:0:
252,320,129306,2,0,P|212:308|160:316,1,65
92,348,129738,2,0,P|76:300|72:252,1,97.5
104,244,130170,1,0,0:0:0:0:
92,236,130601,2,0,L|100:124,1,97.5
128,128,131033,1,0,0:0:0:0:
128,128,131465,5,0,0:0:0:0:
224,164,131680,1,0,0:0:0:0:
252,176,131788,1,0,0:0:0:0:
284,184,131896,2,0,P|324:188|360:184,1,65
448,148,132328,1,0,0:0:0:0:
380,68,132544,1,0,0:0:0:0:
360,96,132652,1,0,0:0:0:0:
350,121,132759,2,0,P|346:161|350:197,1,65
380,284,133191,6,0,P|316:296|248:284,3,130
80,164,134918,1,0,0:0:0:0:
48,264,135134,1,0,0:0:0:0:
76,276,135242,1,0,0:0:0:0:
108,284,135349,2,0,P|148:288|184:284,1,65
268,316,135781,6,0,L|380:308,1,97.5
380,284,136213,2,0,L|476:292,1,65
480,192,136644,2,0,L|456:88,1,97.5
432,96,137076,2,0,P|424:136|416:160,1,65
328,212,137508,1,0,0:0:0:0:
328,212,137939,1,0,0:0:0:0:
64,104,141824,6,0,P|100:80|132:72,1,65
152,84,142148,1,0,0:0:0:0:
180,100,142256,2,0,P|228:108|256:104,1,65
276,100,142580,1,0,0:0:0:0:
304,84,142688,1,0,0:0:0:0:
336,76,142795,1,0,0:0:0:0:
372,80,142903,1,0,0:0:0:0:
328,176,143119,6,0,L|400:188,1,65
496,224,143551,2,0,L|432:244,1,65
408,264,143875,1,0,0:0:0:0:
392,292,143983,2,0,P|368:316|324:328,1,65
300,320,144306,1,0,0:0:0:0:
268,316,144414,1,0,0:0:0:0:
236,308,144522,1,0,0:0:0:0:
204,300,144630,1,0,0:0:0:0:
172,308,144738,1,0,0:0:0:0:
140,324,144846,2,0,L|96:332,3,32.5
68,332,145277,6,0,P|52:292|48:248,1,65
52,240,145601,1,0,0:0:0:0:
68,212,145709,2,0,L|52:124,1,65
68,120,146033,1,0,0:0:0:0:
84,92,146141,2,0,L|124:56,2,32.5
180,136,146572,2,0,P|220:140|260:136,1,65
292,40,147004,6,0,L|360:40,1,65
384,60,147328,1,0,0:0:0:0:
408,80,147436,2,0,P|448:84|476:92,1,65
472,124,147759,1,0,0:0:0:0:
476,156,147867,1,0,0:0:0:0:
480,188,147975,1,0,0:0:0:0:
484,220,148083,1,0,0:0:0:0:
468,248,148191,1,0,0:0:0:0:
448,272,148299,2,0,L|424:320,3,32.5
404,288,148731,6,0,L|372:224,1,65
344,224,149054,1,0,0:0:0:0:
312,228,149162,2,0,P|276:248|240:248,1,65
220,248,149486,1,0,0:0:0:0:
188,244,149594,2,0,L|136:256,2,32.5
204,140,150026,2,0,L|132:156,1,65
68,80,150457,6,0,L|56:160,1,65
64,176,150781,1,0,0:0:0:0:
80,204,150889,2,0,P|88:244|84:276,1,65
72,300,151213,1,0,0:0:0:0:
92,324,151321,1,0,0:0:0:0:
120,344,151429,1,0,0:0:0:0:
148,360,151536,1,0,0:0:0:0:
176,344,151644,1,0,0:0:0:0:
208,332,151752,2,0,L|260:328,3,32.5
272,336,152184,6,0,L|344:344,1,65
368,336,152508,1,0,0:0:0:0:
400,328,152616,2,0,L|472:336,1,65
492,320,152939,1,0,0:0:0:0:
488,288,153047,1,0,0:0:0:0:
484,256,153155,1,0,0:0:0:0:
484,228,153263,1,0,0:0:0:0:
428,140,153479,2,0,L|352:128,1,65
260,140,153911,5,0,0:0:0:0:
224,236,154126,1,0,0:0:0:0:
160,156,154342,1,0,0:0:0:0:
264,148,154558,1,0,0:0:0:0:
228,244,154774,5,0,0:0:0:0:
160,164,154990,1,0,0:0:0:0:
264,156,155206,1,0,0:0:0:0:
224,252,155421,1,0,0:0:0:0:
160,164,155637,1,0,0:0:0:0:
192,64,155853,1,0,0:0:0:0:
220,48,155961,1,0,0:0:0:0:
252,44,156069,2,0,P|292:48|328:64,1,65
260,156,156500,5,0,0:0:0:0:
460,212,156932,1,0,0:0:0:0:
280,316,157364,1,0,0:0:0:0:
380,136,157795,1,0,0:0:0:0:
280,316,158227,1,0,0:0:0:0:
460,212,158659,1,0,0:0:0:0:
260,156,159090,1,0,0:0:0:0:
180,240,159306,5,0,0:0:0:0:
152,256,159414,1,0,0:0:0:0:
120,268,159522,2,0,P|88:276|56:276,1,65
76,172,159954,1,0,0:0:0:0:
68,68,160170,5,0,0:0:0:0:
99,60,160277,1,0,0:0:0:0:
133,57,160385,2,0,P|165:58|196:66,1,65
252,152,160817,1,0,0:0:0:0:
460,212,161249,1,0,0:0:0:0:
280,316,161680,1,0,0:0:0:0:
380,136,162112,1,0,0:0:0:0:
280,316,162544,1,0,0:0:0:0:
176,316,162759,5,0,0:0:0:0:
144,312,162867,1,0,0:0:0:0:
112,308,162975,2,0,P|80:300|48:284,1,65
40,180,163407,1,0,0:0:0:0:
84,92,163623,5,0,0:0:0:0:
112,104,163731,1,0,0:0:0:0:
144,116,163839,2,0,P|188:124|220:124,1,65
260,208,164270,2,0,P|324:192|388:204,2,130
64,280,165565,1,0,0:0:0:0:
204,128,165997,1,0,0:0:0:0:
112,80,166213,5,0,0:0:0:0:
88,96,166321,1,0,0:0:0:0:
68,120,166429,2,0,P|56:152|52:184,1,65
108,268,166860,2,0,P|164:260|216:264,1,97.5
228,284,167292,2,0,L|272:276,2,32.5
288,196,167724,2,0,P|336:180|384:176,1,97.5
412,192,168155,2,0,L|460:188,2,32.5
436,88,168587,5,0,0:0:0:0:
336,56,168803,1,0,0:0:0:0:
336,56,168911,1,0,0:0:0:0:
336,56,169018,1,0,0:0:0:0:
240,96,169234,1,0,0:0:0:0:
136,92,169450,5,0,0:0:0:0:
44,140,169666,1,0,0:0:0:0:
32,168,169774,1,0,0:0:0:0:
20,200,169882,2,0,P|16:248|20:284,1,65
92,336,170313,6,0,L|204:328,1,97.5
204,304,170745,2,0,L|300:312,1,65
352,244,171177,2,0,L|456:268,1,97.5
472,244,171608,2,0,P|432:224|404:192,1,65
360,124,172040,1,0,0:0:0:0:
260,308,172472,1,0,0:0:0:0:
264,312,172903,6,0,B|288:292|288:292|324:304|324:304|344:284|344:284|372:300|372:300|420:308|416:192,1,260
208,184,174198,1,0,0:0:0:0:
112,220,174414,1,0,0:0:0:0:
132,120,174630,1,0,0:0:0:0:
132,120,175062,1,0,0:0:0:0:
132,120,175493,1,0,0:0:0:0:
132,120,175925,1,0,0:0:0:0:
256,300,176357,6,0,B|280:280|280:280|316:292|316:292|336:272|336:272|364:288|364:288|412:296|408:180,1,260
200,184,177652,1,0,0:0:0:0:
104,224,177867,1,0,0:0:0:0:
132,120,178083,1,0,0:0:0:0:
132,120,178515,1,0,0:0:0:0:
132,120,178947,1,0,0:0:0:0:
132,120,179378,1,0,0:0:0:0:
256,300,179810,6,0,B|280:280|280:280|316:292|316:292|336:272|336:272|364:288|364:288|412:296|408:180,1,260
476,104,180889,2,0,L|424:96,1,32.5
420,80,181105,2,0,L|380:76,2,32.5
320,104,181536,1,0,0:0:0:0:
216,108,181752,2,0,L|180:144,1,32.5
160,140,181968,2,0,P|140:180|136:228,1,65
148,304,182400,1,0,0:0:0:0:
148,304,182831,1,0,0:0:0:0:
256,192,182939,12,0,185853,2:0:0:0:
