osu file format v14

[General]
AudioFilename: audio.mp3
AudioLeadIn: 0
PreviewTime: 110745
Countdown: 0
SampleSet: Normal
StackLeniency: 0.7
Mode: 0
LetterboxInBreaks: 0
WidescreenStoryboard: 0

[Editor]
Bookmarks: 7162,14069,21171,28293,39078,41453,51165,54834,69306,83107,96920,113755,125409,141812,155625,169438
DistanceSpacing: 1.6
BeatDivisor: 4
GridSize: 4
TimelineZoom: 4.399999

[Metadata]
Title:What You Know
TitleUnicode:What You Know
Artist:Two Door Cinema Club
ArtistUnicode:Two Door Cinema Club
Creator:buhaha
Version:Hard
Source:
Tags:TDCC indie electronic british alternative rock synth
BeatmapID:1249081
BeatmapSetID:590132

[Difficulty]
HPDrainRate:6
CircleSize:4
OverallDifficulty:6
ApproachRate:8
SliderMultiplier:1.3
SliderTickRate:2

[Events]
//Background and Video events
0,0,"58396_anime_scenery.jpg",0,0
//Break Periods
2,138571,141074
//Storyboard Layer 0 (Background)
//Storyboard Layer 1 (Fail)
//Storyboard Layer 2 (Pass)
//Storyboard Layer 3 (Foreground)
//Storyboard Sound Samples

[TimingPoints]
242,431.654676258993,4,1,0,30,1,0
56357,-100,4,1,0,30,0,1
82688,-100,4,1,0,30,0,0
111608,-100,4,1,0,30,0,1
138371,-100,4,1,0,30,0,0

[Colours]
Combo1 : 255,255,255
Combo2 : 255,128,255
Combo3 : 255,255,128
Combo4 : 128,255,255

[HitObjects]
56,184,7148,6,0,P|92:128|160:108,1,130
220,192,7795,1,0,0:0:0:0:
248,216,7903,1,0,0:0:0:0:
272,240,8011,2,0,P|344:256|404:240,1,130
408,136,8659,1,0,0:0:0:0:
381,120,8767,1,0,0:0:0:0:
357,104,8875,2,0,P|293:88|221:104,1,130
144,152,9522,1,0,0:0:0:0:
120,176,9630,1,0,0:0:0:0:
104,200,9738,1,0,0:0:0:0:
208,272,10170,1,0,0:0:0:0:
416,280,10601,6,0,L|448:152,1,130
376,80,11249,1,0,0:0:0:0:
344,64,11357,1,0,0:0:0:0:
312,56,11465,2,0,L|176:64,1,130
120,136,12112,1,0,0:0:0:0:
152,144,12220,1,0,0:0:0:0:
184,152,12328,2,0,L|336:144,1,130
408,192,12975,1,0,0:0:0:0:
392,216,13083,1,0,0:0:0:0:
376,240,13191,2,0,L|328:312,1,65
240,304,13623,2,0,L|296:232,1,65
176,224,14054,5,0,0:0:0:0:
120,312,14270,1,0,0:0:0:0:
96,296,14378,1,0,0:0:0:0:
72,272,14486,2,0,B|48:248|48:248|32:208,1,65
72,120,14918,1,0,0:0:0:0:
160,176,15134,1,0,0:0:0:0:
184,192,15242,1,0,0:0:0:0:
208,208,15349,2,0,P|248:216|288:208,1,65
376,200,15781,1,0,0:0:0:0:
448,272,15997,5,0,0:0:0:0:
464,240,16105,1,0,0:0:0:0:
480,208,16213,2,0,P|488:160|480:128,1,65
408,80,16644,1,0,0:0:0:0:
312,120,16860,1,0,0:0:0:0:
312,120,16968,1,0,0:0:0:0:
312,120,17076,1,0,0:0:0:0:
376,200,17292,1,0,0:0:0:0:
288,256,17508,1,0,0:0:0:0:
192,216,17724,5,0,0:0:0:0:
164,236,17831,1,0,0:0:0:0:
152,268,17939,2,0,P|152:316|168:348,1,65
264,352,18371,2,0,L|288:248,1,97.5
312,256,18803,2,0,P|320:296|328:320,1,65
424,360,19234,2,0,L|432:248,1,97.5
456,248,19666,2,0,L|448:152,1,65
456,80,20098,2,0,L|336:72,1,97.5
336,96,20529,2,0,P|376:112|400:140,1,65
316,200,20961,1,0,0:0:0:0:
240,272,21177,5,0,0:0:0:0:
208,288,21285,1,0,0:0:0:0:
176,304,21393,2,0,P|144:312|88:304,1,65
44,232,21824,2,0,L|56:164,1,65
72,128,22148,1,0,0:0:0:0:
100,104,22256,2,0,P|136:84|176:80,1,65
168,184,22688,5,0,0:0:0:0:
256,236,22903,1,0,0:0:0:0:
284,252,23011,1,0,0:0:0:0:
316,264,23119,2,0,P|356:276|404:272,1,65
472,228,23551,1,0,0:0:0:0:
380,180,23767,1,0,0:0:0:0:
352,164,23875,1,0,0:0:0:0:
328,144,23983,2,0,P|300:104|292:72,1,65
200,48,24414,6,0,P|144:44|92:56,1,97.5
76,96,24846,2,0,L|160:104,1,65
212,176,25277,2,0,P|156:172|104:184,1,97.5
88,224,25709,2,0,L|172:232,1,65
228,304,26141,2,0,P|172:300|120:312,1,97.5
104,352,26572,2,0,L|188:360,1,65
296,340,27004,1,0,0:0:0:0:
296,348,27436,1,0,0:0:0:0:
296,348,27867,1,0,0:0:0:0:
448,204,28299,6,0,L|464:140,1,65
336,104,28731,2,0,B|236:100|236:100|200:108,1,130
204,236,29378,1,0,0:0:0:0:
128,128,29594,2,0,B|44:136|44:136|52:116,1,97.5
68,84,30026,1,0,0:0:0:0:
196,100,30242,1,0,0:0:0:0:
196,100,30457,2,0,B|225:93|225:93|325:97,1,130
236,196,31105,1,0,0:0:0:0:
236,196,31321,2,0,B|336:200,1,97.5
368,200,31752,1,0,0:0:0:0:
468,120,31968,5,0,0:0:0:0:
468,120,32184,2,0,B|464:208|464:208|444:248,1,130
352,336,32831,1,0,0:0:0:0:
352,336,33047,2,0,P|304:324|240:328,1,97.5
212,328,33479,2,0,L|88:340,1,97.5
72,340,33911,1,0,0:0:0:0:
132,88,34342,1,0,0:0:0:0:
196,56,34558,1,0,0:0:0:0:
196,56,34666,1,0,0:0:0:0:
200,60,34774,2,0,B|229:53|229:53|329:57,1,130
368,132,35421,5,0,0:0:0:0:
368,132,35637,2,0,P|380:204|360:248,1,97.5,0|0,1:0|1:0,1:0:0:0:
352,264,36069,1,0,0:0:0:0:
352,264,36500,1,0,0:0:0:0:
352,264,36932,1,0,0:0:0:0:
352,264,37364,2,0,P|292:280|220:264,1,130
468,172,38227,2,0,P|405:155|342:168,1,130
100,270,39090,2,0,P|163:282|225:266,1,130
468,172,39954,2,0,P|405:155|342:168,1,130
100,268,40817,2,0,P|163:280|225:264,1,130
328,244,41465,5,0,0:0:0:0:
360,256,41572,1,0,0:0:0:0:
392,264,41680,2,0,B|428:272|428:272|464:264,1,65
488,260,42004,1,0,0:0:0:0:
512,236,42112,2,0,L|504:140,1,65
428,104,42544,2,0,L|384:92,3,32.5
360,96,42975,2,0,L|312:100,1,32.5
296,108,43191,1,0,0:0:0:0:
268,124,43299,1,0,0:0:0:0:
236,136,43407,2,0,P|204:144|152:140,1,65
40,96,43839,6,0,L|20:168,1,65
12,264,44270,2,0,P|84:280|120:272,1,97.5
136,260,44702,1,0,0:0:0:0:
168,252,44810,1,0,0:0:0:0:
200,244,44918,1,0,0:0:0:0:
232,244,45026,1,0,0:0:0:0:
264,248,45134,2,0,L|300:264,3,32.5
324,272,45565,2,0,P|364:280|400:280,1,65
476,336,45997,2,0,B|416:352|416:352|336:352,1,130
244,336,46644,5,0,0:0:0:0:
144,308,46860,2,0,L|92:196,1,97.5
128,196,47292,2,0,P|156:248|192:284,1,97.5
208,296,47724,2,0,B|324:292|324:292|304:272,1,130
308,252,48263,1,0,0:0:0:0:
288,224,48371,1,0,0:0:0:0:
276,196,48479,1,0,0:0:0:0:
264,168,48587,2,0,P|246:130|244:104,1,65
348,108,49018,5,0,0:0:0:0:
408,12,49234,1,0,0:0:0:0:
373,115,49450,2,0,L|241:107,1,130
212,108,49990,1,0,0:0:0:0:
180,112,50098,1,0,0:0:0:0:
148,120,50206,1,0,0:0:0:0:
116,132,50313,2,0,L|40:152,1,65
28,164,50637,1,0,0:0:0:0:
28,196,50745,2,0,P|64:204|108:196,1,65
184,252,51177,5,0,0:0:0:0:
184,252,51608,1,0,0:0:0:0:
184,252,52040,2,0,B|260:268|320:324|320:324|292:256,1,227.5
288,224,52903,2,0,B|260:152|260:152|292:200|408:192,1,227.5
420,188,53767,2,0,B|428:276|384:352|384:352|448:272,1,260
488,192,54846,5,0,0:0:0:0:
484,160,54954,1,0,0:0:0:0:
480,128,55062,2,0,L|464:92,3,32.5
448,72,55493,2,0,P|400:56|340:56,1,97.5
320,48,55925,2,0,L|236:64,1,65
156,88,56357,5,0,0:0:0:0:
308,228,56788,1,0,0:0:0:0:
108,280,57220,1,0,0:0:0:0:
256,132,57652,1,0,0:0:0:0:
212,336,58083,1,0,0:0:0:0:
164,200,58515,1,0,0:0:0:0:
348,300,58947,1,0,0:0:0:0:
416,224,59162,5,0,0:0:0:0:
432,196,59270,1,0,0:0:0:0:
444,168,59378,2,0,P|448:120|440:88,1,65
372,28,59810,1,0,0:0:0:0:
320,116,60026,1,0,0:0:0:0:
308,148,60134,1,0,0:0:0:0:
292,176,60242,2,0,P|268:200|232:224,1,65
152,268,60673,6,0,P|80:276|16:260,1,130
92,68,61536,1,0,0:0:0:0:
24,263,61968,1,0,0:0:0:0:
92,68,62400,1,0,0:0:0:0:
60,168,62616,1,0,0:0:0:0:
92,176,62724,1,0,0:0:0:0:
124,180,62831,2,0,P|164:184|208:176,1,65
276,124,63263,1,0,0:0:0:0:
388,132,63479,1,0,0:0:0:0:
380,164,63587,1,0,0:0:0:0:
360,192,63695,2,0,P|332:216|296:232,1,65
296,332,64126,6,0,P|224:340|160:324,1,130
244,132,64990,1,0,0:0:0:0:
168,327,65421,1,0,0:0:0:0:
244,132,65853,1,0,0:0:0:0:
208,232,66069,1,0,0:0:0:0:
240,236,66177,1,0,0:0:0:0:
272,240,66285,2,0,P|312:244|356:236,1,65
432,200,66716,2,0,L|408:96,1,97.5
384,104,67148,2,0,P|376:144|368:168,1,65
288,100,67580,2,0,L|176:92,1,97.5
176,68,68011,2,0,L|80:76,1,65
64,120,68443,1,0,0:0:0:0:
200,284,68875,5,0,0:0:0:0:
168,296,68983,1,0,0:0:0:0:
140,300,69090,1,0,0:0:0:0:
108,296,69198,1,0,0:0:0:0:
76,288,69306,2,0,P|36:268|8:220,1,97.5
12,192,69738,2,0,L|24:100,1,65
92,52,70170,5,0,0:0:0:0:
188,236,70601,1,0,0:0:0:0:
292,68,71033,1,0,0:0:0:0:
396,248,71465,1,0,0:0:0:0:
296,64,71896,1,0,0:0:0:0:
188,236,72328,1,0,0:0:0:0:
92,52,72759,1,0,0:0:0:0:
168,120,72975,1,0,0:0:0:0:
188,144,73083,1,0,0:0:0:0:
212,164,73191,2,0,P|248:184|292:192,1,65
364,140,73623,5,0,0:0:0:0:
432,304,73839,1,0,0:0:0:0:
400,312,73947,1,0,0:0:0:0:
368,316,74054,2,0,P|328:320|288:312,1,65
200,316,74486,2,0,P|152:324|100:312,1,97.5
80,296,74918,2,0,L|72:232,1,65
176,228,75349,2,0,P|224:216|276:228,1,97.5
300,224,75781,2,0,P|316:192|316:160,1,65
420,164,76213,6,0,B|436:96,1,65
436,68,76536,1,0,0:0:0:0:
408,52,76644,2,0,P|376:40|336:44,1,65
280,56,77076,1,0,0:0:0:0:
180,256,77292,1,0,0:0:0:0:
152,272,77400,1,0,0:0:0:0:
120,284,77508,2,0,P|84:292|48:284,1,65
84,168,77939,6,0,L|196:160,1,97.5
196,136,78371,2,0,L|292:144,1,65
320,228,78803,2,0,P|392:236|456:220,2,130
216,232,79882,1,0,0:0:0:0:
188,248,79990,1,0,0:0:0:0:
160,264,80098,2,0,P|124:272|88:264,1,65
40,180,80529,6,0,L|64:76,1,97.5
88,84,80961,2,0,P|96:124|104:148,1,65
208,160,81393,2,0,L|320:152,1,97.5
320,128,81824,2,0,L|416:136,1,65
460,208,82256,1,0,0:0:0:0:
460,208,82688,1,0,0:0:0:0:
460,208,83119,5,0,0:0:0:0:
396,292,83335,1,0,0:0:0:0:
368,308,83443,1,0,0:0:0:0:
336,316,83551,2,0,B|256:324,1,65
168,320,83983,1,0,0:0:0:0:
144,320,84090,1,0,0:0:0:0:
120,320,84198,1,0,0:0:0:0:
96,324,84306,1,0,0:0:0:0:
72,320,84414,2,0,L|48:292,3,32.5
32,276,84846,1,0,0:0:0:0:
32,276,85277,6,0,L|48:196,1,65
100,124,85709,1,0,0:0:0:0:
120,96,85817,1,0,0:0:0:0:
148,76,85925,1,0,0:0:0:0:
176,64,86033,1,0,0:0:0:0:
200,60,86141,2,0,L|252:52,3,32.5
264,60,86572,2,0,P|300:64|336:76,1,65
356,88,86896,1,0,0:0:0:0:
384,104,87004,2,0,B|416:120|416:120|448:124,1,65
476,228,87436,2,0,P|416:240|344:224,1,130
248,244,88083,5,0,0:0:0:0:
248,244,88299,2,0,B|284:300|284:300|248:304,1,97.5
224,312,88731,2,0,P|196:324|160:328,1,65
60,340,89162,1,0,0:0:0:0:
80,316,89270,1,0,0:0:0:0:
100,292,89378,1,0,0:0:0:0:
24,244,89594,2,0,L|16:188,3,32.5
16,180,90026,2,0,P|32:128|36:84,1,97.5
52,56,90457,2,0,L|132:72,1,65
204,128,90889,5,0,0:0:0:0:
215,158,90997,1,0,0:0:0:0:
226,188,91105,1,0,0:0:0:0:
328,212,91321,2,0,L|312:248,2,32.5
344,184,91644,1,0,0:0:0:0:
376,176,91752,2,0,P|420:172|452:176,1,65
468,188,92076,1,0,0:0:0:0:
488,216,92184,2,0,L|460:276,1,65
320,328,92616,2,0,P|256:340|180:328,1,130
96,292,93263,1,0,0:0:0:0:
192,331,93479,6,0,L|184:228,1,97.5
216,224,93911,2,0,L|220:160,1,65
296,232,94342,2,0,P|340:204|368:168,1,97.5
404,168,94774,2,0,L|380:228,1,65
336,324,95206,2,0,B|396:360|448:312|448:312|464:292|472:272|472:272|496:296,1,195
504,188,96069,2,0,P|472:168|456:144,1,65
496,48,96500,1,0,0:0:0:0:
464,36,96608,1,0,0:0:0:0:
432,32,96716,1,0,0:0:0:0:
400,32,96824,1,0,0:0:0:0:
368,28,96932,6,0,L|256:36,1,97.5
268,68,97364,2,0,L|340:60,1,65
316,164,97795,2,0,L|264:172,3,32.5
252,168,98227,2,0,L|220:180,1,32.5
192,192,98443,1,0,0:0:0:0:
160,188,98551,1,0,0:0:0:0:
128,188,98659,2,0,P|92:184|56:172,1,65
84,276,99090,1,0,0:0:0:0:
84,276,99306,5,0,0:0:0:0:
84,276,99522,2,0,B|136:288|136:288,3,32.5
152,280,99954,2,0,L|204:276,1,32.5
220,280,100170,1,0,0:0:0:0:
248,300,100277,1,0,0:0:0:0:
280,312,100385,2,0,P|324:320|368:312,1,65
408,236,100817,2,0,B|336:228,1,65
416,152,101249,2,0,B|456:72|456:72|408:76,1,130
324,128,101896,5,0,0:0:0:0:
324,128,102112,2,0,L|220:152,1,97.5
200,136,102544,2,0,B|120:120|120:120|140:136,1,97.5
128,164,102975,2,0,P|112:240|100:260,1,97.5
76,236,103407,1,0,0:0:0:0:
68,196,103515,1,0,0:0:0:0:
68,152,103623,1,0,0:0:0:0:
72,120,103731,1,0,0:0:0:0:
104,112,103839,2,0,L|216:132,1,97.5
220,156,104270,6,0,L|312:136,1,65
412,66,104702,2,0,P|444:118|440:174,1,97.5
436,184,105134,1,0,0:0:0:0:
420,212,105242,1,0,0:0:0:0:
436,240,105349,1,0,0:0:0:0:
448,336,105565,1,0,0:0:0:0:
360,296,105781,1,0,0:0:0:0:
336,316,105889,1,0,0:0:0:0:
308,328,105997,2,0,P|276:336|236:332,1,65
144,300,106429,1,0,0:0:0:0:
144,300,106860,1,0,0:0:0:0:
148,304,107292,6,0,L|36:304,1,97.5
50,304,107724,2,0,L|58:216,1,65
160,220,108155,2,0,L|184:116,1,97.5
204,128,108587,2,0,P|212:168|220:192,1,65
292,116,109018,2,0,P|348:112|400:124,1,97.5
416,164,109450,2,0,L|332:172,1,65
316,268,109882,2,0,L|392:256,1,65
412,260,110206,5,0,0:0:0:0:
440,272,110313,1,0,0:0:0:0:
460,296,110421,1,0,0:0:0:0:
472,264,110529,1,0,0:0:0:0:
484,232,110637,1,0,0:0:0:0:
488,200,110745,2,0,B|492:112|492:112|476:120,1,97.5
448,124,111177,2,0,L|424:188,1,65
320,188,111608,5,0,0:0:0:0:
180,32,112040,1,0,0:0:0:0:
388,32,112472,1,0,0:0:0:0:
216,148,112903,1,0,0:0:0:0:
388,32,113335,1,0,0:0:0:0:
180,32,113767,1,0,0:0:0:0:
320,188,114198,1,0,0:0:0:0:
284,284,114414,5,0,0:0:0:0:
256,300,114522,1,0,0:0:0:0:
224,312,114630,2,0,P|180:324|136:320,1,65
60,304,115062,1,0,0:0:0:0:
52,200,115277,1,0,0:0:0:0:
84,196,115385,1,0,0:0:0:0:
116,188,115493,2,0,P|152:176|176:156,1,65
216,64,115925,6,0,L|112:88,1,97.5
96,64,116357,2,0,P|136:44|164:12,1,65
300,48,116788,1,0,0:0:0:0:
300,48,117220,1,0,0:0:0:0:
300,48,117652,1,0,0:0:0:0:
352,148,117867,1,0,0:0:0:0:
377,167,117975,1,0,0:0:0:0:
405,183,118083,2,0,P|439:200|470:203,1,65
432,304,118515,1,0,0:0:0:0:
344,356,118731,1,0,0:0:0:0:
315,338,118839,1,0,0:0:0:0:
289,316,118947,6,0,P|257:283|239:242,1,65
260,164,119378,5,0,0:0:0:0:
260,164,119810,1,0,0:0:0:0:
260,164,120242,1,0,0:0:0:0:
260,164,120673,1,0,0:0:0:0:
260,164,121105,1,0,0:0:0:0:
200,80,121321,1,0,0:0:0:0:
168,72,121429,1,0,0:0:0:0:
136,68,121536,2,0,P|96:64|52:72,1,65
100,176,121968,2,0,L|92:272,1,65
84,272,122292,1,0,0:0:0:0:
80,304,122400,2,0,P|120:296|148:296,1,65
240,336,122831,6,0,L|352:328,1,97.5
352,304,123263,2,0,L|448:312,1,65
496,240,123695,1,0,0:0:0:0:
304,316,124126,2,0,L|400:324,1,65
360,312,124450,1,0,0:0:0:0:
352,304,124558,2,0,L|448:312,1,65
476,224,124990,2,0,L|484:148,1,65
416,80,125421,5,0,0:0:0:0:
256,216,125853,1,0,0:0:0:0:
92,96,126285,1,0,0:0:0:0:
296,148,126716,1,0,0:0:0:0:
92,96,127148,1,0,0:0:0:0:
256,216,127580,1,0,0:0:0:0:
416,80,128011,1,0,0:0:0:0:
464,172,128227,5,0,0:0:0:0:
472,204,128335,1,0,0:0:0:0:
476,236,128443,2,0,P|480:276|472:316,1,65
376,336,128875,1,0,0:0:0:0:
296,276,129090,1,0,0:0:0:0:
268,296,129198,1,0,0:0:0:0:
252,320,129306,2,0,P|212:308|160:316,1,65
92,348,129738,2,0,P|76:300|72:252,1,97.5
104,244,130170,1,0,0:0:0:0:
92,236,130601,2,0,L|100:124,1,97.5
128,128,131033,1,0,0:0:0:0:
128,128,131465,5,0,0:0:0:0:
224,164,131680,1,0,0:0:0:0:
252,176,131788,1,0,0:0:0:0:
284,184,131896,2,0,P|324:188|360:184,1,65
448,148,132328,1,0,0:0:0:0:
380,68,132544,1,0,0:0:0:0:
360,96,132652,1,0,0:0:0:0:
350,121,132759,2,0,P|346:161|350:197,1,65
380,284,133191,6,0,P|316:296|248:284,1,130
276,80,134054,1,0,0:0:0:0:
252,285,134486,1,0,0:0:0:0:
88,156,134918,1,0,0:0:0:0:
48,264,135134,1,0,0:0:0:0:
76,276,135242,1,0,0:0:0:0:
108,284,135349,2,0,P|148:288|184:284,1,65
268,316,135781,6,0,L|380:308,1,97.5
380,284,136213,2,0,L|476:292,1,65
480,192,136644,2,0,L|456:88,1,97.5
432,96,137076,2,0,P|424:136|416:160,1,65
328,212,137508,1,0,0:0:0:0:
328,212,137939,1,0,0:0:0:0:
328,212,138371,1,0,0:0:0:0:
64,104,141824,6,0,P|100:80|132:72,1,65
152,84,142148,1,0,0:0:0:0:
180,100,142256,2,0,P|228:108|256:104,1,65
276,100,142580,1,0,0:0:0:0:
304,84,142688,1,0,0:0:0:0:
336,76,142795,1,0,0:0:0:0:
372,80,142903,1,0,0:0:0:0:
328,176,143119,6,0,L|400:188,1,65
496,224,143551,2,0,L|432:244,1,65
408,264,143875,1,0,0:0:0:0:
392,292,143983,2,0,P|368:316|324:328,1,65
300,320,144306,1,0,0:0:0:0:
268,316,144414,1,0,0:0:0:0:
236,308,144522,1,0,0:0:0:0:
204,300,144630,1,0,0:0:0:0:
172,308,144738,1,0,0:0:0:0:
140,324,144846,2,0,L|96:332,3,32.5
68,332,145277,6,0,P|52:292|48:248,1,65
52,240,145601,1,0,0:0:0:0:
68,212,145709,2,0,L|52:124,1,65
68,120,146033,1,0,0:0:0:0:
84,92,146141,2,0,L|124:56,2,32.5
180,136,146572,2,0,P|220:140|260:136,1,65
292,40,147004,6,0,L|360:40,1,65
384,60,147328,1,0,0:0:0:0:
408,80,147436,2,0,P|448:84|476:92,1,65
472,124,147759,1,0,0:0:0:0:
476,156,147867,1,0,0:0:0:0:
480,188,147975,1,0,0:0:0:0:
484,220,148083,1,0,0:0:0:0:
468,248,148191,1,0,0:0:0:0:
448,272,148299,2,0,L|424:320,3,32.5
404,288,148731,6,0,L|372:224,1,65
344,224,149054,1,0,0:0:0:0:
312,228,149162,2,0,P|276:248|240:248,1,65
220,248,149486,1,0,0:0:0:0:
188,244,149594,2,0,L|136:256,2,32.5
204,140,150026,2,0,L|132:156,1,65
68,80,150457,6,0,L|56:160,1,65
64,176,150781,1,0,0:0:0:0:
80,204,150889,2,0,P|88:244|84:276,1,65
72,300,151213,1,0,0:0:0:0:
92,324,151321,1,0,0:0:0:0:
120,344,151429,1,0,0:0:0:0:
148,360,151536,1,0,0:0:0:0:
176,344,151644,1,0,0:0:0:0:
208,332,151752,2,0,L|260:328,3,32.5
272,336,152184,6,0,L|344:344,1,65
368,336,152508,1,0,0:0:0:0:
400,328,152616,2,0,L|472:336,1,65
492,320,152939,1,0,0:0:0:0:
488,288,153047,1,0,0:0:0:0:
484,256,153155,1,0,0:0:0:0:
484,228,153263,1,0,0:0:0:0:
428,140,153479,2,0,L|352:128,1,65
260,140,153911,5,0,0:0:0:0:
224,236,154126,1,0,0:0:0:0:
160,156,154342,1,0,0:0:0:0:
264,148,154558,1,0,0:0:0:0:
228,244,154774,5,0,0:0:0:0:
160,164,154990,1,0,0:0:0:0:
264,156,155206,1,0,0:0:0:0:
224,252,155421,1,0,0:0:0:0:
160,164,155637,1,0,0:0:0:0:
192,64,155853,1,0,0:0:0:0:
220,48,155961,1,0,0:0:0:0:
252,44,156069,2,0,P|292:48|328:64,1,65
260,156,156500,5,0,0:0:0:0:
460,212,156932,1,0,0:0:0:0:
280,316,157364,1,0,0:0:0:0:
380,136,157795,1,0,0:0:0:0:
280,316,158227,1,0,0:0:0:0:
460,212,158659,1,0,0:0:0:0:
260,156,159090,1,0,0:0:0:0:
180,240,159306,5,0,0:0:0:0:
152,256,159414,1,0,0:0:0:0:
120,268,159522,2,0,P|88:276|56:276,1,65
76,172,159954,1,0,0:0:0:0:
68,68,160170,5,0,0:0:0:0:
99,60,160277,1,0,0:0:0:0:
133,57,160385,2,0,P|165:58|196:66,1,65
252,152,160817,1,0,0:0:0:0:
460,212,161249,1,0,0:0:0:0:
280,316,161680,1,0,0:0:0:0:
380,136,162112,1,0,0:0:0:0:
280,316,162544,1,0,0:0:0:0:
176,316,162759,5,0,0:0:0:0:
144,312,162867,1,0,0:0:0:0:
112,308,162975,2,0,P|80:300|48:284,1,65
40,180,163407,1,0,0:0:0:0:
84,92,163623,5,0,0:0:0:0:
112,104,163731,1,0,0:0:0:0:
144,116,163839,2,0,P|188:124|220:124,1,65
260,208,164270,2,0,P|324:192|388:204,2,130
64,280,165565,1,0,0:0:0:0:
204,128,165997,1,0,0:0:0:0:
112,80,166213,5,0,0:0:0:0:
88,96,166321,1,0,0:0:0:0:
68,120,166429,2,0,P|56:152|52:184,1,65
108,268,166860,2,0,P|164:260|216:264,1,97.5
228,284,167292,2,0,L|272:276,2,32.5
288,196,167724,2,0,P|336:180|384:176,1,97.5
412,192,168155,2,0,L|460:188,2,32.5
436,88,168587,5,0,0:0:0:0:
336,56,168803,1,0,0:0:0:0:
336,56,168911,1,0,0:0:0:0:
336,56,169018,1,0,0:0:0:0:
240,96,169234,1,0,0:0:0:0:
136,92,169450,5,0,0:0:0:0:
44,140,169666,1,0,0:0:0:0:
32,168,169774,1,0,0:0:0:0:
20,200,169882,2,0,P|16:248|20:284,1,65
92,336,170313,6,0,L|204:328,1,97.5
204,304,170745,2,0,L|300:312,1,65
352,244,171177,2,0,L|456:268,1,97.5
472,244,171608,2,0,P|432:224|404:192,1,65
360,124,172040,1,0,0:0:0:0:
260,308,172472,1,0,0:0:0:0:
260,308,172903,6,0,L|168:312,1,65
164,316,173227,1,0,0:0:0:0:
132,320,173335,2,0,P|100:312|68:316,1,65
24,220,173767,1,0,0:0:0:0:
48,120,173983,1,0,0:0:0:0:
76,108,174091,1,0,0:0:0:0:
108,96,174199,2,0,P|152:88|184:88,1,65
272,64,174630,5,0,0:0:0:0:
424,204,175062,1,0,0:0:0:0:
220,176,175493,1,0,0:0:0:0:
68,316,175925,1,0,0:0:0:0:
76,108,176357,2,0,L|152:100,1,65
172,96,176680,1,0,0:0:0:0:
204,92,176788,2,0,P|240:88|272:96,1,65
352,156,177220,5,0,0:0:0:0:
424,232,177436,1,0,0:0:0:0:
396,244,177544,1,0,0:0:0:0:
364,256,177652,2,0,P|320:264|288:264,1,65
200,288,178083,1,0,0:0:0:0:
267,94,178515,1,0,0:0:0:0:
76,176,178947,1,0,0:0:0:0:
267,94,179378,1,0,0:0:0:0:
200,288,179810,5,0,0:0:0:0:
292,336,180026,1,0,0:0:0:0:
322,333,180134,1,0,0:0:0:0:
356,329,180242,2,0,P|398:315|426:300,1,65
456,208,180673,1,0,0:0:0:0:
476,108,180889,2,0,L|424:100,1,32.5
420,80,181105,2,0,L|380:76,2,32.5
320,104,181536,1,0,0:0:0:0:
216,108,181752,2,0,L|180:144,1,32.5
160,140,181968,2,0,P|140:180|136:228,1,65
148,304,182400,1,0,0:0:0:0:
148,304,182831,5,0,0:0:0:0:
256,192,182939,12,0,185853,2:0:0:0:
