osu file format v14

[General]
AudioFilename: audio.mp3
AudioLeadIn: 0
PreviewTime: 42132
Countdown: 0
SampleSet: Soft
StackLeniency: 0.4
Mode: 0
LetterboxInBreaks: 0
WidescreenStoryboard: 1

[Editor]
Bookmarks: 6104
DistanceSpacing: 1.5
BeatDivisor: 4
GridSize: 4
TimelineZoom: 1.7

[Metadata]
Title:Undercover Martyn
TitleUnicode:Undercover Martyn
Artist:Two Door Cinema Club
ArtistUnicode:Two Door Cinema Club
Creator:Krisom
Version:Another
Source:
Tags:TDCC Tourist History Indie Rock English Gens RandomJibberish RJ
BeatmapID:2769848
BeatmapSetID:1337086

[Difficulty]
HPDrainRate:5.9
CircleSize:4.1
OverallDifficulty:7
ApproachRate:8.5
SliderMultiplier:2.4
SliderTickRate:2

[Events]
//Background and Video events
0,0,"Xu Teng Pan (1).jpg",0,0
//Break Periods
2,18313,29448
2,69352,77484
//Storyboard Layer 0 (Background)
//Storyboard Layer 1 (Fail)
//Storyboard Layer 2 (Pass)
//Storyboard Layer 3 (Foreground)
//Storyboard Layer 4 (Overlay)
//Storyboard Sound Samples

[TimingPoints]
101,375.281461095822,4,2,1,80,1,0
17457,-151.515151515152,4,2,1,80,0,0
30029,-111.111111111111,4,2,1,80,0,0
36034,-105.263157894737,4,2,1,80,0,0
42132,-95.2380952380952,4,2,1,100,0,1
46542,-80,4,2,1,100,0,1
46917,-86.9565217391304,4,2,1,100,0,1
47292,-95.2380952380952,4,2,1,100,0,1
47667,-105.263157894737,4,2,1,100,0,1
48043,-95.2380952380952,4,2,1,100,0,1
58551,-80,4,2,1,100,0,1
58926,-86.9565217391304,4,2,1,100,0,1
59301,-95.2380952380952,4,2,1,100,0,1
59676,-105.263157894737,4,2,1,100,0,1
60052,-95.2380952380952,4,2,1,100,0,1
65493,-285.714285714286,4,2,1,100,0,1
66150,-100,4,2,1,90,0,0
66525,-100,4,2,1,80,0,0
66901,-100,4,2,1,70,0,0
67276,-100,4,2,1,60,0,0
67651,-100,4,2,1,50,0,0
68026,-100,4,2,1,40,0,0
68402,-100,4,2,1,30,0,0
68777,-100,4,2,1,20,0,0
77784,-100,4,2,1,80,0,0
84070,-95.2380952380952,4,2,1,80,0,0
90168,-90.9090909090909,4,2,1,100,0,1
94578,-76.9230769230769,4,2,1,100,0,1
94953,-83.3333333333333,4,2,1,100,0,1
95328,-90.9090909090909,4,2,1,100,0,1
95703,-100,4,2,1,100,0,1
96079,-90.9090909090909,4,2,1,100,0,1
100676,-90.9090909090909,4,2,1,100,0,0
102177,-90.9090909090909,4,2,1,100,0,1
106587,-76.9230769230769,4,2,1,100,0,1
106962,-66.6666666666667,4,2,1,100,0,1
107337,-90.9090909090909,4,2,1,100,0,1
107712,-100,4,2,1,100,0,1
108088,-90.9090909090909,4,2,1,100,0,1
113529,-181.818181818182,4,2,1,100,0,1
114092,-90.9090909090909,4,2,1,100,0,1
114186,-90.9090909090909,4,2,1,100,0,0
138204,-83.3333333333333,4,2,1,100,0,1
142614,-74.0740740740741,4,2,1,100,0,1
142989,-80,4,2,1,100,0,1
143364,-86.9565217391304,4,2,1,100,0,1
143739,-95.2380952380952,4,2,1,100,0,1
144115,-83.3333333333333,4,2,1,100,0,1
150213,-83.3333333333333,4,2,1,100,0,1
154623,-74.0740740740741,4,2,1,100,0,1
155092,-66.6666666666667,4,2,1,100,0,1
155279,-83.3333333333333,4,2,1,100,0,1
155748,-90.9090909090909,4,2,1,100,0,1
156124,-83.3333333333333,4,2,1,100,0,1
162034,-1000,4,2,1,100,0,0
162128,-1000,4,2,1,90,0,0
162410,-1000,4,2,1,80,0,0
162785,-1000,4,2,1,70,0,0
163160,-1000,4,2,1,60,0,0
163536,-1000,4,2,1,50,0,0
163723,-1000,4,2,1,5,0,0

[Colours]
Combo1 : 26,198,255
Combo2 : 255,79,224
SliderBorder : 63,63,63

[HitObjects]
256,348,5542,5,8,0:2:0:0:
256,348,5730,1,8,0:2:0:0:
256,36,6105,5,4,0:1:0:0:
364,88,6293,1,2,0:0:0:0:
428,188,6480,1,0,1:0:0:0:
364,296,6668,1,2,0:3:0:0:
256,348,6856,1,4,3:0:0:0:
172,260,7043,2,0,B|160:224|228:176|256:192|284:208|352:160|340:124,1,240,2|2,0:0|3:3,0:0:0:0:
256,36,7606,5,4,0:3:0:0:
148,88,7794,1,2,0:0:0:0:
84,188,7981,1,0,1:0:0:0:
148,296,8169,2,0,P|256:340|364:296,2,240,2|2|2,0:3|0:0|0:3,0:0:0:0:
84,188,9107,5,4,0:3:0:0:
148,88,9294,1,2,0:0:0:0:
256,36,9482,1,0,1:0:0:0:
364,88,9670,1,2,0:3:0:0:
428,188,9858,1,4,0:3:0:0:
364,296,10045,2,0,P|256:340|148:296,1,240,2|2,0:0|3:0,0:0:0:0:
84,188,10608,5,4,0:3:0:0:
148,88,10795,1,2,0:0:0:0:
256,36,10983,1,0,1:0:0:0:
340,124,11171,2,0,B|352:160|284:208|256:192|228:176|160:224|172:260,2,240,2|2|6,0:3|0:0|0:3,0:0:0:0:
256,36,12110,5,4,0:1:0:0:
164,112,12297,1,2,0:0:0:0:
256,192,12485,1,0,1:0:0:0:
348,272,12672,1,2,0:3:0:0:
256,348,12860,1,4,0:3:0:0:
148,292,13048,2,0,B|100:252|100:204|212:268|128:192|212:116|100:180|100:132|148:92,1,240,2|2,0:0|3:0,0:0:0:0:
256,36,13611,5,4,0:3:0:0:
348,112,13798,1,2,0:0:0:0:
256,192,13986,1,0,1:0:0:0:
164,272,14174,2,0,B|200:320|200:320|256:299|256:299|312:320|312:320|348:272,2,240,2|2|2,0:3|0:0|0:3,0:0:0:0:
256,192,15112,5,4,0:3:0:0:
348,112,15300,1,2,0:0:0:0:
256,36,15487,1,0,1:3:0:0:
164,112,15675,1,2,0:3:0:0:
256,192,15862,1,4,0:3:0:0:
348,272,16050,2,0,B|312:320|312:320|256:299|256:299|200:320|200:320|164:272,1,240,2|2,0:0|3:0,0:0:0:0:
256,192,16613,5,4,0:3:0:0:
164,112,16800,1,2,0:0:0:0:
256,36,16988,1,0,1:0:0:0:
364,92,17176,1,2,0:0:0:0:
364,92,17551,2,2,B|412:132|412:180|300:116|384:192|300:268|412:204|412:252|364:292,1,237.599999274902,2|0,0:3|3:0,0:1:0:0:
152,348,30123,5,8,3:0:0:0:
152,348,30311,2,0,B|176:336|176:336|336:360|336:360|360:348,1,215.999993408203,8|8,3:0|3:0,0:0:0:0:
368,328,30780,1,8,3:0:0:0:
380,308,30874,1,8,3:0:0:0:
316,208,31061,1,8,0:3:0:0:
196,208,31249,1,0,3:0:0:0:
156,96,31437,6,0,B|200:60|308:148|204:148|312:60|356:96,1,215.999993408203,8|8,0:3|3:0,0:0:0:0:
428,192,31999,1,0,3:0:0:0:
340,272,32187,1,8,3:3:0:0:
324,288,32281,1,8,3:3:0:0:
308,304,32375,2,0,P|256:316|204:304,1,107.999996704102,8|8,3:3|0:3,0:0:0:0:
176,188,32750,2,0,B|216:184|216:184|256:192|256:192|296:184|296:184|336:188,1,161.999995056153,0|0,3:0|0:0,0:0:0:0:
352,204,33125,6,0,P|336:152|352:100,1,107.999996704102,8|8,3:0|3:0,0:0:0:0:
161,102,33501,2,0,P|175:153|160:204,1,107.999996704102,0|8,3:0|3:0,0:0:0:0:
144,324,33876,1,8,3:0:0:0:
256,364,34063,1,8,0:3:0:0:
368,324,34251,1,0,3:0:0:0:
316,216,34439,6,0,B|328:159|256:136|184:112|196:56,2,215.999993408203,8|8|8,0:3|3:0|3:0,0:0:0:0:
196,216,35377,2,0,B|184:159|256:136|328:112|316:56,1,215.999993408203,8|0,3:0|3:0,0:0:0:0:
364,304,36128,5,8,3:0:0:0:
364,304,36315,2,0,B|304:264|256:304|208:344|148:304,1,227.999993911743,10|10,3:0|3:0,0:0:0:0:
128,288,36784,1,8,3:0:0:0:
108,276,36878,1,8,3:0:0:0:
192,180,37066,1,10,0:3:0:0:
316,180,37253,1,0,3:0:0:0:
364,64,37441,6,0,B|320:48|288:64|288:64|256:48|256:48|224:64|224:64|192:48|148:64,1,227.999993911743,10|10,0:3|3:3,0:0:0:0:
104,188,38004,1,0,3:0:0:0:
160,308,38192,1,10,3:0:0:0:
180,320,38285,1,8,3:0:0:0:
200,332,38379,2,0,B|256:340|256:340|312:332,1,113.999996955872,8|10,3:0|0:3,0:0:0:0:
336,204,38754,2,0,B|288:192|256:220|256:220|224:192|176:204,1,170.999995433807,0|0,3:0|0:0,0:0:0:0:
156,216,39130,6,0,B|152:160|152:160|168:104,1,113.999996955872,8|10,3:0|3:0,0:0:0:0:
344,104,39505,2,0,B|360:160|360:160|356:216,1,113.999996955872,0|10,3:0|3:0,0:0:0:0:
84,216,39880,2,0,B|80:160|80:160|96:104,1,113.999996955872,8|10,3:0|0:3,0:0:0:0:
416,104,40256,2,0,B|432:160|432:160|428:216,1,113.999996955872,0|10,3:0|0:3,0:0:0:0:
384,336,40631,5,8,3:0:0:0:
256,364,40819,1,10,3:0:0:0:
128,336,41006,1,0,3:0:0:0:
60,224,41194,1,10,3:0:0:0:
340,16,41569,5,2,1:0:0:0:
340,16,41757,1,2,1:0:0:0:
172,368,42132,5,4,0:1:0:0:
44,368,42320,1,2,0:0:0:0:
108,260,42507,1,8,1:0:0:0:
44,152,42695,1,2,0:3:0:0:
172,152,42883,2,0,P|256:115|340:152,1,188.999994232178,4|2,3:0|0:0,0:0:0:0:
356,172,43258,2,0,B|356:120|356:120|376:92|376:92|376:52,1,125.999996154785,8|2,1:0|0:3,0:0:0:0:
256,20,43633,5,4,0:3:0:0:
128,20,43821,1,2,0:0:0:0:
48,120,44008,1,8,1:0:0:0:
128,216,44196,1,2,0:3:0:0:
256,216,44384,2,2,B|308:252|344:224|344:208|380:180|432:216,1,188.999994232178,4|0,0:3|0:0,0:1:0:0:
448,200,44759,2,2,B|412:248|412:248|412:320,1,125.999996154785,8|2,1:0|0:3,0:1:0:0:
296,368,45134,5,4,0:3:0:0:
168,368,45322,1,2,0:0:0:0:
104,260,45510,1,8,1:0:0:0:
228,260,45697,1,2,0:3:0:0:
356,260,45885,2,0,P|328:180|241:131,1,188.999994232178,4|2,0:3|0:0,0:0:0:0:
216,132,46260,2,0,B|284:132|284:132|320:84,1,125.999996154785,8|2,1:0|0:3,0:0:0:0:
420,8,46635,6,2,B|407:36|407:36|433:116|433:116|420:148,1,150,4|2,0:3|0:0,0:1:0:0:
318,213,47011,2,2,B|330:189|330:189|306:109|306:109|318:85,1,138.000002632141,8|2,1:0|0:3,0:1:0:0:
194,179,47386,2,0,B|185:199|185:199|203:279|203:279|194:299,1,125.999996154785,6|2,1:3|1:1,0:0:0:0:
93,348,47761,2,0,B|97:328|97:328|89:256|89:256|93:236,1,113.999996955872,8|2,1:1|1:1,0:0:0:0:
256,360,48137,5,4,0:3:0:0:
380,360,48324,1,2,0:0:0:0:
444,252,48512,1,8,1:0:0:0:
320,252,48699,1,2,0:3:0:0:
192,252,48887,2,0,B|210:212|210:212|302:172|302:172|320:132,1,188.999994232178,4|2,3:0|0:0,0:0:0:0:
312,108,49262,2,0,P|256:84|200:108,1,125.999996154785,8|2,1:0|0:3,0:0:0:0:
104,192,49638,5,4,3:0:0:0:
36,296,49825,1,2,0:0:0:0:
144,361,50013,2,0,B|192:336|192:288|192:288|192:249,1,125.999996154785,8|2,1:0|0:3,0:0:0:0:
368,361,50388,2,0,B|320:336|320:288|320:288|320:249,1,125.999996154785,4|2,0:3|0:0,0:0:0:0:
256,364,50763,2,0,L|256:232,1,125.999996154785,8|2,1:0|0:3,0:0:0:0:
256,112,51139,5,4,3:0:0:0:
364,52,51326,1,2,0:0:0:0:
364,180,51514,1,8,1:0:0:0:
256,238,51702,1,2,0:3:0:0:
148,300,51889,1,4,3:0:0:0:
256,364,52077,1,2,0:0:0:0:
256,364,52452,5,2,0:0:0:0:
364,300,52640,1,4,3:0:0:0:
256,238,52827,1,2,0:0:0:0:
148,180,53015,1,8,1:0:0:0:
148,52,53203,2,0,B|196:52|196:52|240:52|256:96,1,125.999996154785,2|4,0:0|3:0,0:0:0:0:
364,160,53578,2,0,B|316:160|316:160|272:160|256:204,1,125.999996154785,2|8,0:0|1:0,0:0:0:0:
216,320,53953,1,4,3:0:0:0:
340,368,54141,5,4,0:1:0:0:
469,368,54329,1,2,0:0:0:0:
405,260,54516,1,8,1:0:0:0:
469,152,54704,1,2,0:3:0:0:
341,152,54892,2,0,P|257:115|173:152,1,188.999994232178,4|2,3:0|0:0,0:0:0:0:
157,172,55267,2,0,B|157:120|157:120|137:92|137:92|137:52,1,125.999996154785,8|2,1:0|0:3,0:0:0:0:
257,20,55642,5,4,0:3:0:0:
385,20,55830,1,2,0:0:0:0:
465,120,56017,1,8,1:0:0:0:
385,216,56205,1,2,0:3:0:0:
257,216,56393,2,2,B|205:252|169:224|169:208|133:180|81:216,1,188.999994232178,4|0,0:3|0:0,0:1:0:0:
65,200,56768,2,2,B|101:248|101:248|101:320,1,125.999996154785,8|2,1:0|0:3,0:1:0:0:
217,368,57143,5,4,0:3:0:0:
345,368,57331,1,2,0:0:0:0:
409,260,57519,1,8,1:0:0:0:
285,260,57706,1,2,0:3:0:0:
157,260,57894,2,0,P|185:180|272:131,1,188.999994232178,4|2,0:3|0:0,0:0:0:0:
297,132,58269,2,0,B|229:132|229:132|193:84,1,125.999996154785,8|2,1:0|0:3,0:0:0:0:
93,8,58644,6,2,B|106:36|106:36|80:116|80:116|93:148,1,150,4|2,0:3|0:0,0:1:0:0:
195,213,59020,2,2,B|183:189|183:189|207:109|207:109|195:85,1,138.000002632141,8|2,1:0|0:3,0:1:0:0:
319,179,59395,2,0,B|328:199|328:199|310:279|310:279|319:299,1,125.999996154785,6|2,1:3|1:1,0:0:0:0:
420,348,59770,2,0,B|416:328|416:328|424:256|424:256|420:236,1,113.999996955872,8|2,1:1|1:1,0:0:0:0:
257,360,60146,5,4,0:3:0:0:
133,360,60333,1,2,0:0:0:0:
69,252,60521,1,8,1:0:0:0:
193,252,60708,1,2,0:3:0:0:
321,252,60896,2,0,B|303:212|303:212|211:172|211:172|193:132,1,188.999994232178,4|2,3:0|0:0,0:0:0:0:
201,108,61271,2,0,P|257:84|313:108,1,125.999996154785,8|2,1:0|0:3,0:0:0:0:
409,192,61647,5,4,3:0:0:0:
477,296,61834,1,2,0:0:0:0:
369,361,62022,2,0,B|321:336|321:288|321:288|321:249,1,125.999996154785,8|2,1:0|0:3,0:0:0:0:
145,361,62397,2,0,B|193:336|193:288|193:288|193:249,1,125.999996154785,4|2,0:3|0:0,0:0:0:0:
257,364,62772,2,0,L|257:232,1,125.999996154785,8|2,1:0|0:0,0:0:0:0:
257,112,63148,5,4,3:0:0:0:
149,52,63335,1,2,0:0:0:0:
149,180,63523,1,8,1:0:0:0:
257,238,63711,1,2,0:3:0:0:
365,300,63898,1,4,3:0:0:0:
257,364,64086,1,2,0:0:0:0:
257,364,64461,5,2,0:0:0:0:
149,300,64649,1,4,3:0:0:0:
257,238,64836,1,2,0:0:0:0:
365,180,65024,1,8,1:0:0:0:
365,52,65212,2,0,B|317:52|317:52|273:52|257:96,1,125.999996154785,2|4,0:0|0:3,0:0:0:0:
149,160,65587,2,2,B|197:160|197:160|241:160|257:204,1,125.999996154785,2|4,0:0|0:3,0:1:0:0:
256,192,66244,12,2,69152,3:0:0:0:
224,324,78159,5,8,3:0:0:0:
104,364,78347,2,0,P|48:340|32:284,1,120,8|0,3:0|3:0,0:0:0:0:
12,164,78722,1,8,3:0:0:0:
32,168,78816,1,8,3:0:0:0:
52,172,78910,1,8,3:0:0:0:
176,196,79097,1,8,0:3:0:0:
136,76,79285,1,0,3:0:0:0:
256,116,79473,6,0,B|325:155|367:102|408:48|478:88,1,240,8|8,0:3|3:0,0:0:0:0:
436,208,80035,1,0,3:0:0:0:
492,320,80223,1,8,3:3:0:0:
472,328,80317,1,8,3:3:0:0:
456,336,80411,2,0,B|400:356|400:356|368:296,1,120,8|8,3:3|0:3,0:0:0:0:
324,188,80786,2,0,B|295:134|295:134|240:151|240:151|212:96,1,180,0|0,3:0|0:0,0:0:0:0:
204,76,81161,6,0,P|144:96|132:148,1,120,8|8,3:0|3:0,0:0:0:0:
308,308,81537,2,0,P|368:288|380:236,1,120,0|8,3:0|3:0,0:0:0:0:
256,192,81912,1,8,3:0:0:0:
308,308,82099,1,8,0:3:0:0:
396,220,82287,1,0,3:0:0:0:
352,100,82475,6,0,B|257:84|257:84|239:45|239:45|140:30,2,240,8|8|8,0:3|3:0|3:0,0:0:0:0:
428,40,83413,2,0,L|309:21,1,120,8|8,3:0|0:3,0:0:0:0:
71,91,83788,2,0,L|190:110,1,120,0|8,3:0|0:3,0:0:0:0:
320,120,84164,5,8,3:0:0:0:
368,240,84351,2,0,P|307:252|248:228,1,125.999996154785,10|0,3:0|3:0,0:0:0:0:
320,120,84726,1,10,3:0:0:0:
348,132,84820,1,8,3:0:0:0:
376,144,84914,1,8,3:0:0:0:
304,252,85102,1,10,0:3:0:0:
196,180,85289,1,0,3:0:0:0:
80,124,85477,6,0,B|180:100|180:100|204:108|204:108|328:80,1,251.999992309571,10|10,0:3|3:0,0:0:0:0:
452,48,86040,1,0,3:0:0:0:
416,172,86228,1,10,3:0:0:0:
400,192,86321,1,8,3:0:0:0:
384,216,86415,2,0,P|324:248|268:232,1,125.999996154785,8|10,3:0|0:3,0:0:0:0:
352,132,86791,2,0,B|312:176|266:154|263:147|217:125|178:169,1,188.999994232178,0|0,3:0|0:0,0:0:0:0:
172,200,87166,6,0,B|104:200|104:200|56:160,1,125.999996154785,8|10,3:0|3:0,0:0:0:0:
212,268,87541,2,0,P|164:328|176:372,1,125.999996154785,0|10,3:0|3:0,0:0:0:0:
300,268,87916,2,0,P|348:328|336:372,1,125.999996154785,8|10,3:0|0:3,0:0:0:0:
340,200,88292,2,0,B|408:200|408:200|456:160,1,125.999996154785,8|10,3:0|0:3,0:0:0:0:
376,60,88667,5,8,3:0:0:0:
256,12,88855,1,10,3:0:0:0:
136,60,89042,1,0,3:0:0:0:
256,108,89230,1,10,3:0:0:0:
256,108,89417,1,8,3:0:0:0:
92,192,89605,5,2,1:0:0:0:
420,192,89793,1,2,1:0:0:0:
256,364,89980,1,0,1:0:0:0:
256,352,90074,1,0,1:0:0:0:
256,340,90168,5,4,0:1:0:0:
184,228,90356,1,2,0:0:0:0:
52,228,90543,1,8,1:0:0:0:
120,340,90731,1,2,0:3:0:0:
184,228,90919,2,0,P|232:144|184:64,1,198.000006042481,4|2,3:0|0:0,0:0:0:0:
160,64,91294,2,0,B|204:64|204:64|240:48|240:48|292:48,1,132.00000402832,8|2,1:0|0:3,0:0:0:0:
420,48,91669,5,4,0:3:0:0:
352,164,91857,1,2,0:0:0:0:
220,164,92044,1,8,1:0:0:0:
288,48,92232,1,2,0:3:0:0:
352,164,92420,2,2,B|368:204|368:204|340:252|340:252|368:300|368:300|352:340,1,198.000006042481,4|0,0:3|0:0,0:1:0:0:
340,356,92795,2,2,B|296:332|256:380|212:356,1,132.00000402832,8|2,1:0|0:3,0:1:0:0:
116,264,93170,5,4,0:3:0:0:
180,148,93358,1,2,0:0:0:0:
312,152,93546,1,8,1:0:0:0:
312,152,93733,1,2,0:3:0:0:
244,264,93921,2,0,B|144:264|144:264|80:264|56:220,1,198.000006042481,4|2,0:3|0:0,0:0:0:0:
72,216,94296,2,0,B|52:172|52:172|28:172|28:172|8:116,1,132.00000402832,8|2,1:0|0:3,0:0:0:0:
88,36,94671,6,2,P|156:68|224:36,1,155.999992858887,4|2,0:3|0:0,0:1:0:0:
424,140,95047,2,2,P|360:168|296:140,1,143.999995605469,8|2,1:0|0:3,0:1:0:0:
88,244,95422,2,0,P|148:268|208:244,1,132.00000402832,6|2,1:3|1:1,0:0:0:0:
424,348,95797,2,0,P|368:368|312:348,1,120,8|2,1:1|1:1,0:0:0:0:
368,228,96173,5,4,0:3:0:0:
500,228,96360,1,2,0:0:0:0:
436,112,96548,1,8,1:0:0:0:
304,112,96735,1,2,0:3:0:0:
240,228,96923,2,0,B|144:228|144:228|124:252|124:252|52:252,1,198.000006042481,4|2,3:0|0:0,0:0:0:0:
32,251,97298,2,0,P|64:196|36:140,1,132.00000402832,8|2,1:0|0:3,0:0:0:0:
36,8,97674,5,4,3:0:0:0:
124,108,97861,1,2,0:0:0:0:
256,108,98049,2,0,L|256:244,1,132.00000402832,8|2,1:0|0:3,0:0:0:0:
370,45,98424,2,0,B|328:60|328:112|328:112|328:160,1,132.00000402832,4|2,0:3|0:0,0:0:0:0:
141,45,98800,2,0,B|184:60|184:112|184:112|184:160,1,132.00000402832,8|2,1:0|0:3,0:0:0:0:
184,292,99175,5,4,3:0:0:0:
96,192,99362,1,2,0:0:0:0:
184,92,99550,1,8,1:0:0:0:
328,92,99738,1,2,0:3:0:0:
416,192,99925,1,4,3:0:0:0:
328,292,100113,1,2,0:0:0:0:
328,292,100488,5,2,0:0:0:0:
256,260,100676,5,2,3:0:0:0:
296,192,100864,1,2,3:0:0:0:
256,124,101051,1,2,3:0:0:0:
216,192,101239,1,2,3:0:0:0:
256,260,101426,5,2,3:0:0:0:
364,192,101614,1,2,3:0:0:0:
256,124,101802,1,2,3:0:0:0:
149,192,101989,1,2,3:0:0:0:
256,340,102177,5,4,0:1:0:0:
328,228,102365,1,2,0:0:0:0:
460,228,102552,1,8,1:0:0:0:
392,340,102740,1,2,0:3:0:0:
328,228,102928,2,0,P|280:144|328:64,1,198.000006042481,4|2,3:0|0:0,0:0:0:0:
352,64,103303,2,0,B|308:64|308:64|272:48|272:48|220:48,1,132.00000402832,8|2,1:0|0:3,0:0:0:0:
92,48,103678,5,4,0:3:0:0:
160,164,103866,1,2,0:0:0:0:
292,164,104053,1,8,1:0:0:0:
224,48,104241,1,2,0:3:0:0:
160,164,104429,2,2,B|144:204|144:204|172:252|172:252|144:300|144:300|160:340,1,198.000006042481,4|0,0:3|0:0,0:1:0:0:
172,356,104804,2,2,B|216:332|256:380|300:356,1,132.00000402832,8|2,1:0|0:3,0:1:0:0:
396,264,105179,5,4,0:3:0:0:
332,148,105367,1,2,0:0:0:0:
200,152,105555,1,8,1:0:0:0:
200,152,105742,1,2,0:3:0:0:
268,264,105930,2,0,B|368:264|368:264|432:264|456:220,1,198.000006042481,4|2,0:3|0:0,0:0:0:0:
440,216,106305,2,2,B|460:172|460:172|484:172|484:172|504:116,1,132.00000402832,8|2,1:0|0:3,0:1:0:0:
424,36,106680,6,2,P|356:68|288:36,1,155.999992858887,4|2,3:0|0:0,0:1:0:0:
72,140,107056,2,2,P|152:180|228:140,1,180.000006866455,8|2,1:0|0:0,0:1:0:0:
424,244,107431,2,0,P|364:268|304:244,1,132.00000402832,6|2,1:3|1:1,0:0:0:0:
88,348,107806,2,0,P|144:368|200:348,1,120,8|2,1:1|1:1,0:0:0:0:
144,228,108182,5,4,0:3:0:0:
12,228,108369,1,2,0:0:0:0:
76,112,108557,1,8,1:0:0:0:
208,112,108744,1,2,0:3:0:0:
272,228,108932,2,0,B|368:228|368:228|388:252|388:252|460:252,1,198.000006042481,4|2,3:0|0:0,0:0:0:0:
480,251,109307,2,0,P|448:196|476:140,1,132.00000402832,8|2,1:0|0:3,0:0:0:0:
476,8,109683,5,4,3:0:0:0:
388,108,109870,1,2,0:0:0:0:
256,108,110058,2,0,L|256:244,1,132.00000402832,8|2,1:0|0:3,0:0:0:0:
142,45,110433,2,0,B|184:60|184:112|184:112|184:160,1,132.00000402832,4|2,0:3|0:0,0:0:0:0:
371,45,110809,2,0,B|328:60|328:112|328:112|328:160,1,132.00000402832,8|2,1:0|0:3,0:0:0:0:
328,292,111184,5,4,3:0:0:0:
416,192,111371,1,2,0:0:0:0:
328,92,111559,1,8,1:0:0:0:
184,92,111747,1,2,0:3:0:0:
96,192,111934,1,4,3:0:0:0:
184,292,112122,1,2,0:0:0:0:
184,292,112497,5,2,0:0:0:0:
96,192,112685,1,4,3:0:0:0:
184,92,112873,1,2,0:0:0:0:
328,92,113060,1,8,1:0:0:0:
416,192,113248,2,0,L|284:216,1,132.00000402832,2|4,0:0|0:3,0:0:0:0:
416,280,113623,2,2,L|272:308,1,132.00000402832,2|4,0:0|0:3,0:1:0:0:
248,312,114092,1,0,0:0:0:0:
208,320,114186,6,2,L|136:328,4,66.0000020141602,6|2|2|2|2,0:3|0:3|0:3|0:3|1:2,0:0:0:0:
224,244,114749,1,2,0:3:0:0:
184,248,114843,1,2,0:3:0:0:
144,252,114937,2,0,L|72:260,4,66.0000020141602,2|2|2|2|2,0:3|0:3|0:3|0:3|1:2,0:0:0:0:
164,176,115500,1,2,0:3:0:0:
124,180,115593,1,2,0:3:0:0:
84,184,115687,2,0,L|12:192,4,66.0000020141602,2|2|2|2|2,0:3|0:3|0:3|0:3|1:2,0:0:0:0:
96,104,116250,2,0,L|168:96,3,66.0000020141602,2|2|2|2,0:3|0:3|0:3|0:3,0:3:0:0:
200,92,116625,1,2,1:1:0:0:
464,72,117001,5,2,1:1:0:0:
468,112,117095,1,2,1:3:0:0:
472,152,117189,2,0,L|476:220,4,66.0000020141602,6|2|2|2|2,0:3|0:3|0:3|0:3|1:2,0:0:0:0:
396,140,117751,1,2,0:3:0:0:
400,180,117845,1,2,0:3:0:0:
404,220,117939,2,0,L|408:288,4,66.0000020141602,2|2|2|2|2,0:3|0:3|0:3|0:3|1:2,0:0:0:0:
324,220,118502,1,2,0:3:0:0:
328,260,118596,1,2,0:3:0:0:
332,300,118690,2,0,L|336:368,4,66.0000020141602,2|2|2|2|2,0:3|0:3|0:3|0:3|1:2,0:0:0:0:
256,320,119252,2,0,L|252:252,3,66.0000020141602,2|2|2|2,0:3|0:3|0:3|0:3,0:0:0:0:
252,216,119628,1,2,1:1:0:0:
244,4,120003,5,2,1:1:0:0:
224,20,120097,1,2,1:3:0:0:
204,36,120191,1,6,0:3:0:0:
184,52,120284,1,2,0:3:0:0:
164,68,120378,1,2,0:3:0:0:
144,84,120472,1,2,0:3:0:0:
124,100,120566,1,10,1:2:0:0:
64,152,120753,2,0,L|8:196,6,66.0000020141602,2|2|2|2|2|2|10,0:3|0:3|0:3|0:3|0:3|0:3|1:2,0:0:0:0:
124,100,121504,5,2,0:3:0:0:
144,116,121598,1,2,0:3:0:0:
164,132,121692,1,2,0:3:0:0:
184,148,121785,1,2,0:3:0:0:
204,164,121879,1,2,0:3:0:0:
224,180,121973,1,2,0:3:0:0:
244,196,122067,1,10,1:2:0:0:
308,244,122255,2,0,L|364:288,3,66.0000020141602,2|2|2|2,0:3|0:3|0:3|0:3,0:3:0:0:
392,308,122630,1,10,1:2:0:0:
442,91,123005,6,0,L|364:108,1,66.0000020141602,2|2,1:3|1:3,0:0:0:0:
340,112,123193,1,6,0:3:0:0:
301,121,123287,1,2,0:3:0:0:
262,130,123380,1,2,0:3:0:0:
223,139,123474,1,2,0:3:0:0:
184,148,123568,1,10,1:2:0:0:
72,152,123756,6,0,L|149:169,1,66.0000020141602,2|2,0:3|0:3,0:0:0:0:
174,173,123944,1,2,0:3:0:0:
213,182,124038,1,2,0:3:0:0:
252,191,124131,1,2,0:3:0:0:
291,200,124225,1,2,0:3:0:0:
330,209,124319,1,10,1:2:0:0:
440,216,124506,6,0,L|362:233,1,66.0000020141602,2|2,0:3|0:3,0:0:0:0:
338,237,124694,1,2,0:3:0:0:
299,246,124788,1,2,0:3:0:0:
260,255,124881,1,2,0:3:0:0:
221,264,124975,1,2,0:3:0:0:
182,273,125069,1,10,1:2:0:0:
68,296,125257,6,0,L|145:313,1,66.0000020141602,2|2,0:3|0:3,0:0:0:0:
170,317,125445,1,2,0:3:0:0:
209,326,125539,1,2,0:3:0:0:
248,335,125632,1,10,1:0:0:0:
248,335,126007,5,4,1:3:0:0:
288,324,126101,1,4,1:3:0:0:
328,312,126195,5,4,1:2:0:0:
288,324,126570,1,0,1:0:0:0:
248,335,126946,1,0,1:0:0:0:
248,335,127227,5,2,1:0:0:0:
288,324,127321,1,2,1:0:0:0:
440,288,127696,5,0,1:0:0:0:
412,216,128071,1,0,1:0:0:0:
360,276,128447,1,0,1:0:0:0:
440,288,128634,5,2,1:0:0:0:
412,216,128822,1,2,1:0:0:0:
360,276,129010,1,2,1:0:0:0:
256,288,129197,5,0,1:0:0:0:
184,192,129573,1,0,1:0:0:0:
184,312,129948,1,0,1:0:0:0:
256,288,130229,5,2,1:0:0:0:
184,312,130323,1,2,1:0:0:0:
440,252,130698,5,0,1:0:0:0:
294,194,131074,1,0,1:0:0:0:
419,99,131449,1,0,1:0:0:0:
440,252,131637,5,2,1:0:0:0:
294,194,131824,1,2,1:0:0:0:
419,99,132012,1,2,1:0:0:0:
440,252,132200,5,0,1:0:0:0:
236,300,132575,1,0,1:0:0:0:
404,176,132950,1,0,1:0:0:0:
404,176,133232,5,2,1:0:0:0:
440,252,133325,1,2,1:0:0:0:
352,60,133701,5,0,1:0:0:0:
148,112,134076,1,0,1:0:0:0:
132,324,134451,1,0,1:0:0:0:
132,324,134639,5,2,1:0:0:0:
148,112,134827,1,2,1:0:0:0:
352,60,135014,1,2,1:0:0:0:
456,40,135202,5,0,1:0:0:0:
248,84,135577,1,0,1:0:0:0:
448,140,135952,1,0,1:0:0:0:
456,40,136234,5,2,1:0:0:0:
448,140,136328,1,2,1:0:0:0:
256,68,136703,5,0,1:0:0:0:
48,32,137078,1,0,1:0:0:0:
92,240,137454,1,0,1:0:0:0:
256,68,137641,5,8,1:0:0:0:
48,32,137829,1,8,1:0:0:0:
48,32,138204,5,4,0:1:0:0:
48,172,138392,1,2,0:0:0:0:
160,256,138579,1,0,1:0:0:0:
276,172,138767,1,2,0:0:0:0:
276,32,138955,2,0,P|340:4|404:32,1,143.999995605469,4|2,0:3|0:0,0:0:0:0:
404,68,139236,1,4,0:3:0:0:
404,104,139330,2,0,P|340:132|276:104,1,143.999995605469,0|2,1:0|0:0,0:0:0:0:
160,20,139705,5,4,0:3:0:0:
160,160,139893,1,2,0:0:0:0:
232,280,140080,1,0,1:0:0:0:
372,280,140268,1,2,0:0:0:0:
296,160,140456,1,4,0:3:0:0:
184,356,140643,5,2,1:3:0:0:
416,356,140831,1,0,1:0:0:0:
296,160,141019,1,2,1:3:0:0:
296,300,141206,5,4,0:3:0:0:
428,244,141394,1,2,0:0:0:0:
428,104,141582,1,0,1:0:0:0:
296,52,141769,1,2,0:0:0:0:
164,100,141957,2,0,B|164:144|164:144|128:180|128:180|128:232,1,143.999995605469,4|2,0:3|0:0,0:0:0:0:
128,264,142238,1,4,0:3:0:0:
128,296,142332,2,0,B|196:320|196:320|264:296,1,143.999995605469,0|2,1:0|0:0,0:0:0:0:
484,136,142707,6,2,L|376:16,1,162.000000617981,4|2,0:3|0:0,0:1:0:0:
128,176,143083,2,2,L|228:287,1,150,0|2,1:0|0:0,0:0:0:0:
372,193,143458,2,0,L|279:90,1,138.000002632141,4|2,0:3|1:3,0:0:0:0:
34,261,143833,2,0,L|118:354,1,125.999996154785,0|2,1:3|1:3,0:0:0:0:
256,384,144209,5,4,0:0:0:0:
356,284,144396,1,2,0:0:0:0:
496,284,144584,1,0,1:0:0:0:
424,160,144772,1,2,0:0:0:0:
496,40,144959,2,0,B|432:40|432:40|404:32|404:32|352:32,1,143.999995605469,4|2,0:3|0:0,0:0:0:0:
324,32,145241,1,4,0:3:0:0:
296,32,145334,2,0,B|320:100|320:100|296:168,1,143.999995605469,0|2,1:0|0:0,0:0:0:0:
152,168,145710,5,4,0:3:0:0:
12,168,145897,1,2,0:0:0:0:
84,288,146085,2,0,B|120:316|152:288|184:260|220:288,1,143.999995605469,0|2,1:0|0:0,0:0:0:0:
360,288,146460,1,4,0:3:0:0:
360,288,146648,5,2,1:3:0:0:
256,80,146836,1,0,1:0:0:0:
152,288,147023,1,2,1:3:0:0:
48,192,147211,6,0,B|104:192|104:192|152:192|180:152,1,143.999995605469,4|2,0:3|0:0,0:0:0:0:
256,0,147586,2,0,B|256:40|256:40|256:88|296:116,1,143.999995605469,0|2,1:0|0:0,0:0:0:0:
464,192,147961,2,0,B|408:192|408:192|360:192|332:232,1,143.999995605469,4|2,0:3|0:0,0:0:0:0:
320,256,148243,1,4,0:3:0:0:
304,280,148337,2,0,P|256:325|208:280,1,143.999995605469,0|2,1:0|0:0,0:0:0:0:
208,16,148712,6,0,B|208:72|208:72|208:120|168:148,1,143.999995605469,4|2,0:3|0:0,0:0:0:0:
304,16,149087,2,0,B|304:72|304:72|304:120|344:148,1,143.999995605469,0|2,1:0|0:0,0:0:0:0:
256,260,149463,1,4,3:0:0:0:
256,100,149650,5,2,1:3:0:0:
160,256,149838,1,0,1:0:0:0:
352,256,150025,1,2,1:3:0:0:
464,32,150213,5,4,0:1:0:0:
464,172,150401,1,2,0:0:0:0:
352,256,150588,1,0,1:0:0:0:
236,172,150776,1,2,0:0:0:0:
236,32,150964,2,0,P|172:4|108:32,1,143.999995605469,4|2,0:3|0:0,0:0:0:0:
108,68,151245,1,6,0:3:0:0:
108,104,151339,2,0,P|172:132|236:104,1,143.999995605469,0|2,1:0|0:0,0:0:0:0:
352,20,151714,5,4,0:3:0:0:
352,160,151902,1,2,0:0:0:0:
280,280,152089,1,0,1:0:0:0:
140,280,152277,1,2,0:0:0:0:
216,160,152465,1,4,0:3:0:0:
328,356,152652,5,2,1:3:0:0:
96,356,152840,1,0,1:0:0:0:
216,160,153028,1,2,1:3:0:0:
216,300,153215,5,4,0:3:0:0:
84,244,153403,1,2,0:0:0:0:
84,104,153591,1,0,1:0:0:0:
216,52,153778,1,2,0:0:0:0:
348,100,153966,2,0,B|348:144|348:144|384:180|384:180|384:232,1,143.999995605469,4|2,0:3|0:0,0:0:0:0:
384,264,154247,1,2,0:3:0:0:
384,296,154341,2,0,B|316:320|316:320|248:296,1,143.999995605469,0|2,1:0|0:0,0:0:0:0:
28,136,154716,6,2,L|136:16,1,162.000000617981,4|2,0:3|0:0,0:0:0:0:
140,193,155092,2,2,L|256:56,1,180.000006866455,2|2,1:0|0:0,0:1:0:0:
384,176,155467,2,0,L|284:284,1,143.999995605469,4|2,3:0|1:3,0:0:0:0:
478,261,155842,2,0,L|388:360,1,132.00000402832,0|2,1:0|1:3,0:0:0:0:
256,384,156218,5,4,0:0:0:0:
156,284,156405,1,2,0:0:0:0:
16,284,156593,1,0,1:0:0:0:
88,160,156781,1,2,0:0:0:0:
16,40,156968,2,0,B|80:40|80:40|108:32|108:32|160:32,1,143.999995605469,4|2,0:3|0:0,0:0:0:0:
188,32,157250,1,6,0:3:0:0:
216,32,157343,2,0,B|192:100|192:100|216:168,1,143.999995605469,0|2,1:0|0:0,0:0:0:0:
360,168,157719,5,4,0:3:0:0:
500,168,157906,1,2,0:0:0:0:
428,288,158094,2,0,B|392:316|360:288|328:260|292:288,1,143.999995605469,0|2,1:0|0:0,0:0:0:0:
152,288,158469,1,4,0:3:0:0:
152,288,158657,5,2,1:3:0:0:
256,80,158845,1,0,1:0:0:0:
360,288,159032,1,2,1:3:0:0:
464,192,159220,6,0,B|408:192|408:192|360:192|332:152,1,143.999995605469,4|2,0:3|0:0,0:0:0:0:
256,0,159595,2,0,B|256:40|256:40|256:88|216:116,1,143.999995605469,0|2,1:0|0:0,0:0:0:0:
48,192,159970,2,0,B|104:192|104:192|152:192|180:232,1,143.999995605469,4|2,0:3|0:0,0:0:0:0:
192,256,160252,1,6,0:3:0:0:
208,280,160346,2,0,P|256:325|304:280,1,143.999995605469,0|2,1:0|0:0,0:0:0:0:
304,16,160721,6,0,B|304:72|304:72|304:120|344:148,1,143.999995605469,4|2,0:3|0:0,0:0:0:0:
208,16,161096,2,0,B|208:72|208:72|208:120|168:148,1,143.999995605469,0|2,1:3|0:0,0:0:0:0:
256,260,161472,1,4,3:0:0:0:
376,80,161659,5,2,1:3:0:0:
256,260,161847,1,0,1:0:0:0:
136,80,162034,2,0,P|172:52|176:96,1,108,2|0,1:3|3:0,0:0:0:0:
