osu file format v14

[General]
AudioFilename: audio.mp3
AudioLeadIn: 0
PreviewTime: 42132
Countdown: 0
SampleSet: Soft
StackLeniency: 0.3
Mode: 0
LetterboxInBreaks: 0
WidescreenStoryboard: 1

[Editor]
DistanceSpacing: 0.95
BeatDivisor: 4
GridSize: 4
TimelineZoom: 1.7

[Metadata]
Title:Undercover Martyn
TitleUnicode:Undercover Martyn
Artist:Two Door Cinema Club
ArtistUnicode:Two Door Cinema Club
Creator:Krisom
Version:Advanced
Source:
Tags:TDCC Tourist History Indie Rock English Gens RandomJibberish RJ
BeatmapID:2769847
BeatmapSetID:1337086

[Difficulty]
HPDrainRate:5.5
CircleSize:3.9
OverallDifficulty:5.5
ApproachRate:7.2
SliderMultiplier:1.7
SliderTickRate:2

[Events]
//Background and Video events
0,0,"Xu Teng Pan (1).jpg",0,0
//Break Periods
2,18313,29253
2,69352,77289
2,114385,119321
//Storyboard Layer 0 (Background)
//Storyboard Layer 1 (Fail)
//Storyboard Layer 2 (Pass)
//Storyboard Layer 3 (Foreground)
//Storyboard Layer 4 (Overlay)
//Storyboard Sound Samples

[TimingPoints]
101,375.281461095822,4,2,1,80,1,0
17457,-142.857142857143,4,2,1,80,0,0
30029,-100,4,2,1,80,0,0
42132,-100,4,2,1,100,0,1
65493,-133.333333333333,4,2,1,100,0,1
66150,-100,4,2,1,90,0,0
66525,-100,4,2,1,80,0,0
66901,-100,4,2,1,70,0,0
67276,-100,4,2,1,60,0,0
67651,-100,4,2,1,50,0,0
68026,-100,4,2,1,40,0,0
68402,-100,4,2,1,30,0,0
68777,-100,4,2,1,20,0,0
77784,-100,4,2,1,80,0,0
90168,-100,4,2,1,100,0,1
100676,-100,4,2,1,100,0,0
102177,-100,4,2,1,100,0,1
113436,-133.333333333333,4,2,1,100,0,1
114186,-100,4,2,1,100,0,0
138204,-100,4,2,1,100,0,1
161847,-200,4,2,1,100,0,0
162034,-1000,4,2,1,100,0,0
162128,-1000,4,2,1,90,0,0
162410,-1000,4,2,1,80,0,0
162785,-1000,4,2,1,70,0,0
163160,-1000,4,2,1,60,0,0
163536,-1000,4,2,1,50,0,0
163723,-1000,4,2,1,5,0,0

[Colours]
Combo1 : 26,198,255
Combo2 : 255,79,224
SliderBorder : 63,63,63

[HitObjects]
56,188,5542,5,8,0:2:0:0:
56,188,5730,1,8,0:2:0:0:
216,248,6105,6,0,P|256:260|296:248,1,85,4|2,0:1|0:0,0:0:0:0:
348,192,6480,1,0,1:0:0:0:
348,116,6668,1,2,0:3:0:0:
348,40,6856,2,0,P|388:28|428:40,1,85,4|2,3:0|0:0,0:0:0:0:
428,192,7418,5,2,3:3:0:0:
388,256,7606,1,4,0:3:0:0:
308,256,7794,1,2,0:0:0:0:
348,192,7981,1,0,1:0:0:0:
308,124,8169,2,0,B|300:88|300:88|256:68|256:68|212:88|212:88|204:124,2,170,2|2|2,0:3|0:0|0:3,0:0:0:0:
204,256,9295,5,2,0:0:0:0:
124,256,9483,1,0,1:0:0:0:
84,192,9671,1,2,0:3:0:0:
16,156,9858,2,0,P|4:196|16:236,1,85,4|2,0:3|0:0,0:0:0:0:
108,356,10421,5,2,3:0:0:0:
164,304,10608,1,4,0:3:0:0:
164,228,10796,1,2,0:0:0:0:
164,152,10984,1,0,1:0:0:0:
164,76,11171,1,2,0:3:0:0:
256,192,11547,1,2,0:0:0:0:
348,308,11922,1,6,0:3:0:0:
296,256,12110,6,0,P|256:268|216:256,1,85,4|2,0:1|0:0,0:0:0:0:
164,200,12485,1,0,1:0:0:0:
164,124,12673,1,2,0:3:0:0:
164,48,12861,2,0,P|124:36|84:48,1,85,4|2,0:3|0:0,0:0:0:0:
84,200,13423,5,2,3:0:0:0:
124,264,13611,1,4,0:3:0:0:
204,264,13799,1,2,0:0:0:0:
164,200,13986,1,0,1:0:0:0:
204,132,14174,2,0,B|212:96|212:96|256:76|256:76|300:96|300:96|308:132,2,170,2|2|2,0:3|0:0|0:3,0:0:0:0:
308,264,15300,5,2,0:0:0:0:
388,264,15488,1,0,1:3:0:0:
428,200,15676,1,2,0:3:0:0:
496,164,15863,2,0,P|508:204|496:244,1,85,4|2,0:3|0:0,0:0:0:0:
404,368,16426,5,2,3:0:0:0:
348,316,16613,1,4,0:3:0:0:
348,240,16801,1,2,0:0:0:0:
348,164,16989,1,0,1:0:0:0:
348,88,17176,1,2,0:3:0:0:
160,84,17551,2,2,B|192:108|192:108|180:136|180:136|208:152|208:152|208:184|208:184|236:192|248:228,1,178.499994552612,0|0,3:0|3:0,0:1:0:0:
60,352,30123,6,0,L|60:268,1,85,8|8,3:0|3:0,0:0:0:0:
60,192,30498,1,0,3:0:0:0:
60,116,30686,2,0,L|60:72,2,42.5,8|8|8,3:0|3:0|3:0,0:0:0:0:
60,192,31061,1,8,0:3:0:0:
124,148,31249,1,0,3:0:0:0:
180,96,31437,2,0,B|212:60|256:84|256:108|300:132|332:96,1,170,8|8,0:3|3:0,0:0:0:0:
452,192,32187,2,0,L|452:244,2,42.5,8|8|8,3:3|3:3|3:3,0:0:0:0:
332,96,32750,2,0,B|300:60|256:84|256:108|212:132|180:96,1,170,0|8,3:0|3:0,0:0:0:0:
136,24,33313,6,0,P|96:96|136:168,1,170,8|8,3:0|3:0,0:0:0:0:
184,224,33876,1,8,3:0:0:0:
256,256,34063,1,8,0:3:0:0:
328,224,34251,1,0,3:0:0:0:
377,166,34439,2,0,P|415:95|376:24,2,170,8|8|8,0:3|3:0|3:0,0:0:0:0:
328,224,35377,2,0,B|296:216|256:261|256:261|216:216|184:224,1,170,8|0,3:0|3:0,0:0:0:0:
40,276,36128,6,0,L|40:192,1,85,8|10,3:0|3:0,0:0:0:0:
40,116,36503,1,0,3:0:0:0:
108,156,36690,2,0,L|156:184,2,42.5,10|8|8,3:0|3:0|3:0,0:0:0:0:
40,116,37066,1,10,0:3:0:0:
108,80,37253,1,0,3:0:0:0:
176,44,37441,2,0,B|216:32|216:32|256:48|256:48|296:32|296:32|336:44,1,170,10|10,0:3|3:3,0:0:0:0:
404,156,38192,2,0,L|356:184,2,42.5,10|8|8,3:0|3:0|3:0,0:0:0:0:
336,44,38754,2,0,B|296:32|296:32|256:48|256:48|216:32|216:32|176:44,1,170,0|8,3:0|3:0,0:0:0:0:
112,88,39317,6,0,B|112:216|112:216|140:252,1,170,10|10,3:0|3:0,0:0:0:0:
196,300,39880,1,8,3:0:0:0:
256,252,40068,2,0,B|256:124|256:124|281:90,1,170,10|10,0:3|0:3,0:0:0:0:
340,40,40631,1,8,3:0:0:0:
400,88,40819,2,0,B|400:216|400:216|372:252,1,170,10|10,3:0|3:0,0:0:0:0:
256,344,41569,5,2,1:0:0:0:
256,344,41757,1,2,1:0:0:0:
104,344,42132,5,4,0:1:0:0:
64,280,42320,1,2,0:0:0:0:
104,216,42507,1,8,1:0:0:0:
144,280,42695,1,2,0:3:0:0:
184,344,42883,2,0,P|256:382|328:344,1,170,4|8,3:0|1:0,0:0:0:0:
368,280,43446,1,2,0:3:0:0:
408,216,43633,5,4,0:3:0:0:
476,180,43821,1,2,0:0:0:0:
408,144,44008,1,8,1:0:0:0:
340,180,44196,1,2,0:3:0:0:
340,104,44384,2,2,B|256:116|256:116|172:104,2,170,4|8|4,0:3|1:0|0:3,0:1:0:0:
332,28,45322,5,2,0:0:0:0:
256,44,45510,1,8,1:0:0:0:
180,28,45697,1,2,0:3:0:0:
171,103,45885,2,0,B|157:139|157:139|186:227|186:227|171:263,1,170,4|8,0:3|1:0,0:0:0:0:
116,316,46448,1,2,0:3:0:0:
172,368,46635,5,4,0:3:0:0:
340,368,47011,1,8,1:0:0:0:
356,216,47386,2,0,L|284:168,1,85,6|2,1:3|1:1,0:0:0:0:
226,215,47761,2,0,L|156:168,1,85,8|2,1:1|1:1,0:0:0:0:
92,124,48137,5,4,0:3:0:0:
152,76,48324,1,2,0:0:0:0:
216,120,48512,1,8,1:0:0:0:
296,120,48699,1,2,0:3:0:0:
360,76,48887,2,0,B|376:100|376:132|376:156|352:180|316:196|316:196|295:205,1,170,4|8,3:0|1:0,0:0:0:0:
224,232,49450,5,2,0:3:0:0:
256,300,49638,1,4,3:0:0:0:
296,364,49825,1,2,0:0:0:0:
340,300,50013,2,0,B|260:300|260:300|256:296|256:296|252:300|252:300|172:300,2,170,8|4|8,1:0|0:3|1:0,0:0:0:0:
436,180,51139,5,4,3:0:0:0:
416,104,51326,2,0,L|328:120,2,85,2|8|2,0:0|1:1|0:3,0:0:0:0:
400,32,51889,2,0,L|312:48,1,85,4|2,0:3|0:0,0:0:0:0:
164,64,52452,5,2,0:0:0:0:
180,140,52640,2,0,L|96:155,2,85,4|2|8,3:0|0:0|1:0,0:0:0:0:
256,132,53203,1,2,0:0:0:0:
188,268,53578,1,2,0:0:0:0:
328,344,53953,1,4,3:0:0:0:
408,344,54141,5,4,0:1:0:0:
448,280,54329,1,2,0:0:0:0:
408,216,54516,1,8,1:0:0:0:
368,280,54704,1,2,0:3:0:0:
328,344,54892,2,0,P|256:382|184:344,1,170,4|8,3:0|1:0,0:0:0:0:
144,280,55455,1,2,0:3:0:0:
104,216,55642,5,4,0:3:0:0:
36,180,55830,1,2,0:0:0:0:
104,144,56017,1,8,1:0:0:0:
172,180,56205,1,2,0:3:0:0:
172,104,56393,2,2,B|256:116|256:116|340:104,2,170,4|8|4,0:3|1:0|0:3,0:1:0:0:
180,28,57331,5,2,0:0:0:0:
256,44,57519,1,8,1:0:0:0:
332,28,57706,1,2,0:3:0:0:
341,103,57894,2,0,B|355:139|355:139|326:227|326:227|341:263,1,170,4|8,0:3|1:0,0:0:0:0:
396,316,58457,1,2,0:3:0:0:
340,368,58644,5,4,0:3:0:0:
172,368,59020,1,8,1:0:0:0:
156,216,59395,2,0,L|228:168,1,85,6|2,1:3|1:1,0:0:0:0:
286,215,59770,2,0,L|356:168,1,85,8|2,1:1|1:1,0:0:0:0:
420,124,60146,5,4,0:3:0:0:
360,76,60333,1,2,0:0:0:0:
296,120,60521,1,8,1:0:0:0:
216,120,60708,1,2,0:3:0:0:
152,76,60896,2,0,B|136:100|136:132|136:156|160:180|196:196|196:196|217:205,1,170,4|8,3:0|1:0,0:0:0:0:
288,232,61459,5,2,0:3:0:0:
256,300,61647,1,4,3:0:0:0:
216,364,61834,1,2,0:0:0:0:
172,300,62022,2,0,B|252:300|252:300|256:296|256:296|260:300|260:300|340:300,2,170,8|4|8,1:0|0:3|1:0,0:0:0:0:
76,180,63148,5,4,3:0:0:0:
96,104,63335,2,0,L|184:120,2,85,2|8|2,0:0|1:1|0:3,0:0:0:0:
112,32,63898,2,0,L|200:48,1,85,4|2,0:3|0:0,0:0:0:0:
348,64,64461,5,2,0:0:0:0:
332,140,64649,2,0,L|415:155,2,85,4|2|8,3:0|0:0|1:0,0:0:0:0:
256,132,65212,1,2,0:0:0:0:
256,132,65587,2,2,B|224:124|208:104|208:104|184:128|184:128|168:108|168:108|148:120|148:120|136:108|136:108|116:120|96:112,1,191.250007295609,2|4,0:0|0:3,0:1:0:0:
256,192,66244,12,2,69152,3:0:0:0:
460,348,78159,6,0,L|372:348,1,85,8|8,3:0|3:0,0:0:0:0:
296,348,78534,1,0,3:0:0:0:
216,348,78722,2,0,L|176:368,2,42.5,8|8|8,3:0|3:0|3:0,0:0:0:0:
256,280,79097,1,8,0:3:0:0:
296,208,79285,1,0,3:0:0:0:
336,136,79473,2,0,P|256:112|176:136,1,170,8|8,0:3|3:0,0:0:0:0:
68,256,80223,2,0,L|32:300,2,42.5,8|8|8,3:3|3:3|3:3,0:0:0:0:
176,136,80786,2,0,P|256:112|336:136,1,170,0|8,3:0|3:0,0:0:0:0:
336,216,81349,6,0,B|336:164|336:164|336:104|396:69,1,170,8|8,3:0|3:0,0:0:0:0:
336,16,81912,1,8,3:0:0:0:
256,4,82099,1,8,0:3:0:0:
176,16,82287,1,0,3:0:0:0:
115,69,82475,2,0,B|176:104|176:164|176:164|176:216,2,170,8|8|8,0:3|3:0|3:0,0:0:0:0:
176,16,83413,2,0,B|216:-4|284:56|228:56|296:-4|336:16,1,170,8|0,3:0|3:0,0:0:0:0:
452,128,84164,6,0,B|452:188|452:188|432:220,1,85,8|10,3:0|3:0,0:0:0:0:
384,268,84539,1,0,3:0:0:0:
304,268,84726,2,0,L|284:312,2,42.5,10|8|8,3:0|3:0|3:0,0:0:0:0:
304,186,85102,1,10,0:3:0:0:
340,112,85289,1,0,3:0:0:0:
340,32,85477,2,0,B|256:20|256:20|172:32,1,170,10|10,0:3|3:0,0:0:0:0:
20,84,86228,2,0,L|0:44,2,42.5,10|8|8,3:0|3:0|3:0,0:0:0:0:
172,32,86791,2,0,B|256:20|256:20|340:32,1,170,0|8,3:0|3:0,0:0:0:0:
416,56,87353,6,0,B|416:136|416:136|416:184|376:216,1,170,10|10,3:0|3:0,0:0:0:0:
316,260,87916,1,8,3:0:0:0:
256,212,88104,2,0,B|256:132|256:132|256:84|216:52,1,170,10|10,0:3|0:3,0:0:0:0:
156,8,88667,1,8,3:0:0:0:
96,56,88855,2,0,B|96:136|96:136|96:184|136:216,1,170,10|10,3:0|3:0,0:0:0:0:
196,260,89418,1,8,3:0:0:0:
196,260,90168,5,4,0:1:0:0:
133,214,90356,1,2,0:0:0:0:
133,137,90543,1,8,1:0:0:0:
70,91,90731,1,2,0:3:0:0:
8,136,90919,2,0,B|8:260|8:260|48:304,1,170,4|8,3:0|1:0,0:0:0:0:
104,336,91482,1,2,0:3:0:0:
180,336,91669,5,4,0:3:0:0:
256,336,91857,1,2,0:0:0:0:
312,284,92044,1,8,1:0:0:0:
388,284,92232,1,2,0:3:0:0:
452,328,92420,2,2,B|468:304|468:272|468:248|444:224|408:208|408:208|387:199,1,170,4|8,0:3|1:0,0:1:0:0:
240,164,93170,5,4,0:3:0:0:
276,96,93358,1,2,0:0:0:0:
352,96,93546,1,8,1:0:0:0:
312,32,93733,1,2,0:3:0:0:
236,32,93921,2,0,B|208:24|208:24|181:33|181:33|156:22|156:22|130:33|130:33|104:24|104:24|76:32,1,170,4|8,0:3|1:0,0:0:0:0:
4,64,94484,1,2,0:3:0:0:
72,104,94671,5,4,0:3:0:0:
72,256,95047,1,8,1:0:0:0:
180,364,95422,2,0,L|268:352,1,85,6|2,1:3|1:1,0:0:0:0:
232,284,95797,2,0,L|320:272,1,85,8|2,1:1|1:1,0:0:0:0:
392,260,96173,5,4,0:3:0:0:
392,184,96360,1,2,0:0:0:0:
440,124,96548,1,8,1:0:0:0:
440,48,96735,1,2,0:3:0:0:
364,48,96923,2,0,P|284:24|204:48,1,170,4|8,3:0|1:0,0:0:0:0:
136,88,97486,5,2,0:3:0:0:
136,164,97674,1,4,3:0:0:0:
200,204,97861,1,2,0:0:0:0:
276,204,98049,2,0,B|308:240|352:216|352:192|396:168|428:204,2,170,8|4|8,1:0|0:3|1:0,0:0:0:0:
196,336,99175,5,4,3:0:0:0:
120,336,99362,2,0,L|96:252,2,85,2|8|2,0:0|1:1|0:3,0:0:0:0:
44,336,99925,2,0,L|20:252,1,85,4|2,3:0|0:0,0:0:0:0:
256,277,100488,5,2,0:0:0:0:
256,277,100676,2,0,L|256:192,1,85,2|2,3:0|3:0,0:0:0:0:
341,192,101051,2,0,L|256:192,1,85,2|2,3:0|3:0,0:0:0:0:
256,107,101426,2,0,L|256:192,1,85,2|2,3:0|3:0,0:0:0:0:
171,192,101801,2,0,L|256:192,1,85,2|2,3:0|3:0,0:0:0:0:
316,260,102177,5,4,0:1:0:0:
379,214,102365,1,2,0:0:0:0:
379,137,102552,1,8,1:0:0:0:
442,91,102740,1,2,0:3:0:0:
504,136,102928,2,0,B|504:260|504:260|464:304,1,170,4|8,3:0|1:0,0:0:0:0:
408,336,103491,1,2,0:3:0:0:
332,336,103678,5,4,0:3:0:0:
256,336,103866,1,2,0:0:0:0:
200,284,104053,1,8,1:0:0:0:
124,284,104241,1,2,0:3:0:0:
60,328,104429,2,2,B|44:304|44:272|44:248|68:224|104:208|104:208|125:199,1,170,4|8,0:3|1:0,0:1:0:0:
272,164,105179,5,4,0:3:0:0:
236,96,105367,1,2,0:0:0:0:
160,96,105555,1,8,1:0:0:0:
200,32,105742,1,2,0:3:0:0:
276,32,105930,2,0,B|304:24|304:24|331:33|331:33|356:22|356:22|382:33|382:33|408:24|408:24|436:32,1,170,4|8,0:3|1:0,0:0:0:0:
508,64,106493,1,2,0:3:0:0:
440,104,106680,5,4,3:0:0:0:
440,256,107056,1,8,1:0:0:0:
332,364,107431,2,0,L|244:352,1,85,6|2,1:3|1:1,0:0:0:0:
280,284,107806,2,0,L|192:272,1,85,8|2,1:1|1:1,0:0:0:0:
120,260,108182,5,4,0:3:0:0:
120,184,108369,1,2,0:0:0:0:
72,124,108557,1,8,1:0:0:0:
72,48,108744,1,2,0:3:0:0:
148,48,108932,2,0,P|228:24|308:48,1,170,4|8,3:0|1:0,0:0:0:0:
376,88,109495,5,2,0:3:0:0:
376,164,109683,1,4,3:0:0:0:
312,204,109870,1,2,0:0:0:0:
236,204,110058,2,0,B|204:240|160:216|160:192|116:168|84:204,2,170,8|4|8,1:0|0:3|1:0,0:0:0:0:
316,336,111184,5,4,3:0:0:0:
392,336,111371,2,0,L|416:252,2,85,2|8|2,0:0|1:1|0:3,0:0:0:0:
468,336,111934,2,0,L|492:252,1,85,4|2,3:0|0:0,0:0:0:0:
332,248,112497,5,2,0:0:0:0:
296,316,112685,1,4,3:0:0:0:
216,316,112873,1,2,0:0:0:0:
180,248,113060,1,8,1:0:0:0:
256,248,113248,1,2,0:0:0:0:
256,248,113623,2,2,B|252:228|236:208|236:208|272:192|272:192|248:168|248:168|264:152|264:152|256:128|256:128|256:88,1,191.250007295609,2|6,0:0|0:3,0:1:0:0:
340,372,120191,5,6,0:3:0:0:
401,317,120378,1,2,0:3:0:0:
341,265,120566,2,0,L|153:265,1,170,10|2,1:2|0:3,0:0:0:0:
121,201,121129,1,2,0:3:0:0:
171,137,121316,2,0,L|359:137,1,170,10|2,1:2|0:3,0:0:0:0:
397,81,121879,1,2,0:3:0:0:
341,21,122067,2,0,L|153:21,1,170,10|2,1:2|0:3,0:0:0:0:
113,77,122630,1,10,1:2:0:0:
113,77,123005,1,2,1:3:0:0:
36,108,123193,5,6,0:3:0:0:
36,188,123380,1,2,0:3:0:0:
92,244,123568,2,0,L|224:376,1,170,10|2,1:2|0:3,0:0:0:0:
292,354,124131,1,2,0:3:0:0:
302,273,124318,2,0,L|169:140,1,170,10|2,1:2|0:3,0:0:0:0:
182,74,124881,1,2,0:3:0:0:
264,71,125069,2,0,L|396:203,1,170,10|2,1:2|0:3,0:0:0:0:
464,192,125632,1,10,1:0:0:0:
464,192,126195,6,0,B|464:316|464:316|416:360,2,170,4|0|0,1:2|1:0|1:0,0:0:0:0:
464,72,127227,2,0,L|432:104,1,42.5,2|2,1:0|1:0,0:0:0:0:
328,192,127696,6,0,B|328:316|328:316|280:360,2,170,0|0|0,1:0|1:0|1:0,0:0:0:0:
328,112,128634,1,2,1:0:0:0:
256,76,128822,1,2,1:0:0:0:
184,112,129010,1,2,1:0:0:0:
184,192,129197,6,0,B|184:316|184:316|232:360,2,170,0|0|0,1:0|1:0|1:0,0:0:0:0:
184,70,130229,2,0,L|152:102,1,42.5,2|2,1:0|1:0,0:0:0:0:
48,192,130698,6,0,B|48:316|48:316|96:360,2,170,0|0|0,1:0|1:0|1:0,0:0:0:0:
104,136,131637,1,2,1:0:0:0:
184,136,131824,1,2,1:0:0:0:
256,96,132012,1,2,1:0:0:0:
320,44,132200,6,0,B|304:12|304:12|256:0|256:0|208:12|208:12|192:44,2,170,0|0|0,1:0|1:0|1:0,0:0:0:0:
256,148,133232,2,0,L|256:208,1,42.5,2|2,1:0|1:0,0:0:0:0:
320,340,133701,6,0,B|304:372|304:372|256:384|256:384|208:372|208:372|192:340,2,170,0|0|0,1:0|1:0|1:0,0:0:0:0:
320,260,134639,1,2,1:0:0:0:
364,192,134827,1,2,1:0:0:0:
320,124,135014,1,2,1:0:0:0:
400,124,135202,6,0,P|443:192|400:260,2,170,0|0|0,1:0|1:0|1:0,0:0:0:0:
300,192,136234,2,0,L|252:192,1,42.5,2|2,1:0|1:0,0:0:0:0:
112,124,136703,6,0,P|69:192|112:260,2,170,0|0|0,1:0|1:0|1:0,0:0:0:0:
152,196,137641,1,8,1:0:0:0:
152,196,137829,1,8,1:0:0:0:
256,72,138204,5,4,0:1:0:0:
336,72,138392,1,2,0:0:0:0:
408,36,138579,1,0,1:0:0:0:
408,116,138767,1,2,0:0:0:0:
448,184,138955,2,0,P|408:196|368:184,1,85,4|2,0:3|0:0,0:0:0:0:
296,144,139330,2,0,P|256:132|216:144,1,85,0|2,1:0|0:0,0:0:0:0:
152,192,139705,5,4,0:3:0:0:
72,192,139893,1,2,0:0:0:0:
36,264,140080,1,0,1:0:0:0:
116,264,140268,1,2,0:0:0:0:
196,264,140456,2,0,B|196:316|196:316|220:348,1,85,4|2,0:3|1:3,0:0:0:0:
296,342,140831,2,0,B|316:316|316:316|316:264,1,85,0|2,1:0|1:3,0:0:0:0:
376,212,141206,5,4,0:3:0:0:
436,156,141394,1,2,0:0:0:0:
376,100,141582,1,0,1:0:0:0:
376,100,141769,1,2,0:0:0:0:
320,156,141957,2,0,B|284:170|284:170|196:141|196:141|160:156,1,170,4|0,0:3|1:0,0:0:0:0:
88,196,142520,1,2,0:0:0:0:
88,116,142707,6,2,L|88:32,1,85,4|2,0:3|0:0,0:1:0:0:
160,70,143083,2,2,L|160:166,1,85,0|2,1:0|0:0,0:0:0:0:
232,116,143458,2,0,L|232:32,1,85,4|2,0:3|1:3,0:0:0:0:
304,68,143833,2,0,L|304:164,1,85,0|2,1:3|1:3,0:0:0:0:
304,236,144209,5,4,0:0:0:0:
256,300,144396,1,2,0:0:0:0:
208,364,144584,1,0,1:0:0:0:
208,364,144772,1,2,0:0:0:0:
128,364,144959,2,0,B|100:332|100:332|100:284,1,85,4|2,0:3|0:0,0:0:0:0:
140,220,145334,2,0,B|100:205|100:205|60:220,1,85,0|2,1:0|0:0,0:0:0:0:
24,148,145710,5,4,0:3:0:0:
100,120,145897,1,2,0:0:0:0:
176,148,146085,2,0,L|264:148,1,85,0|2,1:0|0:0,0:0:0:0:
312,84,146460,2,0,B|372:84|372:84|444:84|460:140,1,170,4|0,0:3|1:0,0:0:0:0:
412,292,147211,5,4,0:3:0:0:
412,292,147586,1,0,1:0:0:0:
256,332,147961,1,4,0:3:0:0:
256,332,148337,1,0,1:0:0:0:
100,292,148712,5,4,0:3:0:0:
100,292,149087,1,0,1:0:0:0:
256,248,149463,1,4,3:0:0:0:
256,248,149838,1,0,1:0:0:0:
256,72,150213,5,4,0:1:0:0:
176,72,150401,1,2,0:0:0:0:
104,36,150588,1,0,1:0:0:0:
104,116,150776,1,2,0:0:0:0:
64,184,150964,2,0,P|104:196|144:184,1,85,4|2,0:3|0:0,0:0:0:0:
216,144,151339,2,0,P|256:132|296:144,1,85,0|2,1:0|0:0,0:0:0:0:
360,192,151714,5,4,0:3:0:0:
440,192,151902,1,2,0:0:0:0:
476,264,152089,1,0,1:0:0:0:
396,264,152277,1,2,0:0:0:0:
316,264,152465,2,0,B|316:316|316:316|292:348,1,85,4|2,0:3|1:3,0:0:0:0:
216,342,152840,2,0,B|196:316|196:316|196:264,1,85,0|2,1:0|1:3,0:0:0:0:
136,212,153215,5,4,0:3:0:0:
76,156,153403,1,2,0:0:0:0:
136,100,153591,1,0,1:0:0:0:
136,100,153778,1,2,0:0:0:0:
192,156,153966,2,0,B|228:170|228:170|316:141|316:141|352:156,1,170,4|0,0:3|1:0,0:0:0:0:
424,196,154529,1,2,0:0:0:0:
424,116,154716,6,2,L|424:32,1,85,4|2,0:3|0:0,0:0:0:0:
352,155,155092,2,2,L|352:70,1,85,2|2,1:0|0:0,0:1:0:0:
280,31,155467,2,0,L|280:116,1,85,4|2,0:3|1:3,0:0:0:0:
208,68,155842,2,0,L|208:164,1,85,0|2,1:0|1:3,0:0:0:0:
208,236,156218,5,4,0:0:0:0:
256,300,156405,1,2,0:0:0:0:
304,364,156593,1,0,1:0:0:0:
304,364,156781,1,2,0:0:0:0:
384,364,156968,2,0,B|412:332|412:332|412:284,1,85,4|2,0:3|0:0,0:0:0:0:
372,220,157343,2,0,B|412:205|412:205|452:220,1,85,0|2,1:0|0:0,0:0:0:0:
488,148,157719,5,4,0:3:0:0:
412,120,157906,1,2,0:0:0:0:
336,148,158094,2,0,L|248:148,1,85,0|2,1:0|0:0,0:0:0:0:
184,192,158469,2,0,B|124:192|124:192|52:192|36:248,1,170,4|0,0:3|1:0,0:0:0:0:
180,336,159220,5,4,0:3:0:0:
332,336,159595,1,0,1:0:0:0:
160,268,159970,5,4,0:3:0:0:
352,268,160345,1,0,1:0:0:0:
180,196,160721,5,4,0:3:0:0:
332,196,161096,1,0,1:3:0:0:
160,124,161471,5,4,3:0:0:0:
352,124,161847,2,0,B|348:156|332:164|332:164|364:188|364:188|336:208|336:208|356:228|356:228|396:292|356:368|260:372|220:320|228:268,1,425,0|0,1:0|3:0,0:0:0:0:
