osu file format v14

[General]
AudioFilename: audio.mp3
AudioLeadIn: 0
PreviewTime: 70212
Countdown: 1
SampleSet: Drum
StackLeniency: 0.7
Mode: 0
LetterboxInBreaks: 0
WidescreenStoryboard: 1

[Editor]
Bookmarks: 14747,28660,33691,42573,56486,70399,84312,98225,112138,126051,129529,143442,157355,171268,185181,202573,216486,230399
DistanceSpacing: 1
BeatDivisor: 4
GridSize: 8
TimelineZoom: 1

[Metadata]
Title:Dirty Air
TitleUnicode:Dirty Air
Artist:Two Door Cinema Club
ArtistUnicode:Two Door Cinema Club
Creator:StarCastler
Version:m980's Easy
Source:
Tags:tdcc false alarm english pop gens m980
BeatmapID:2391185
BeatmapSetID:1107855

[Difficulty]
HPDrainRate:5
CircleSize:3
OverallDifficulty:4
ApproachRate:4
SliderMultiplier:1.6
SliderTickRate:2

[Events]
//Background and Video events
0,0,"181108_AK_TDCC_SHOT_02_173_kkedit_small_prev.jpg",0,0
//Break Periods
2,84343,96936
2,157386,169979
2,185195,201501
//Storyboard Layer 0 (Background)
//Storyboard Layer 1 (Fail)
//Storyboard Layer 2 (Pass)
//Storyboard Layer 3 (Foreground)
//Storyboard Layer 4 (Overlay)
//Storyboard Sound Samples

[TimingPoints]
14778,434.782608695652,4,3,0,65,1,0
70430,-100,4,1,0,65,0,1
84343,-100,4,3,0,65,0,0
129560,-100,4,1,0,65,0,1
157386,-100,4,3,0,65,0,0
202604,-100,4,1,0,65,0,1
230430,-100,4,3,0,65,0,0

[Colours]
Combo1 : 255,128,192
Combo2 : 0,128,255
Combo3 : 255,255,0
Combo4 : 255,0,0

[HitObjects]
144,24,28908,5,8,0:3:0:0:
148,28,29125,1,0,1:0:0:0:
32,88,29560,1,0,0:0:0:0:
144,152,29995,1,0,1:0:0:0:
256,88,30430,1,4,0:1:0:0:
260,92,30647,1,2,0:3:0:0:
432,240,31299,6,2,P|514:305|432:368,1,240,8|2,0:2|1:3,0:2:0:0:
320,304,32386,1,2,1:3:0:0:
216,368,32821,2,2,B|176:360|176:360|128:352|112:304|128:256|176:248|176:248|224:240|232:192|224:144|176:136|176:136|128:128|112:80|128:32|176:24|176:24|216:16,1,560,4|8,1:1|0:2,0:2:0:0:
32,128,34995,21,10,2:3:0:0:
32,256,35430,1,4,1:1:0:0:
144,320,35864,37,8,0:3:0:0:
148,324,36082,1,0,1:0:0:0:
256,256,36517,1,0,0:0:0:0:
256,384,36951,1,0,1:0:0:0:
368,320,37386,1,4,0:1:0:0:
372,324,37604,1,2,0:3:0:0:
432,144,38256,6,2,P|514:79|432:16,1,240,8|2,0:2|1:3,0:2:0:0:
320,80,39343,1,2,1:3:0:0:
216,16,39777,2,2,P|36:192|216:368,1,560,4|8,1:0|0:2,0:2:0:0:
400,280,42604,5,4,1:1:0:0:
288,216,43038,1,0,1:0:0:0:
400,152,43473,1,0,0:0:0:0:
400,24,43908,1,0,1:0:0:0:
400,24,44125,2,0,P|496:112|512:216,1,240,0|0,1:0|1:0,0:0:0:0:
512,344,45212,5,8,0:2:0:0:
288,344,45864,2,4,B|256:312|192:320|176:344|160:368|96:376|64:344,1,240,4|0,1:0|1:0,0:0:0:0:
0,224,46951,1,0,0:0:0:0:
128,224,47386,1,0,1:0:0:0:
64,112,47821,1,4,1:3:0:0:
144,296,48908,5,0,0:0:0:0:
32,352,49343,1,4,1:2:0:0:
144,176,49995,1,0,1:0:0:0:
256,232,50430,1,0,0:0:0:0:
368,176,50864,1,0,1:0:0:0:
480,232,51299,1,4,1:2:0:0:
256,232,52169,5,8,1:2:0:0:
144,96,52821,2,0,B|176:64|240:72|256:96|272:120|336:128|368:96,1,240,4|0,1:1|1:0,0:0:0:0:
488,32,53908,1,0,0:0:0:0:
488,160,54343,1,0,1:0:0:0:
488,288,54777,1,4,1:0:0:0:
96,40,56517,5,4,1:0:0:0:
256,104,57169,1,4,1:3:0:0:
416,40,57821,1,4,1:3:0:0:
416,168,58256,1,4,1:0:0:0:
256,232,58908,1,4,1:3:0:0:
96,168,59560,1,6,1:3:0:0:
32,296,59995,6,0,P|254:372|478:297,1,480,4|4,1:0|1:3,0:0:0:0:
416,168,61734,1,4,1:0:0:0:
256,232,62386,1,4,1:3:0:0:
96,168,63038,1,6,1:3:0:0:
64,32,63473,5,12,1:2:0:0:
320,32,64343,1,8,1:2:0:0:
448,192,65212,1,8,1:2:0:0:
192,192,66082,1,8,1:2:0:0:
32,296,66951,6,0,P|254:372|478:297,1,480,4|4,1:0|1:3,0:0:0:0:
320,256,68691,1,4,1:1:0:0:
320,24,69560,1,2,1:3:0:0:
192,24,69995,1,4,1:2:0:0:
64,192,70647,5,0,0:0:0:0:
68,196,70864,1,4,0:0:0:0:
192,192,71299,1,0,0:0:0:0:
0,376,72169,5,0,0:0:0:0:
128,376,72604,1,0,0:0:0:0:
132,380,72821,1,0,0:0:0:0:
448,192,74125,5,0,0:0:0:0:
452,196,74343,1,4,0:0:0:0:
320,192,74777,1,0,0:0:0:0:
512,376,75647,5,0,0:0:0:0:
384,376,76082,1,0,0:0:0:0:
388,380,76299,1,0,0:0:0:0:
324,12,77604,5,0,0:0:0:0:
324,12,77821,1,4,0:0:0:0:
192,8,78256,1,0,0:0:0:0:
192,224,79125,5,4,0:0:0:0:
320,224,79560,1,0,0:0:0:0:
324,228,79777,1,0,0:0:0:0:
192,376,81082,5,0,0:0:0:0:
196,380,81299,1,4,0:0:0:0:
320,376,81734,1,0,0:0:0:0:
376,176,82604,6,0,L|136:176,1,240
192,48,83691,1,8,1:3:0:0:
320,48,84125,1,4,1:1:0:0:
336,192,98256,6,0,P|256:184|176:192,1,160,4|0,1:0|1:0,0:0:0:0:
176,320,99125,2,0,P|256:328|336:320,1,160,0|0,0:0|1:0,0:0:0:0:
400,368,99777,2,0,P|496:280|512:176,1,240,2|0,1:2|1:0,0:0:0:0:
512,48,100864,5,0,1:0:0:0:
288,40,101517,2,4,B|256:72|192:64|176:40|160:16|96:8|64:40,1,240,4|0,1:0|1:0,0:0:0:0:
112,104,102386,1,0,0:0:0:0:
116,108,102604,1,0,0:0:0:0:
112,232,103038,1,0,1:0:0:0:
112,360,103473,1,4,1:1:0:0:
144,120,104995,6,0,P|256:83|368:121,1,240,4|0,1:0|1:0,0:0:0:0:
336,248,106082,2,0,P|256:256|176:248,1,160,0|0,0:0|1:0,0:0:0:0:
112,368,106951,2,0,P|16:280|0:176,1,240,0|0,1:0|2:0,0:0:0:0:
0,96,107821,5,0,1:0:0:0:
216,96,108473,1,8,0:3:0:0:
344,96,108908,2,0,B|365:74|407:80|418:96|429:111|471:117|493:96,1,160,2|0,1:3|2:0,0:0:0:0:
472,16,109560,1,0,1:0:0:0:
344,16,109995,1,0,0:0:0:0:
216,16,110430,1,4,1:0:0:0:
256,120,112169,5,4,1:0:0:0:
160,48,112604,1,0,0:0:0:0:
164,52,112821,1,4,1:3:0:0:
352,48,113473,1,4,1:3:0:0:
356,52,113691,1,4,1:0:0:0:
352,240,114343,1,0,0:0:0:0:
356,244,114560,1,4,1:3:0:0:
160,240,115212,1,6,1:3:0:0:
32,296,115647,6,0,P|254:372|478:297,1,480,4|4,1:0|1:3,0:0:0:0:
416,168,117386,1,4,1:0:0:0:
256,232,118038,1,4,1:3:0:0:
96,168,118691,1,6,1:3:0:0:
64,32,119125,5,12,1:2:0:0:
320,32,119995,1,8,1:2:0:0:
448,32,120430,1,8,1:2:0:0:
448,160,120864,1,8,1:2:0:0:
192,160,121734,1,8,1:2:0:0:
64,160,122169,1,8,1:2:0:0:
32,296,122604,6,0,P|254:372|478:297,1,480,4|4,1:0|1:3,0:0:0:0:
320,256,124343,1,4,1:1:0:0:
192,256,124777,1,0,0:0:0:0:
192,128,125212,1,2,1:3:0:0:
320,128,125647,1,4,1:2:0:0:
480,88,126082,22,0,P|258:12|34:87,1,480,4|4,1:0|1:3,0:0:0:0:
192,128,127821,1,4,1:1:0:0:
320,328,128691,1,2,1:3:0:0:
192,328,129125,1,4,1:1:0:0:
64,192,129777,37,0,0:0:0:0:
68,196,129995,1,4,0:0:0:0:
192,192,130430,1,0,0:0:0:0:
0,376,131299,5,0,0:0:0:0:
128,376,131734,1,0,0:0:0:0:
132,380,131951,1,4,0:0:0:0:
448,192,133256,5,0,0:0:0:0:
452,196,133473,1,4,0:0:0:0:
320,192,133908,1,0,0:0:0:0:
512,376,134777,5,0,0:0:0:0:
384,376,135212,1,0,0:0:0:0:
388,380,135430,1,4,0:0:0:0:
320,8,136734,5,0,0:0:0:0:
324,12,136951,1,4,0:0:0:0:
192,8,137386,1,0,0:0:0:0:
192,224,138256,5,4,0:0:0:0:
320,224,138691,1,0,0:0:0:0:
324,228,138908,1,0,0:0:0:0:
192,376,140212,5,0,0:0:0:0:
196,380,140430,1,4,0:0:0:0:
320,376,140864,1,0,0:0:0:0:
376,176,141734,6,0,L|136:176,1,240
192,48,142821,1,8,1:3:0:0:
320,48,143256,1,4,1:1:0:0:
448,8,143691,6,0,P|499:113|448:216,1,240,0|4,0:0|0:0,0:0:0:0:
296,56,145212,1,2,0:3:0:0:
296,184,145647,1,0,0:0:0:0:
296,184,145864,1,4,0:0:0:0:
64,8,147169,6,0,P|13:113|64:216,1,240,0|4,0:0|0:0,0:0:0:0:
217,56,148691,1,2,0:3:0:0:
216,184,149125,1,0,0:0:0:0:
220,188,149343,1,4,0:0:0:0:
256,344,150647,6,0,P|361:305|408:192,1,240,0|4,0:0|0:0,0:0:0:0:
256,40,152169,2,0,P|151:79|104:192,1,240,0|4,0:0|0:0,0:0:0:0:
192,16,154343,5,0,0:0:0:0:
320,16,154777,1,4,0:0:0:0:
256,192,155647,1,0,0:0:0:0:
260,196,155864,1,0,0:0:0:0:
264,200,156082,1,0,0:0:0:0:
268,204,156299,1,4,0:0:0:0:
64,128,171299,6,2,P|224:26|384:128,1,400,2|0,2:0|0:0,2:0:0:0:
384,256,172821,2,2,P|192:378|0:256,1,480,6|0,2:0|0:0,2:0:0:0:
0,127,174560,2,2,P|236:0|472:128,1,560,2|2,2:0|2:0,2:0:0:0:
406,170,176299,2,0,P|164:92|65:170,1,400,4|0,2:0|0:2,0:0:0:0:
320,328,178256,6,2,P|462:277|320:248,1,400,2|0,2:0|0:0,2:0:0:0:
192,248,179777,2,2,P|28:177|192:168,1,480,2|0,2:0|2:0,2:0:0:0:
320,168,181517,2,2,P|489:114|320:88,1,480,2|0,2:0|2:0,2:0:0:0:
248,48,183038,1,4,0:0:0:0:
176,88,183256,2,0,P|-7:204|256:256,1,640,2|4,0:0|1:0,0:0:0:0:
0,370,202821,37,0,0:0:0:0:
0,370,203038,2,0,P|83:296|160:370,1,240,4|8,0:0|0:3,0:0:0:0:
352,368,204343,2,0,P|435:294|512:368,1,240,4|8,0:0|0:0,0:0:0:0:
512,202,206299,5,0,0:0:0:0:
512,202,206517,2,0,P|429:128|352:202,1,240,4|4,0:0|0:3,0:0:0:0:
160,200,207821,2,0,P|77:126|0:200,1,240,4|8,0:0|0:2,0:0:0:0:
320,8,209777,5,0,0:0:0:0:
324,12,209995,1,4,0:0:0:0:
192,8,210430,1,8,0:3:0:0:
192,224,211299,1,4,0:0:0:0:
320,224,211734,1,0,0:0:0:0:
324,228,211951,1,4,0:3:0:0:
192,312,213473,5,2,0:3:0:0:
320,312,213908,1,4,0:0:0:0:
480,32,214777,1,4,0:3:0:0:
352,32,215212,1,8,0:0:0:0:
272,32,215430,2,2,L|32:32,1,240
72,192,216734,5,0,0:0:0:0:
76,196,216951,1,4,0:0:0:0:
200,192,217386,1,8,0:0:0:0:
204,196,217604,1,0,0:0:0:0:
136,304,218038,1,0,0:0:0:0:
140,308,218256,1,4,0:0:0:0:
8,304,218691,1,0,0:0:0:0:
12,308,218908,1,8,0:1:0:0:
440,192,220212,5,0,0:0:0:0:
444,196,220430,1,4,0:0:0:0:
312,192,220864,1,8,0:0:0:0:
316,196,221082,1,0,0:0:0:0:
376,304,221517,1,0,0:0:0:0:
380,308,221734,1,4,0:0:0:0:
504,304,222169,1,0,0:0:0:0:
508,308,222386,1,8,0:2:0:0:
192,232,223691,5,0,0:0:0:0:
196,236,223908,1,4,0:0:0:0:
320,232,224343,1,8,0:0:0:0:
324,236,224560,1,0,0:0:0:0:
376,40,225212,1,4,0:0:0:0:
296,40,225430,1,8,0:0:0:0:
216,40,225647,1,8,0:0:0:0:
136,40,225864,1,4,0:3:0:0:
256,192,226951,12,4,230212,0:0:0:0:
