osu file format v14

[General]
AudioFilename: audio.mp3
AudioLeadIn: 0
PreviewTime: 70212
Countdown: 1
SampleSet: Drum
StackLeniency: 0.7
Mode: 0
LetterboxInBreaks: 0
WidescreenStoryboard: 1

[Editor]
Bookmarks: 14747,28660,42573,56486,70399,84312,98225,112138,126051,129529,143442,157355,171268,185181,202573,216486,230399
DistanceSpacing: 1
BeatDivisor: 4
GridSize: 8
TimelineZoom: 1

[Metadata]
Title:Dirty Air
TitleUnicode:Dirty Air
Artist:Two Door Cinema Club
ArtistUnicode:Two Door Cinema Club
Creator:StarCastler
Version:Normal
Source:
Tags:tdcc false alarm english pop gens m980
BeatmapID:2315393
BeatmapSetID:1107855

[Difficulty]
HPDrainRate:3
CircleSize:3
OverallDifficulty:5
ApproachRate:6
SliderMultiplier:1.3
SliderTickRate:2

[Events]
//Background and Video events
0,0,"181108_AK_TDCC_SHOT_02_173_kkedit_small_prev.jpg",0,0
//Break Periods
2,157586,170066
2,199325,201371
//Storyboard Layer 0 (Background)
//Storyboard Layer 1 (Fail)
//Storyboard Layer 2 (Pass)
//Storyboard Layer 3 (Foreground)
//Storyboard Layer 4 (Overlay)
//Storyboard Sound Samples

[TimingPoints]
14778,434.782608695652,4,3,0,65,1,0
56517,-100,4,1,0,65,0,0
70430,-100,4,1,0,65,0,1
84343,-100,4,3,0,65,0,0
112169,-100,4,1,0,65,0,0
129560,-100,4,1,0,65,0,1
157386,-100,4,3,0,65,0,0
202604,-100,4,1,0,65,0,1
230430,-100,4,3,0,65,0,0

[Colours]
Combo1 : 255,128,192
Combo2 : 0,128,255
Combo3 : 255,255,0
Combo4 : 255,0,0

[HitObjects]
72,288,14778,6,0,B|120:336|192:312,1,130,4|8,0:2|0:1,0:0:0:0:
320,312,15647,2,0,B|392:336|440:288,1,130,2|8,0:0|0:1,0:0:0:0:
360,192,16517,1,2,0:0:0:0:
256,112,16951,1,8,0:1:0:0:
152,192,17386,1,2,0:0:0:0:
256,272,17821,1,8,0:1:0:0:
360,192,18256,5,2,0:2:0:0:
392,248,18473,1,0,0:0:0:0:
424,304,18691,1,8,0:1:0:0:
320,376,19125,2,0,B|256:360|192:376,1,130,2|8,0:2|0:1,0:0:0:0:
88,304,19995,1,2,0:2:0:0:
120,248,20212,1,0,0:0:0:0:
152,192,20430,1,8,0:1:0:0:
216,80,20864,2,0,L|216:16,1,65,4|8,0:3|0:3,0:0:0:0:
296,16,21299,2,0,L|296:80,1,65,8|8,0:1|0:3,0:0:0:0:
296,144,21734,6,0,B|288:208|320:272,1,130,2|8,0:0|0:1,0:0:0:0:
192,272,22604,2,0,B|224:208|216:144,1,130,2|8,0:0|0:1,0:0:0:0:
192,16,23473,1,2,0:0:0:0:
320,16,23908,1,8,0:1:0:0:
320,144,24343,1,2,0:0:0:0:
192,144,24777,1,8,0:1:0:0:
256,256,25212,5,2,0:2:0:0:
256,256,25430,1,0,0:0:0:0:
256,256,25647,1,8,0:1:0:0:
320,368,26082,2,0,B|256:384|192:368,1,130,2|8,0:2|0:1,0:0:0:0:
256,256,26951,1,2,0:2:0:0:
320,144,27386,2,0,B|256:128|192:144,1,130,8|2,0:1|0:3,0:0:0:0:
256,256,28256,1,8,0:1:0:0:
256,256,28473,1,8,0:0:0:0:
256,256,28691,5,4,0:2:0:0:
256,384,29125,2,0,L|320:384,1,65,10|0,0:2|0:0,0:0:0:0:
384,384,29560,2,0,B|456:368|472:296,1,130,2|10,0:2|0:2,0:2:0:0:
480,176,30430,1,2,0:2:0:0:
480,176,30647,1,0,0:0:0:0:
256,128,31299,2,0,L|256:64,2,65,2|0|8,0:2|0:0|0:2,0:0:0:0:
256,192,31951,6,0,B|152:272,1,130,2|2,0:2|0:2,0:0:0:0:
120,328,32604,1,8,0:2:0:0:
80,384,32821,2,2,B|48:384|48:384|0:376|32:336|32:336|24:312|24:312|40:288|40:288|32:248,1,195,2|8,0:2|0:2,0:2:0:0:
136,176,33908,2,0,B|152:112|136:48,1,130,0|8,0:0|0:2,0:0:0:0:
256,80,34777,2,0,L|304:128,1,65,4|8,0:0|0:0,0:0:0:0:
256,168,35212,2,0,L|208:216,1,65,8|8,0:2|0:0,0:0:0:0:
256,256,35647,5,2,0:0:0:0:
256,384,36082,2,0,L|192:384,1,65,10|0,0:2|0:0,0:0:0:0:
128,384,36517,2,0,B|56:368|40:296,1,130,2|10,0:2|0:2,0:2:0:0:
32,176,37386,1,2,0:2:0:0:
32,176,37604,1,0,0:0:0:0:
256,128,38256,2,0,L|256:64,2,65,2|0|8,0:2|0:0|0:2,0:0:0:0:
256,192,38908,6,0,B|360:272,1,130,2|2,0:2|0:2,0:0:0:0:
392,328,39560,1,8,0:2:0:0:
432,384,39777,2,2,B|464:384|464:384|512:376|480:336|480:336|488:312|488:312|472:288|472:288|480:248,1,195,2|8,0:2|0:2,0:2:0:0:
376,176,40864,2,0,B|360:112|376:48,1,130,0|8,0:0|0:2,0:0:0:0:
256,88,41734,2,0,L|208:136,1,65,4|10,0:0|0:3,0:0:0:0:
256,176,42169,2,0,L|304:224,1,65,10|8,0:2|0:0,0:0:0:0:
256,272,42604,6,0,B|256:352|176:352,1,130,4|8,0:2|0:1,0:0:0:0:
96,272,43473,2,0,B|96:192|176:192,1,130,2|8,0:2|0:1,0:0:0:0:
176,272,44125,1,2,0:2:0:0:
288,72,44777,1,8,0:1:0:0:
384,0,45212,1,2,0:2:0:0:
448,8,45430,1,0,0:0:0:0:
488,56,45647,1,8,0:1:0:0:
496,120,45864,6,0,B|488:216|392:168|384:264,1,195,2|8,0:2|0:1,0:2:0:0:
464,272,46734,1,0,0:0:0:0:
464,272,46951,2,0,B|456:344|376:352,1,130,2|8,0:2|0:1,0:2:0:0:
256,304,47821,1,2,0:2:0:0:
136,352,48256,1,8,0:1:0:0:
176,240,48691,2,0,L|224:192,1,65,4|8,0:3|0:3,0:0:0:0:
288,192,49125,2,0,L|336:240,1,65,8|8,0:1|0:3,0:0:0:0:
256,272,49560,6,0,B|256:352|336:352,1,130,2|8,0:2|0:1,0:0:0:0:
416,272,50430,2,0,B|416:192|336:192,1,130,2|8,0:2|0:1,0:0:0:0:
176,192,51299,1,2,0:2:0:0:
224,72,51734,1,8,0:1:0:0:
128,0,52169,1,2,0:2:0:0:
64,8,52386,1,0,0:0:0:0:
24,56,52604,1,8,0:1:0:0:
16,120,52821,6,0,B|24:216|120:168|128:264,1,195,2|8,0:2|0:1,0:2:0:0:
48,272,53691,1,0,0:0:0:0:
48,272,53908,2,0,B|56:344|136:352,1,130,2|8,0:2|0:1,0:2:0:0:
256,304,54777,1,2,0:2:0:0:
376,352,55212,1,8,0:1:0:0:
288,224,55647,2,0,L|224:224,3,65,4|10|8|8,0:0|0:3|0:2|0:0,0:0:0:0:
160,224,56517,5,4,1:2:0:0:
32,256,56951,1,0,1:0:0:0:
32,256,57169,1,2,1:0:0:0:
32,128,57604,1,0,1:0:0:0:
32,128,57821,1,0,1:0:0:0:
160,128,58256,5,4,1:2:0:0:
224,128,58473,1,0,1:0:0:0:
288,128,58691,1,0,1:0:0:0:
352,128,58908,1,2,1:0:0:0:
480,128,59343,1,0,1:0:0:0:
480,128,59560,1,0,1:0:0:0:
352,224,59995,5,4,1:2:0:0:
480,256,60430,1,0,1:0:0:0:
480,256,60647,1,2,1:0:0:0:
480,128,61082,1,0,1:0:0:0:
480,128,61299,1,0,1:0:0:0:
352,128,61734,5,4,1:2:0:0:
288,128,61951,1,0,1:0:0:0:
224,128,62169,1,0,1:0:0:0:
160,128,62386,1,2,1:0:0:0:
32,128,62821,1,0,1:0:0:0:
32,128,63038,1,0,1:0:0:0:
32,256,63473,6,0,L|80:304,1,65,4|0,1:2|1:0,0:0:0:0:
144,304,63908,2,0,L|192:256,1,65,2|0,1:0|1:0,0:0:0:0:
256,256,64343,1,4,1:2:0:0:
384,256,64777,1,2,1:0:0:0:
384,128,65212,6,0,B|312:96|320:24,1,130,4|2,1:2|1:0,0:0:0:0:
192,24,66082,2,0,B|200:96|128:128,1,130,4|2,1:2|1:0,0:0:0:0:
192,256,66951,5,2,1:0:0:0:
320,128,67386,1,4,1:2:0:0:
320,256,67821,1,2,1:0:0:0:
192,128,68256,1,4,1:2:0:0:
256,256,68691,5,2,1:0:0:0:
256,256,68908,1,8,1:0:0:0:
256,256,69125,1,2,1:0:0:0:
256,128,69560,1,2,1:0:0:0:
256,128,69777,1,8,1:0:0:0:
256,128,69995,1,4,1:2:0:0:
192,248,70430,5,4,1:2:0:0:
256,256,70647,1,0,1:0:0:0:
320,248,70864,1,10,1:0:0:0:
448,248,71299,2,0,B|512:192|448:136,1,130,2|8,1:0|1:0,0:0:0:0:
376,32,72169,1,2,1:0:0:0:
336,72,72386,1,2,1:2:0:0:
296,32,72604,1,8,1:0:0:0:
256,72,72821,2,2,B|168:80|168:184|256:192,1,195,2|10,1:0|1:0,1:0:0:0:
448,192,74125,5,0,1:0:0:0:
424,256,74343,1,10,1:0:0:0:
376,304,74560,1,0,1:0:0:0:
320,328,74777,2,0,B|256:344|256:296|192:312,1,130,2|8,1:0|1:0,0:0:0:0:
88,256,75647,1,2,1:0:0:0:
64,192,75864,1,2,1:2:0:0:
88,128,76082,1,8,1:0:0:0:
136,80,76299,1,2,1:0:0:0:
256,192,76734,2,0,L|256:128,2,65,4|8|8,1:3|1:0|1:3,0:0:0:0:
320,248,77386,5,4,1:2:0:0:
256,256,77604,1,0,1:0:0:0:
192,248,77821,1,10,1:0:0:0:
64,248,78256,2,0,B|0:192|64:136,1,130,2|8,1:0|1:0,0:0:0:0:
136,32,79125,1,2,1:0:0:0:
176,72,79343,1,2,1:2:0:0:
216,32,79560,1,8,1:0:0:0:
256,72,79777,2,2,B|344:80|344:184|256:192,1,195,2|10,1:0|1:0,1:0:0:0:
64,192,81082,5,0,1:0:0:0:
88,256,81299,1,10,1:0:0:0:
136,304,81517,1,0,1:0:0:0:
192,328,81734,2,0,B|256:344|256:296|320:312,1,130,2|8,1:0|1:0,0:0:0:0:
424,256,82604,1,2,1:0:0:0:
448,192,82821,1,2,1:2:0:0:
424,128,83038,1,8,1:0:0:0:
376,80,83256,1,2,1:0:0:0:
256,192,83691,2,0,L|256:128,2,65,4|0|8,1:3|0:0|1:3,0:0:0:0:
256,256,84343,5,2,0:0:0:0:
320,368,84777,2,0,B|256:384|192:368,2,130,8|2|8,0:2|0:2|0:2,0:2:0:0:
288,240,86082,1,2,0:2:0:0:
224,240,86299,1,0,0:0:0:0:
256,48,86951,1,2,0:2:0:0:
256,48,87169,1,0,0:0:0:0:
312,160,87604,6,0,B|280:200|232:200|200:160,1,130,2|2,0:2|0:2,0:0:0:0:
80,104,88473,2,2,B|24:128|40:184|40:184|32:200|32:200|48:208|48:208|56:232|48:272,1,195,2|8,0:2|0:2,0:2:0:0:
112,376,89560,2,0,B|160:352|184:304|168:240,1,130,0|8,0:0|0:2,0:0:0:0:
256,128,90430,2,0,L|256:192,3,65,4|8|8|8,0:0|0:0|0:2|0:0,0:0:0:0:
256,256,91299,5,2,0:2:0:0:
192,368,91734,2,0,B|256:384|320:368,2,130,8|2|8,0:2|0:2|0:2,0:2:0:0:
224,240,93038,1,2,0:2:0:0:
288,240,93256,1,0,0:0:0:0:
256,48,93908,1,2,0:2:0:0:
256,48,94125,1,0,0:0:0:0:
200,160,94560,6,0,B|232:200|280:200|312:160,1,130,2|2,0:2|0:2,0:0:0:0:
432,104,95430,2,2,B|488:128|472:184|472:184|480:200|480:200|464:208|464:208|456:232|464:272,1,195,2|8,0:2|0:2,0:2:0:0:
400,376,96517,2,0,B|352:352|328:304|344:240,1,130,0|8,0:0|0:2,0:0:0:0:
256,128,97386,2,0,L|256:192,3,65,4|8|8|8,0:0|0:0|0:2|0:0,0:0:0:0:
216,240,98256,6,0,B|160:288|176:360,1,130,4|8,0:2|0:1,0:0:0:0:
336,360,99125,2,0,B|352:288|296:240,1,130,2|8,0:2|0:1,0:0:0:0:
256,192,99777,1,2,0:2:0:0:
128,192,100212,2,0,L|128:128,2,65,0|8|0,0:0|0:1|0:0,0:0:0:0:
128,256,100864,1,2,0:2:0:0:
136,320,101082,1,0,0:0:0:0:
192,352,101299,1,8,0:1:0:0:
256,360,101517,5,2,0:2:0:0:
448,320,102169,1,8,0:1:0:0:
448,256,102386,1,0,0:0:0:0:
448,192,102604,2,0,B|448:56,1,130,2|8,0:2|0:1,0:2:0:0:
320,40,103473,1,2,0:2:0:0:
192,40,103908,1,8,0:1:0:0:
256,128,104343,2,0,L|256:192,3,65,4|8|8|0,0:0|0:0|0:1|0:0,0:0:0:0:
296,240,105212,6,0,B|352:288|336:360,1,130,2|8,0:3|0:1,0:0:0:0:
176,360,106082,2,0,B|160:288|216:240,1,130,2|8,0:2|0:1,0:0:0:0:
312,160,106951,2,0,B|256:96|200:160,1,130,2|8,0:2|0:1,0:0:0:0:
256,256,107821,1,2,0:2:0:0:
256,320,108038,1,0,0:0:0:0:
256,384,108256,1,8,0:1:0:0:
256,384,108473,5,2,0:2:0:0:
64,384,108908,1,2,0:2:0:0:
64,256,109343,1,0,0:0:0:0:
64,192,109560,2,0,B|64:56,1,130,2|8,0:2|0:1,0:2:0:0:
192,40,110430,1,2,0:2:0:0:
320,40,110864,1,8,0:1:0:0:
256,128,111299,2,0,L|256:192,3,65,4|8|8|0,0:0|0:0|0:1|0:0,0:0:0:0:
224,248,112169,5,4,1:2:0:0:
224,312,112386,1,0,1:0:0:0:
288,312,112604,1,0,1:0:0:0:
288,248,112821,1,2,1:0:0:0:
288,120,113256,1,0,1:0:0:0:
224,120,113473,1,0,1:0:0:0:
200,64,113691,6,2,B|256:0|312:64,2,130,2|0|2,1:0|1:0|1:0,0:0:0:0:
256,192,114995,1,0,1:0:0:0:
256,192,115212,1,0,1:0:0:0:
288,312,115647,5,4,1:2:0:0:
256,368,115864,1,0,1:0:0:0:
224,312,116082,1,0,1:0:0:0:
256,256,116299,1,2,1:0:0:0:
256,128,116734,1,0,1:0:0:0:
256,128,116951,1,0,1:0:0:0:
200,8,117386,6,2,B|256:72|312:8,2,130,4|0|2,1:2|1:0|1:0,1:0:0:0:
152,48,118473,1,0,1:0:0:0:
104,88,118691,1,0,1:0:0:0:
56,232,119125,5,4,1:2:0:0:
104,304,119343,1,0,1:0:0:0:
152,376,119560,1,2,1:0:0:0:
360,376,119995,1,4,1:2:0:0:
408,304,120212,1,0,1:0:0:0:
456,232,120430,1,2,1:0:0:0:
312,304,120864,5,4,1:2:0:0:
256,192,121299,1,2,1:0:0:0:
200,80,121734,1,4,1:2:0:0:
256,192,122169,1,2,1:0:0:0:
408,192,122604,6,0,B|368:232|416:264|360:312,1,130,2|4,1:0|1:2,0:0:0:0:
104,192,123473,2,0,B|144:232|96:264|152:312,1,130,2|4,1:0|1:2,0:0:0:0:
256,256,124343,5,2,1:0:0:0:
256,256,124560,1,8,1:0:0:0:
256,256,124777,1,2,1:0:0:0:
256,128,125212,1,2,1:0:0:0:
256,128,125430,1,8,1:0:0:0:
256,128,125647,1,4,1:2:0:0:
224,272,126082,6,0,L|288:272,1,65,4|0,1:2|1:0,0:0:0:0:
336,224,126517,2,0,L|336:160,1,65,0|0,1:0|1:0,0:0:0:0:
288,112,126951,2,0,L|224:112,1,65,0|0,1:0|1:0,0:0:0:0:
176,160,127386,2,0,L|176:224,1,65,0|0,1:0|1:0,0:0:0:0:
256,256,127821,5,2,1:0:0:0:
256,256,128038,1,8,1:0:0:0:
256,256,128256,1,2,1:0:0:0:
256,128,128691,1,2,1:0:0:0:
256,128,128908,1,8,1:0:0:0:
256,128,129125,1,4,1:2:0:0:
336,232,129560,5,4,1:2:0:0:
400,248,129777,1,0,1:0:0:0:
464,272,129995,1,10,1:0:0:0:
504,144,130430,2,0,B|512:72|456:24,1,130,2|8,1:0|1:0,1:0:0:0:
376,120,131299,1,2,1:0:0:0:
312,144,131517,1,2,1:2:0:0:
256,112,131734,1,8,1:0:0:0:
200,80,131951,2,2,B|136:32|56:72|64:152,1,195,2|10,1:0|1:0,1:0:0:0:
128,344,133256,5,2,1:0:0:0:
128,344,133473,1,8,1:0:0:0:
192,232,133908,1,2,1:0:0:0:
192,232,134125,1,2,1:2:0:0:
320,232,134560,1,0,1:0:0:0:
320,232,134777,1,2,1:0:0:0:
384,344,135212,1,8,1:0:0:0:
384,344,135430,1,2,1:0:0:0:
240,216,135864,2,0,L|240:152,2,65,4|8|4,1:3|1:0|1:3,0:0:0:0:
176,232,136517,5,4,1:2:0:0:
112,248,136734,1,0,1:0:0:0:
48,272,136951,1,10,1:0:0:0:
8,144,137386,2,0,B|0:72|56:24,1,130,2|8,1:0|1:0,1:0:0:0:
136,120,138256,1,2,1:0:0:0:
200,144,138473,1,2,1:2:0:0:
256,112,138691,1,8,1:0:0:0:
312,80,138908,2,2,B|376:32|456:72|448:152,1,195,2|10,1:0|1:0,1:0:0:0:
384,344,140212,5,2,1:0:0:0:
384,344,140430,1,8,1:0:0:0:
320,232,140864,1,2,1:0:0:0:
320,232,141082,1,2,1:2:0:0:
192,232,141517,1,0,1:0:0:0:
192,232,141734,1,2,1:0:0:0:
128,344,142169,1,8,1:0:0:0:
128,344,142386,1,2,1:0:0:0:
272,216,142821,2,0,L|272:152,2,65,4|8|4,1:3|1:0|1:3,0:0:0:0:
288,280,143473,5,4,1:2:0:0:
256,336,143691,1,0,1:0:0:0:
224,280,143908,1,10,1:0:0:0:
200,152,144343,2,0,B|256:88|312:152,1,130,2|8,1:1|1:0,0:0:0:0:
320,24,145212,1,2,1:0:0:0:
256,8,145430,1,2,1:2:0:0:
192,24,145647,1,8,1:0:0:0:
192,88,145864,2,2,B|200:152|256:168|312:152|320:88,1,195,2|10,1:0|1:0,0:0:0:0:
512,88,147169,5,0,1:0:0:0:
512,88,147386,1,10,1:0:0:0:
512,216,147821,2,0,B|472:280|400:256,1,130,2|8,1:0|1:0,0:0:0:0:
344,136,148691,1,2,1:0:0:0:
320,72,148908,1,2,1:2:0:0:
256,48,149125,1,8,1:0:0:0:
192,72,149343,1,2,1:0:0:0:
192,224,149777,2,0,L|128:224,2,65,4|8|4,1:3|1:0|1:3,0:0:0:0:
224,280,150430,5,4,1:2:0:0:
256,336,150647,1,0,1:0:0:0:
288,280,150864,1,10,1:0:0:0:
312,152,151299,2,0,B|256:88|200:152,1,130,2|8,1:1|1:0,0:0:0:0:
192,24,152169,1,2,1:0:0:0:
256,8,152386,1,2,1:2:0:0:
320,24,152604,1,8,1:0:0:0:
320,88,152821,2,2,B|312:152|256:168|200:152|192:88,1,195,2|10,1:0|1:0,0:0:0:0:
0,88,154125,5,0,1:0:0:0:
0,88,154343,1,10,1:0:0:0:
0,216,154777,2,0,B|40:280|112:256,1,130,2|8,1:0|1:0,0:0:0:0:
168,136,155647,1,2,1:0:0:0:
192,72,155864,1,2,1:2:0:0:
256,48,156082,1,8,1:0:0:0:
320,72,156299,1,2,1:0:0:0:
320,224,156734,2,0,L|384:224,2,65,4|8|4,1:3|1:0|1:3,0:0:0:0:
256,192,157386,5,4,0:2:0:0:
136,256,171299,6,0,B|160:344|256:384|352:344|376:256,1,325,4|8,0:2|0:3,0:0:0:0:
376,128,172821,2,0,B|352:40|256:0|160:40|136:128,1,325,8|0,0:3|0:0,0:0:0:0:
136,127,174125,1,8,0:0:0:0:
136,256,174560,6,0,B|160:344|256:384|352:344|376:256,1,325,8|0,0:0|0:0,0:0:0:0:
256,192,176082,1,8,0:2:0:0:
256,192,176299,1,4,0:3:0:0:
192,128,176517,1,4,0:0:0:0:
192,256,176951,1,8,0:2:0:0:
320,256,177386,1,4,0:0:0:0:
320,128,177821,1,8,0:2:0:0:
352,72,178038,6,0,B|440:96|480:192|440:288|352:312,1,325,8|0,0:0|0:0,0:0:0:0:
288,312,179343,1,8,0:0:0:0:
152,312,179777,2,0,B|64:288|24:192|64:96|152:72,1,325,8|0,0:0|0:0,0:0:0:0:
216,72,181082,1,8,0:0:0:0:
328,136,181517,6,0,B|400:248|256:360|112:248|184:136,1,390,8|4,0:0|0:0,0:0:0:0:
256,192,183038,1,8,0:2:0:0:
256,192,183256,1,4,0:0:0:0:
208,112,184995,6,0,B|208:192|304:192|304:272,2,195,4|8|0,0:2|0:2|0:0,0:0:0:0:
256,80,186517,1,8,0:2:0:0:
304,112,186734,2,0,B|304:192|208:192|208:272,2,195,2|8|0,0:2|0:2|0:0,0:0:0:0:
256,80,188256,1,8,0:2:0:0:
208,112,188473,6,0,B|128:112|128:208|48:208,2,195,2|8|0,0:2|0:2|0:0,0:0:0:0:
256,80,189995,1,8,0:2:0:0:
304,112,190212,2,0,B|384:112|384:208|464:208,2,195,2|8|0,0:2|0:2|0:0,0:0:0:0:
256,144,191734,1,8,0:2:0:0:
256,192,191951,5,2,0:2:0:0:
256,192,192169,12,8,199125,0:0:0:0:
96,256,202604,5,4,1:2:0:0:
72,312,202821,1,0,1:0:0:0:
48,368,203038,1,10,1:0:0:0:
192,368,203473,2,0,B|256:352|320:368,1,130,2|8,1:0|1:0,0:0:0:0:
464,368,204343,1,2,1:0:0:0:
440,312,204560,1,2,1:2:0:0:
416,256,204777,1,8,1:0:0:0:
352,272,204995,2,2,B|256:304|160:272,1,195,2|10,1:0|1:0,0:0:0:0:
96,256,205864,1,8,1:3:0:0:
192,120,206299,5,0,1:0:0:0:
256,120,206517,1,10,1:0:0:0:
320,120,206734,1,0,1:0:0:0:
304,192,206951,2,0,L|200:192,2,97.5,2|0|0,1:0|0:0|1:0,0:0:0:0:
320,264,207821,1,2,1:0:0:0:
288,328,208038,1,2,1:2:0:0:
224,328,208256,1,8,1:0:0:0:
192,264,208473,1,2,1:0:0:0:
392,200,208908,2,0,L|392:136,2,65,4|8|4,1:3|1:0|1:3,0:0:0:0:
416,256,209560,5,4,1:2:0:0:
440,312,209777,1,0,1:0:0:0:
464,368,209995,1,10,1:0:0:0:
320,368,210430,2,0,B|256:352|192:368,1,130,2|8,1:0|1:0,0:0:0:0:
48,368,211299,1,2,1:0:0:0:
72,312,211517,1,2,1:2:0:0:
96,256,211734,1,8,1:0:0:0:
160,272,211951,2,2,B|256:304|352:272,1,195,2|10,1:0|1:0,0:0:0:0:
416,256,212821,1,8,1:3:0:0:
320,120,213256,5,0,1:0:0:0:
256,120,213473,1,10,1:0:0:0:
192,120,213691,1,0,1:0:0:0:
208,192,213908,2,0,L|312:192,2,97.5,2|0|0,1:0|0:0|1:0,0:0:0:0:
192,264,214777,1,2,1:0:0:0:
224,328,214995,1,4,1:3:0:0:
288,328,215212,1,8,1:1:0:0:
320,264,215430,1,2,1:0:0:0:
144,192,215864,2,0,L|144:128,2,65,0|4|8,0:0|1:3|1:3,0:0:0:0:
168,256,216517,5,4,1:2:0:0:
144,320,216734,1,0,1:0:0:0:
80,344,216951,1,10,1:0:0:0:
16,320,217169,1,0,1:0:0:0:
0,256,217386,2,0,B|-8:216|8:176,1,65,2|2,1:0|1:2,0:0:0:0:
24,64,218038,1,0,1:0:0:0:
80,40,218256,1,2,1:0:0:0:
120,88,218473,1,2,1:2:0:0:
184,64,218691,1,8,1:0:0:0:
232,112,218908,2,2,B|312:176|424:144,1,195,2|10,1:0|1:0,0:0:0:0:
480,128,219777,1,8,1:3:0:0:
464,256,220212,5,0,1:0:0:0:
432,312,220430,1,10,1:0:0:0:
376,344,220647,1,0,1:0:0:0:
320,312,220864,2,0,B|256:296|192:312,1,130,2|8,1:0|1:0,0:0:0:0:
224,160,221734,1,2,1:0:0:0:
288,160,221951,1,2,1:2:0:0:
288,224,222169,1,8,1:0:0:0:
224,224,222386,1,2,1:0:0:0:
168,104,222821,1,4,1:3:0:0:
224,64,223038,1,8,1:1:0:0:
288,64,223256,1,4,1:3:0:0:
344,104,223473,5,4,1:2:0:0:
368,168,223691,1,0,1:2:0:0:
424,208,223908,1,10,1:1:0:0:
488,328,224343,2,0,B|480:376|424:392,1,65,2|2,1:0|1:2,0:0:0:0:
368,280,224995,1,0,1:0:0:0:
368,280,225212,1,2,1:0:0:0:
256,216,225647,1,8,1:0:0:0:
256,216,225864,2,2,B|160:216|200:104|112:104,1,195,2|10,1:0|1:0,0:0:0:0:
48,104,226734,1,8,1:3:0:0:
48,240,227169,5,0,1:0:0:0:
80,296,227386,1,10,1:0:0:0:
136,328,227604,1,0,1:0:0:0:
200,312,227821,2,0,B|256:248|312:312,1,130,2|8,1:0|1:0,0:0:0:0:
424,368,228691,2,0,B|480:384|512:320,2,97.5,2|2|2,1:0|1:2|1:0,0:0:0:0:
360,352,229560,1,2,1:0:0:0:
256,192,230212,1,6,1:0:0:0:
