osu file format v14

[General]
AudioFilename: audio.mp3
AudioLeadIn: 0
PreviewTime: 70212
Countdown: 1
SampleSet: Normal
StackLeniency: 0.7
Mode: 0
LetterboxInBreaks: 0
WidescreenStoryboard: 1

[Editor]
Bookmarks: 28551,42464,56377,70290,84203,98116,112029,129420,143333,157246,171160,184855,192029,202464,230290
DistanceSpacing: 1
BeatDivisor: 4
GridSize: 4
TimelineZoom: 1

[Metadata]
Title:Dirty Air
TitleUnicode:Dirty Air
Artist:Two Door Cinema Club
ArtistUnicode:Two Door Cinema Club
Creator:StarCastler
Version:Gens' Blaze
Source:
Tags:tdcc false alarm english pop gens m980
BeatmapID:2336375
BeatmapSetID:1107855

[Difficulty]
HPDrainRate:6
CircleSize:4.5
OverallDifficulty:8
ApproachRate:9
SliderMultiplier:2
SliderTickRate:2

[Events]
//Background and Video events
0,0,"DirtyAirback.jpg",0,0
//Break Periods
2,157586,170699
2,185195,191569
//Storyboard Layer 0 (Background)
//Storyboard Layer 1 (Fail)
//Storyboard Layer 2 (Pass)
//Storyboard Layer 3 (Foreground)
//Storyboard Layer 4 (Overlay)
//Storyboard Sound Samples

[TimingPoints]
14778,434.782608695652,4,1,0,45,1,0
32821,-133.333333333333,4,1,0,40,0,0
33908,-100,4,1,0,45,0,0
34995,-90.9090909090909,4,1,0,50,0,0
35647,-100,4,1,0,45,0,0
39777,-133.333333333333,4,1,0,40,0,0
40864,-100,4,1,0,45,0,0
42604,-66.6666666666667,4,1,0,55,0,0
54777,-57.1428571428571,4,1,0,60,0,0
55864,-57.1428571428571,4,1,0,65,0,0
56517,-33.3333333333333,4,1,0,70,0,0
59995,-32.258064516129,4,1,0,70,0,0
63473,-31.25,4,1,0,70,0,0
65212,-30.3030303030303,4,1,0,70,0,0
66951,-29.4117647058824,4,1,0,70,0,0
70430,-66.6666666666667,4,1,0,65,0,1
84343,-100,4,1,0,45,0,0
88473,-100,4,1,0,40,0,0
89125,-100,4,1,0,45,0,0
90647,-90.9090909090909,4,1,0,50,0,0
91299,-100,4,1,0,45,0,0
95430,-100,4,1,0,40,0,0
96082,-100,4,1,0,45,0,0
98256,-66.6666666666667,4,1,0,55,0,0
110430,-57.1428571428571,4,1,0,60,0,0
111517,-57.1428571428571,4,1,0,65,0,0
112169,-33.3333333333333,4,1,0,70,0,0
115647,-32.258064516129,4,1,0,70,0,0
119125,-31.25,4,1,0,70,0,0
120864,-30.3030303030303,4,1,0,70,0,0
122604,-29.4117647058824,4,1,0,70,0,0
129560,-66.6666666666667,4,1,0,65,0,1
143473,-66.6666666666667,4,1,0,70,0,1
146951,-62.5,4,1,0,70,0,1
150430,-58.8235294117647,4,1,0,70,0,1
157386,-66.6666666666667,4,1,0,60,0,0
192169,-66.6666666666667,4,1,0,55,0,0
199560,-133.333333333333,4,1,0,40,0,0
202169,-133.333333333333,4,1,0,55,0,0
202604,-66.6666666666667,4,1,0,65,0,1
216517,-57.1428571428571,4,1,0,70,0,1
217604,-50,4,1,0,70,0,1
218908,-44.4444444444445,4,1,0,70,0,1
219560,-50,4,1,0,70,0,1
220430,-57.1428571428571,4,1,0,70,0,1
221082,-50,4,1,0,70,0,1
222386,-44.4444444444445,4,1,0,70,0,1
223038,-40,4,1,0,70,0,1
229560,-50,4,1,0,70,0,1
230212,-28.169014084507,4,1,0,70,0,1
230430,-28.169014084507,4,1,0,70,0,0

[Colours]
Combo1 : 225,43,43
Combo2 : 214,204,29
Combo3 : 31,206,237
Combo4 : 245,82,184

[HitObjects]
18,252,28691,5,4,0:0:0:0:
148,191,28908,1,0,0:0:0:0:
30,109,29125,1,8,0:0:0:0:
160,48,29343,1,0,0:0:0:0:
160,48,29560,2,0,P|256:72|352:48,1,200,2|8,0:0|0:0,0:0:0:0:
364,192,30212,2,0,L|404:296,1,100,0|4,0:0|0:0,0:0:0:0:
482,109,30647,2,0,L|446:15,1,100,0|8,0:0|0:0,0:0:0:0:
30,253,31299,5,2,0:0:0:0:
148,335,31517,1,0,0:0:0:0:
160,192,31734,1,8,0:0:0:0:
160,192,31951,2,0,B|216:232|296:152|352:192,1,200,4|0,0:0|0:0,0:0:0:0:
398,55,32604,1,8,0:0:0:0:
255,31,32821,2,0,P|147:14|58:77,1,225.000008583069,6|8,0:0|0:0,0:0:0:0:
438,325,33908,2,0,P|341:305|255:352,2,200,0|8|4,0:0|0:0|0:3,0:0:0:0:
146,192,34995,6,12,L|366:192,1,220.000006713867,12|12,0:3|0:3,0:3:0:0:
98,124,35647,5,4,0:0:0:0:
146,260,35864,1,0,0:0:0:0:
194,124,36082,1,8,0:0:0:0:
82,216,36299,1,0,0:0:0:0:
160,336,36517,2,0,P|256:312|352:336,1,200,2|10,0:0|0:0,0:0:0:0:
206,192,37386,2,0,L|306:192,2,100,4|0|8,0:0|0:0|0:0,0:0:0:0:
484,88,38256,5,2,0:0:0:0:
484,88,38473,2,0,B|436:68|420:16|420:16|404:68|356:88,2,200,0|4|8,0:0|0:0|0:0,0:0:0:0:
28,48,39777,2,0,P|136:30|225:93,1,225.000008583069,6|8,0:0|0:0,0:0:0:0:
301,308,40864,2,0,P|397:289|484:336,2,200,0|8|4,0:0|0:0|0:3,0:0:0:0:
172,294,41951,5,0,0:0:0:0:
256,192,42169,1,8,0:0:0:0:
354,72,42386,1,4,0:3:0:0:
184,115,42604,1,6,0:0:0:0:
476,360,43038,6,0,B|404:336|380:253|380:253|356:336|284:360,2,300.000011444092,8|4|8,0:0|0:0|0:0,0:0:0:0:
504,192,44125,2,0,P|380:120|256:192,1,300.000011444092,6|0,0:0|0:0,0:0:0:0:
199,352,44777,2,0,P|58:337|15:202,1,300.000011444092,8|4,0:0|0:3,0:0:0:0:
160,112,45430,6,0,P|227:84|256:17,1,150.000005722046,0|8,0:0|0:0,0:0:0:0:
256,17,45864,2,0,L|424:268,1,300.000011444092,6|0,0:0|0:0,0:0:0:0:
90,266,46517,1,8,0:0:0:0:
256,304,46734,1,0,0:0:0:0:
159,151,46951,2,0,P|117:91|115:17,1,150.000005722046,6|0,0:0|3:0,0:0:0:0:
395,17,47386,2,0,P|394:90|352:151,1,150.000005722046,8|0,0:0|3:0,0:0:0:0:
132,328,47821,2,0,P|256:256|380:328,2,300.000011444092,4|8|0,0:0|0:0|0:0,0:0:0:0:
408,224,48908,5,12,0:3:0:0:
104,160,49125,1,8,0:0:0:0:
395,40,49343,2,0,B|366:55|366:55|303:0|195:-8|115:40,1,300.000011444092,6|0,0:0|0:0,0:0:0:0:
184,320,49995,2,0,P|256:337|328:320,1,150.000005722046,8|0,0:0|0:0,0:0:0:0:
119,117,50430,2,0,L|119:267,1,150.000005722046,2|0,0:0|3:0,0:0:0:0:
393,267,50864,2,0,L|393:117,1,150.000005722046,8|0,0:0|3:0,0:0:0:0:
112,14,51299,2,0,P|256:50|400:14,2,300.000011444092,4|8|2,0:0|0:0|0:0,0:0:0:0:
448,64,52386,5,0,0:0:0:0:
256,120,52604,1,8,0:0:0:0:
64,64,52821,2,0,B|50:121|61:140|151:113|160:137|40:211|62:248|186:181|201:201|134:265|145:284|201:301,1,300.000011444092,4|0,0:0|0:0,0:0:0:0:
312,88,53473,2,0,P|273:25|204:0,1,150.000005722046,8|0,0:0|3:0,0:0:0:0:
317,291,53908,2,0,P|391:289|448:242,1,150.000005722046,2|0,0:0|3:0,0:0:0:0:
137,194,54343,2,0,P|102:259|114:332,1,150.000005722046,8|0,0:0|3:0,0:0:0:0:
416,64,54777,2,0,P|256:3|96:64,2,350.00000333786,4|8|4,0:0|0:0|0:3,0:0:0:0:
32,216,55864,5,12,0:3:0:0:
256,300,56082,1,4,0:0:0:0:
480,216,56299,1,14,0:3:0:0:
128,56,56517,5,6,0:0:0:0:
128,56,56734,1,2,0:3:0:0:
368,256,56951,1,8,0:0:0:0:
60,312,57169,2,0,B|268:222|92:450|300:360,1,300.000011444092,2|2,0:0|0:3,0:0:0:0:
197,14,57604,5,2,0:3:0:0:
438,229,57821,1,8,0:0:0:0:
131,331,58038,1,6,0:3:0:0:
384,56,58256,5,6,0:0:0:0:
384,56,58473,1,2,0:3:0:0:
144,256,58691,1,8,0:0:0:0:
452,312,58908,2,0,B|244:222|420:450|212:360,1,300.000011444092,2|2,0:0|0:3,0:0:0:0:
496,144,59343,5,2,0:3:0:0:
256,192,59560,1,8,0:0:0:0:
16,240,59777,1,6,0:3:0:0:
208,60,59995,5,4,0:0:0:0:
208,60,60212,1,2,0:3:0:0:
208,324,60430,1,8,0:0:0:0:
88,37,60647,2,0,L|88:347,1,310.000002365112,2|2,0:0|0:3,0:0:0:0:
156,12,61082,5,2,0:3:0:0:
356,192,61299,1,8,0:0:0:0:
156,372,61517,1,6,0:3:0:0:
304,60,61734,5,4,0:0:0:0:
304,60,61951,1,2,0:3:0:0:
304,324,62169,1,8,0:0:0:0:
424,37,62386,2,0,L|424:347,1,310.000002365112,2|2,0:0|0:3,0:0:0:0:
356,12,62821,5,2,0:3:0:0:
124,192,63038,1,8,0:0:0:0:
356,372,63256,1,6,0:3:0:0:
205,32,63473,6,0,L|205:352,1,320,12|2,0:0|0:3,0:0:0:0:
307,32,63908,2,0,L|307:352,1,320,8|2,0:0|0:3,0:0:0:0:
124,45,64343,2,0,B|36:163|86:217|0:336,1,320,8|2,0:0|0:3,0:0:0:0:
388,45,64777,2,0,B|475:163|425:217|512:336,1,320,8|2,0:0|0:3,0:0:0:0:
116,100,65212,6,0,L|316:364,1,330.000003147125,4|2,0:0|0:3,0:0:0:0:
396,100,65647,2,0,L|196:364,1,330.000003147125,8|2,0:0|0:3,0:0:0:0:
36,80,66082,2,0,P|151:196|301:263,1,330.000003147125,2|2,0:0|0:3,0:0:0:0:
475,80,66517,2,0,P|360:196|210:263,1,330.000003147125,8|2,0:0|0:3,0:0:0:0:
40,28,66951,6,0,L|373:94,1,340.000006484985,4|2,0:0|0:3,0:0:0:0:
472,356,67386,2,0,L|138:289,1,340.000006484985,8|2,0:0|0:3,0:0:0:0:
0,0,67821,2,0,L|340:0,1,340.000006484985,2|2,0:0|0:3,0:0:0:0:
512,384,68256,2,0,L|172:384,1,340.000006484985,8|2,0:0|0:3,0:0:0:0:
256,0,68691,5,4,0:0:0:0:
368,347,68908,1,2,0:3:0:0:
73,132,69125,1,8,0:0:0:0:
438,132,69343,1,2,0:3:0:0:
143,347,69560,1,2,0:0:0:0:
256,0,69777,1,2,0:3:0:0:
256,330,69995,1,12,0:0:0:0:
406,24,70430,5,4,0:0:0:0:
284,172,70647,1,0,0:0:0:0:
104,104,70864,2,0,B|131:22|170:28|222:142|252:134|240:9|270:-15|335:41,1,300.000011444092,8|2,0:0|0:0,0:0:0:0:
421,268,71517,2,0,P|291:340|142:342,1,300.000011444092,4|0,0:0|0:0,0:0:0:0:
336,42,72169,5,4,0:0:0:0:
273,273,72386,1,0,0:0:0:0:
104,104,72604,1,8,0:0:0:0:
421,268,72821,2,0,P|291:340|142:342,1,300.000011444092,6|4,0:0|0:3,0:0:0:0:
106,24,73473,2,0,L|406:24,1,300.000011444092,8|4,0:0|0:0,0:0:0:0:
165,225,74125,5,0,0:0:0:0:
408,104,74343,2,0,B|380:22|341:28|289:142|259:134|271:9|241:-15|176:41,1,300.000011444092,8|2,0:0|0:0,0:0:0:0:
91,268,74995,2,0,P|220:340|369:342,1,300.000011444092,4|0,0:0|0:0,0:0:0:0:
176,42,75647,5,4,0:0:0:0:
239,273,75864,1,0,0:0:0:0:
408,104,76082,1,8,0:0:0:0:
91,268,76299,2,0,P|220:340|369:342,1,300.000011444092,6|4,0:0|0:3,0:0:0:0:
256,0,76951,1,4,0:0:0:0:
91,268,77169,1,10,0:2:0:0:
421,268,77386,5,4,0:0:0:0:
421,268,77604,1,0,0:0:0:0:
409,83,77821,2,0,B|300:164|293:52|285:-58|177:21,1,300.000011444092,8|2,0:0|0:0,0:0:0:0:
31,131,78473,2,0,P|90:267|213:350,1,300.000011444092,4|0,0:0|0:0,0:0:0:0:
176,21,79125,5,6,0:0:0:0:
256,192,79343,1,0,0:0:0:0:
410,84,79560,1,8,0:0:0:0:
212,349,79777,2,0,P|359:339|478:251,1,300.000011444092,4|4,0:0|0:3,0:0:0:0:
406,24,80430,2,0,L|106:24,1,300.000011444092,8|4,0:0|0:0,0:0:0:0:
421,116,81082,5,0,0:0:0:0:
102,300,81299,2,0,B|211:219|218:331|226:442|334:362,1,300.000011444092,8|2,0:0|0:0,0:0:0:0:
480,252,81951,2,0,P|421:116|298:33,1,300.000011444092,4|0,0:0|0:0,0:0:0:0:
335,362,82604,5,4,0:0:0:0:
256,192,82821,1,0,0:0:0:0:
101,299,83038,1,8,0:0:0:0:
297,33,83256,2,0,P|150:43|31:131,1,300.000011444092,6|12,0:0|0:3,0:0:0:0:
256,192,83908,1,4,0:0:0:0:
481,131,84125,1,14,0:3:0:0:
376,288,84343,5,4,0:0:0:0:
376,288,84560,1,0,0:0:0:0:
256,192,84777,2,0,B|225:158|245:137|214:103,1,100,8|0,0:0|0:0,0:0:0:0:
88,32,85212,2,0,P|6:79|14:174,1,200,2|10,0:0|0:0,0:0:0:0:
206,351,86082,2,0,L|306:351,2,100,4|0|8,0:0|0:0|0:0,0:0:0:0:
512,160,86951,5,2,0:0:0:0:
512,160,87169,1,0,0:0:0:0:
396,232,87386,1,8,0:0:0:0:
395,231,87604,2,0,P|351:211|324:169,1,100,4|0,0:0|3:0,0:0:0:0:
187,169,88038,2,0,P|160:211|116:231,1,100,0|8,0:0|0:0,0:0:0:0:
32,55,88473,2,0,P|126:37|198:101,1,200,6|0,0:0|0:0,0:0:0:0:
320,48,89125,2,0,P|414:29|486:93,3,200,8|0|8|4,0:0|0:0|0:0|0:3,0:0:0:0:
366,192,90647,6,12,L|146:192,1,220.000006713867,12|12,0:3|0:3,0:3:0:0:
392,272,91299,5,4,0:0:0:0:
392,272,91517,1,0,0:0:0:0:
206,312,91734,2,0,L|306:312,1,100,8|0,0:0|0:0,0:0:0:0:
120,272,92169,2,0,B|111:233|121:196|199:237|216:210|147:156|177:132|215:124,1,200,2|10,0:0|0:0,0:0:0:0:
295,124,93038,2,0,P|309:171|347:202,2,100,4|0|8,0:0|0:0|0:0,0:0:0:0:
0,272,93908,5,2,0:0:0:0:
0,272,94125,1,0,0:0:0:0:
116,344,94343,1,8,0:0:0:0:
116,343,94560,2,0,P|160:322|187:280,1,100,4|0,0:0|3:0,0:0:0:0:
324,281,94995,2,0,P|350:322|395:343,1,100,0|8,0:0|0:0,0:0:0:0:
479,160,95430,2,0,P|385:176|322:104,1,200,6|0,0:0|0:0,0:0:0:0:
175,160,96082,2,0,P|81:176|18:104,3,200,8|0|8|0,0:0|0:0|0:0|0:0,0:0:0:0:
208,16,97604,5,4,0:3:0:0:
320,112,97821,1,10,0:2:0:0:
176,208,98038,1,12,0:3:0:0:
352,304,98256,1,4,0:0:0:0:
120,72,98691,6,0,B|160:48|160:48|212:92|300:92|352:48|352:48|392:72,2,300.000011444092,8|4|8,0:0|0:0|0:0,0:0:0:0:
320,344,99777,2,0,P|445:276|445:133,1,300.000011444092,6|4,0:0|0:3,0:0:0:0:
66,133,100430,2,0,P|66:276|191:344,1,300.000011444092,8|4,0:0|0:0,0:0:0:0:
392,197,101082,6,0,P|333:151|320:79,1,150.000005722046,0|8,0:0|0:0,0:0:0:0:
320,80,101517,2,0,B|224:176|144:88|48:184,1,300.000011444092,6|0,0:0|0:0,0:0:0:0:
464,201,102169,2,0,B|416:249|376:205|328:253,1,150.000005722046,8|0,0:0|3:0,0:0:0:0:
178,155,102604,2,0,L|222:11,1,150.000005722046,6|0,0:0|3:0,0:0:0:0:
334,229,103038,2,0,L|289:372,1,150.000005722046,8|0,0:0|3:0,0:0:0:0:
128,88,103473,2,0,P|256:21|384:88,2,300.000011444092,4|8|4,0:0|0:0|0:3,0:0:0:0:
408,156,104560,5,12,0:3:0:0:
103,228,104777,1,8,0:0:0:0:
436,256,104995,2,0,B|411:277|411:277|336:241|230:261|165:328,1,300.000011444092,6|0,0:0|0:0,0:0:0:0:
416,352,105647,2,0,P|482:321|511:254,1,150.000005722046,8|0,0:0|0:0,0:0:0:0:
324,49,106082,2,0,P|256:22|188:49,1,150.000005722046,2|0,0:0|3:0,0:0:0:0:
188,335,106517,2,0,P|256:362|324:335,1,150.000005722046,8|0,0:0|3:0,0:0:0:0:
470,154,106951,2,0,B|398:172|351:240|351:240|344:157|292:106,2,300.000011444092,4|8|2,0:0|0:0|0:0,0:0:0:0:
324,335,108038,6,0,P|256:362|188:335,1,150.000005722046,0|8,0:0|0:0,0:0:0:0:
42,154,108473,2,0,P|106:36|220:105,2,300.000011444092,4|4|4,0:0|0:2|0:3,0:0:0:0:
298,134,109560,2,0,P|284:61|242:0,1,150.000005722046,6|0,0:0|3:0,0:0:0:0:
213,249,109995,2,0,P|227:322|269:383,1,150.000005722046,8|0,0:0|3:0,0:0:0:0:
416,64,110430,2,0,P|256:125|96:64,2,350.00000333786,4|8|4,0:0|0:0|0:3,0:0:0:0:
480,216,111517,5,12,0:3:0:0:
256,300,111734,1,4,0:0:0:0:
32,216,111951,1,14,0:3:0:0:
392,124,112169,5,6,0:0:0:0:
392,124,112386,1,2,0:3:0:0:
120,260,112604,1,8,0:0:0:0:
304,49,112821,2,0,L|209:333,1,300.000011444092,6|2,0:0|0:3,0:0:0:0:
408,154,113256,5,2,0:3:0:0:
104,230,113473,1,8,0:0:0:0:
303,49,113691,2,0,P|447:64|511:192,1,300.000011444092,6|2,0:0|0:3,0:0:0:0:
104,154,114125,5,2,0:3:0:0:
408,230,114343,1,8,0:0:0:0:
0,192,114560,2,0,P|64:64|208:49,1,300.000011444092,6|2,0:0|0:3,0:0:0:0:
490,267,114995,5,2,0:3:0:0:
256,320,115212,1,8,0:0:0:0:
22,267,115430,1,2,0:3:0:0:
368,76,115647,5,6,0:0:0:0:
368,76,115864,1,2,0:3:0:0:
144,308,116082,1,8,0:0:0:0:
368,76,116299,2,0,L|58:76,1,310.000002365112,4|2,0:0|0:3,0:0:0:0:
424,232,116734,5,2,0:3:0:0:
88,152,116951,1,8,0:0:0:0:
424,232,117169,1,2,0:3:0:0:
176,340,117386,5,6,0:0:0:0:
176,340,117604,1,2,0:3:0:0:
336,44,117821,1,8,0:0:0:0:
176,340,118038,2,0,L|486:340,1,310.000002365112,4|2,0:0|0:3,0:0:0:0:
120,268,118473,6,0,B|224:264|256:208|256:208|288:264|392:268,1,310.000002365112,2|8,0:3|0:0,0:0:0:0:
43,332,118908,1,0,0:0:0:0:
469,52,119125,6,0,B|149:52,1,320,12|2,0:0|0:3,0:0:0:0:
43,332,119560,2,0,B|363:332,1,320,8|2,0:0|0:3,0:0:0:0:
487,31,119995,2,0,B|363:83|299:-21|175:31,1,320,8|2,0:0|0:3,0:0:0:0:
25,353,120430,2,0,B|149:301|213:405|337:353,1,320,8|2,0:0|0:3,0:0:0:0:
154,33,120864,6,0,L|96:357,1,330.000003147125,6|2,0:0|0:3,0:3:0:0:
358,351,121299,2,0,L|415:26,1,330.000003147125,8|2,0:0|0:3,0:3:0:0:
84,29,121734,2,0,P|10:174|29:336,1,330.000003147125,4|2,0:0|0:3,0:3:0:0:
428,355,122169,2,0,P|501:209|482:47,1,330.000003147125,8|2,0:0|0:3,0:3:0:0:
0,44,122604,6,0,L|0:384,1,340.000006484985,6|2,0:0|0:3,0:0:0:0:
512,340,123038,2,0,L|512:0,1,340.000006484985,8|2,0:0|0:3,0:0:0:0:
0,384,123473,2,0,L|340:384,1,340.000006484985,2|2,0:0|0:3,0:0:0:0:
512,0,123908,2,0,L|172:0,1,340.000006484985,8|2,0:0|0:3,0:0:0:0:
256,384,124343,5,6,0:0:0:0:
369,37,124560,1,2,0:3:0:0:
74,252,124777,1,8,0:0:0:0:
439,252,124995,1,2,0:3:0:0:
144,37,125212,1,2,0:0:0:0:
256,384,125430,1,2,0:3:0:0:
256,54,125647,1,12,0:0:0:0:
256,192,126082,12,12,129125,0:0:0:0:
119,267,129560,5,4,0:0:0:0:
336,325,129777,1,0,0:0:0:0:
278,106,129995,2,0,B|212:72|189:-7|189:-7|128:49|54:46,1,300.000011444092,8|2,0:0|0:0,0:0:0:0:
233,277,130647,2,0,P|324:385|457:337,1,300.000011444092,4|0,0:0|0:0,0:0:0:0:
100,96,131299,5,4,0:0:0:0:
284,220,131517,1,0,0:0:0:0:
432,56,131734,1,8,0:0:0:0:
233,277,131951,2,0,P|324:385|457:337,1,300.000011444092,6|4,0:0|0:3,0:0:0:0:
406,24,132604,2,0,L|106:24,1,300.000011444092,8|4,0:0|0:0,0:0:0:0:
168,296,133256,5,0,0:0:0:0:
233,106,133473,2,0,B|299:72|322:-7|322:-7|383:49|457:46,1,300.000011444092,8|2,0:0|0:0,0:0:0:0:
278,277,134125,2,0,P|187:385|54:337,1,300.000011444092,4|0,0:0|0:0,0:0:0:0:
412,96,134777,5,4,0:0:0:0:
228,220,134995,1,0,0:0:0:0:
80,56,135212,1,8,0:0:0:0:
278,277,135430,2,0,P|187:385|54:337,1,300.000011444092,6|4,0:0|0:3,0:0:0:0:
256,192,136082,1,4,0:0:0:0:
457,337,136299,1,10,0:2:0:0:
55,245,136517,5,4,0:0:0:0:
55,245,136734,1,0,0:0:0:0:
310,98,136951,2,0,B|194:-14|154:162|38:50,1,300.000011444092,8|2,0:0|0:0,0:0:0:0:
233,277,137604,2,0,P|324:385|457:337,1,300.000011444092,4|0,0:0|0:0,0:0:0:0:
38,50,138256,5,6,0:0:0:0:
165,303,138473,1,0,0:0:0:0:
106,24,138691,1,8,0:0:0:0:
233,277,138908,2,0,P|324:385|457:337,1,300.000011444092,4|0,0:0|0:0,0:0:0:0:
406,24,139560,2,0,L|106:24,1,300.000011444092,8|4,0:0|0:0,0:0:0:0:
55,245,140212,5,0,0:0:0:0:
202,98,140430,2,0,B|318:-14|358:162|474:50,1,300.000011444092,8|2,0:0|0:0,0:0:0:0:
278,277,141082,2,0,P|187:385|54:337,1,300.000011444092,4|0,0:0|0:0,0:0:0:0:
474,50,141734,5,6,0:0:0:0:
347,303,141951,1,0,0:0:0:0:
406,24,142169,1,8,0:0:0:0:
278,277,142386,2,0,P|187:385|54:337,1,300.000011444092,4|10,0:0|0:2,0:0:0:0:
256,152,143038,1,10,0:2:0:0:
457,337,143256,1,10,0:2:0:0:
457,337,143364,1,6,0:3:0:0:
457,337,143473,1,4,0:0:0:0:
510,57,143691,5,4,0:3:0:0:
510,57,143908,2,0,B|474:-7|418:-23|426:169|378:169|386:-23|330:-7|294:57,1,300.000011444092,8|2,0:0|0:0,0:0:0:0:
248,344,144560,2,0,B|156:344|128:341|173:220|127:208|105:334|79:323|0:277,1,300.000011444092,4|4,0:0|0:3,0:0:0:0:
2,57,145212,6,0,B|38:-7|94:-23|86:169|134:169|126:-23|182:-7|218:57,1,300.000011444092,4|8,0:0|0:0,0:0:0:0:
264,344,145864,2,0,B|355:344|383:341|338:220|384:208|406:334|432:323|511:277,1,300.000011444092,6|4,0:0|0:3,0:0:0:0:
383,71,146517,2,0,P|255:5|128:72,1,300.000011444092,8|4,0:0|0:0,0:0:0:0:
384,313,147169,5,0,0:0:0:0:
433,33,147386,2,0,P|364:131|365:11,1,320,8|2,0:0|0:0,0:0:0:0:
480,244,148038,2,0,B|544:308|499:389|499:389|406:388|383:299,1,320,4|4,0:0|0:3,0:0:0:0:
78,33,148691,6,0,P|147:131|146:11,1,320,4|8,0:0|0:0,0:0:0:0:
32,244,149343,2,0,B|-32:308|12:389|12:389|105:388|128:299,1,320,6|4,0:0|0:3,0:0:0:0:
256,24,149995,1,4,0:0:0:0:
384,300,150212,1,10,0:2:0:0:
80,300,150430,5,4,0:0:0:0:
80,300,150647,1,0,0:0:0:0:
160,40,150864,1,8,0:0:0:0:
256,280,151082,1,0,0:0:0:0:
352,40,151299,1,2,0:0:0:0:
96,152,151517,2,0,B|232:152|232:152|256:128|256:128|280:152|280:152|416:152,1,340.000006484985,4|4,0:0|0:3,0:0:0:0:
184,56,152169,5,6,0:0:0:0:
212,312,152386,1,0,0:0:0:0:
416,152,152604,1,8,0:0:0:0:
96,152,152821,2,0,B|232:152|232:152|256:128|256:128|280:152|280:152|416:152,1,340.000006484985,4|4,0:0|0:3,0:0:0:0:
112,79,153473,2,0,P|256:2|400:79,1,340.000006484985,8|4,0:0|0:0,0:0:0:0:
68,20,154125,5,0,0:0:0:0:
256,152,154343,1,8,0:0:0:0:
444,20,154560,1,0,0:0:0:0:
416,232,154777,1,2,0:0:0:0:
416,232,154995,2,0,B|280:232|280:232|256:256|256:256|232:232|232:232|96:232,1,340.000006484985,4|4,0:0|0:3,0:0:0:0:
404,60,155647,5,6,0:0:0:0:
404,60,155864,1,0,0:0:0:0:
108,60,156082,1,8,0:0:0:0:
416,232,156299,2,0,B|280:232|280:232|256:256|256:256|232:232|232:232|96:232,1,340.000006484985,4|6,0:0|0:3,0:0:0:0:
256,8,156951,1,6,0:3:0:0:
416,232,157169,1,6,0:3:0:0:
32,32,157386,1,4,0:0:0:0:
60,55,171299,6,0,P|199:20|302:120,2,300.000011444092,4|8|4,0:0|0:0|0:3,0:0:0:0:
406,192,172386,2,0,L|106:192,1,300.000011444092,2|2,0:2|0:2,0:0:0:0:
452,328,173038,6,0,P|312:363|209:263,2,300.000011444092,4|8|4,0:3|0:0|0:3,0:0:0:0:
106,192,174125,2,0,L|406:192,1,300.000011444092,2|2,0:2|0:2,0:0:0:0:
8,79,174777,6,0,B|93:89|143:42|144:1|92:-22|59:23|81:59|147:74|216:23,2,300.000011444092,4|8|4,0:3|0:0|0:3,0:0:0:0:
296,24,175864,1,2,0:2:0:0:
296,24,176082,1,2,0:2:0:0:
304,40,176191,1,2,0:2:0:0:
312,56,176299,1,4,0:3:0:0:
464,288,176517,5,8,0:0:0:0:
448,296,176625,1,0,0:0:0:0:
264,304,176843,1,2,0:3:0:0:
248,312,176951,1,0,0:0:0:0:
64,320,177169,1,2,0:2:0:0:
48,328,177277,1,0,0:0:0:0:
32,336,177386,1,0,0:0:0:0:
224,192,177604,1,8,0:0:0:0:
240,184,177712,1,0,0:0:0:0:
256,176,177821,1,4,0:0:0:0:
272,184,177930,1,2,0:2:0:0:
288,192,178038,1,2,0:2:0:0:
312,56,178256,6,0,B|390:27|458:28|458:28|482:92|482:175,2,300.000011444092,4|8|4,0:3|0:0|0:3,0:0:0:0:
406,192,179343,2,0,L|106:192,1,300.000011444092,2|2,0:2|0:2,0:0:0:0:
200,328,179995,6,0,B|121:356|53:355|53:355|29:291|29:208,2,300.000011444092,4|8|4,0:3|0:0|0:3,0:0:0:0:
168,80,181082,1,8,0:0:0:0:
152,88,181191,1,2,0:2:0:0:
136,96,181299,1,4,0:3:0:0:
120,88,181408,1,2,0:2:0:0:
104,80,181517,1,2,0:2:0:0:
360,240,181734,6,0,B|288:256|256:339|256:339|224:256|152:240,2,300.000011444092,4|8|4,0:3|0:0|0:3,0:0:0:0:
360,68,182821,1,8,0:0:0:0:
152,68,183038,1,2,0:2:0:0:
136,76,183147,1,0,0:0:0:0:
120,84,183256,1,0,0:0:0:0:
144,296,183473,6,0,P|256:380|368:296,3,300.000011444092,4|8|4|8,0:3|0:0|0:3|0:0,0:0:0:0:
256,192,184995,1,4,0:0:0:0:
256,192,192169,12,4,199125,3:0:0:0:
63,191,199560,6,0,P|127:158|192:192,1,150.000005722046,8|0,0:0|0:0,0:0:0:0:
192,192,200430,2,0,P|256:159|320:192,1,150.000005722046,8|0,0:0|0:0,0:0:0:0:
320,192,201299,2,0,P|384:159|448:192,1,150.000005722046,8|0,0:0|0:0,0:0:0:0:
32,32,202169,1,2,2:0:0:0:
428,311,202604,5,4,0:0:0:0:
166,381,202821,1,0,0:0:0:0:
285,117,203038,2,0,P|211:24|193:142,1,300.000011444092,8|2,0:0|0:0,0:0:0:0:
400,252,203691,2,0,P|299:354|161:316,1,300.000011444092,4|0,0:0|0:0,0:0:0:0:
381,88,204343,5,4,0:0:0:0:
78,131,204560,1,0,0:0:0:0:
378,14,204777,1,8,0:0:0:0:
161,316,204995,2,0,P|299:354|400:252,1,300.000011444092,6|8,0:0|0:0,0:0:0:0:
399,232,205538,1,0,0:0:0:0:
390,213,205647,1,4,0:3:0:0:
374,201,205756,1,2,0:2:0:0:
355,194,205864,1,2,0:2:0:0:
83,311,206082,5,4,0:0:0:0:
345,381,206299,1,0,0:0:0:0:
226,117,206517,2,0,P|300:24|318:142,1,300.000011444092,8|2,0:0|0:0,0:0:0:0:
111,252,207169,2,0,P|212:354|350:316,1,300.000011444092,4|0,0:0|0:0,0:0:0:0:
130,88,207821,5,4,0:0:0:0:
433,131,208038,1,0,0:0:0:0:
133,14,208256,1,8,0:0:0:0:
350,316,208473,2,0,P|212:354|111:252,1,300.000011444092,6|8,0:0|0:0,0:0:0:0:
256,36,209125,1,4,0:3:0:0:
401,253,209343,1,10,0:2:0:0:
111,253,209560,5,4,0:0:0:0:
111,253,209777,1,0,0:0:0:0:
328,52,209995,2,0,P|466:43|499:178,1,300.000011444092,8|2,0:0|0:0,0:0:0:0:
336,312,210647,2,0,B|224:256|288:128|176:72,1,300.000011444092,4|0,0:0|0:0,0:0:0:0:
403,130,211299,5,6,0:0:0:0:
109,254,211517,1,0,0:0:0:0:
403,130,211734,1,8,0:0:0:0:
12,206,211951,2,0,P|46:341|184:332,1,300.000011444092,4|8,0:0|0:0,0:0:0:0:
200,318,212495,1,0,0:0:0:0:
212,300,212604,1,4,0:3:0:0:
218,280,212712,1,2,0:2:0:0:
217,259,212821,1,2,0:2:0:0:
428,120,213038,5,4,0:0:0:0:
428,120,213256,1,0,0:0:0:0:
184,52,213473,2,0,P|46:43|13:178,1,300.000011444092,8|2,0:0|0:0,0:0:0:0:
176,312,214125,2,0,B|288:256|224:128|336:72,1,300.000011444092,4|0,0:0|0:0,0:0:0:0:
109,130,214777,5,4,0:3:0:0:
403,254,214995,1,8,0:2:0:0:
403,278,215104,1,8,0:2:0:0:
379,278,215212,1,8,0:2:0:0:
379,254,215321,1,8,0:2:0:0:
109,254,215647,1,8,0:2:0:0:
109,278,215756,1,8,0:2:0:0:
274,114,216082,1,8,0:2:0:0:
282,84,216191,1,8,0:2:0:0:
256,68,216299,1,8,0:2:0:0:
230,84,216408,1,8,0:2:0:0:
238,114,216517,1,4,0:0:0:0:
191,283,216734,5,4,0:3:0:0:
440,188,216951,2,4,B|498:180|532:132|486:59|433:22|348:4|315:51|328:109,1,350.00000333786,8|2,0:0|0:0,0:0:0:0:
204,288,217604,2,0,B|220:348|177:408|84:389|18:343|-32:262|10:201|72:196,1,400,4|4,0:0|0:3,0:0:0:0:
380,252,218256,5,4,0:1:0:0:
111,279,218473,1,0,0:1:0:0:
45,17,218691,1,8,0:1:0:0:
216,291,218908,2,0,B|234:358|180:422|79:406|3:353|-45:263|-5:191|65:185,1,450.000017166138,6|0,0:1|0:0,0:1:0:0:
428,104,219560,2,0,P|256:17|84:104,1,400,8|4,0:0|0:0,0:0:0:0:
428,104,220212,5,4,0:3:0:0:
328,256,220430,2,0,B|340:315|400:352|462:330|462:330|504:278|491:210|439:177,1,350.00000333786,8|2,0:0|0:0,0:0:0:0:
76,204,221082,2,0,B|11:171|4:88|54:33|54:33|122:6|198:40|207:112,1,400,4|4,0:0|0:3,0:0:0:0:
64,368,221734,5,4,0:0:0:0:
108,109,221951,1,0,0:0:0:0:
367,155,222169,1,8,0:0:0:0:
67,208,222386,2,0,B|0:161|-7:68|39:8|39:8|111:-13|197:24|217:102,1,450.000017166138,6|8,0:0|0:0,0:0:0:0:
400,352,223038,1,4,0:3:0:0:
400,208,223256,1,8,0:0:0:0:
400,280,223364,1,0,0:0:0:0:
400,352,223473,1,4,0:0:0:0:
112,280,223691,5,4,0:3:0:0:
436,316,223908,2,0,B|422:192|300:192|300:192|256:192|212:192|212:192|90:192|76:68,1,500,8|2,0:0|0:0,0:0:0:0:
436,68,224560,2,0,B|422:192|300:192|300:192|256:192|212:192|212:192|90:192|76:316,1,500,4|0,0:0|0:0,0:0:0:0:
456,384,225212,5,4,0:0:0:0:
256,124,225430,1,0,0:0:0:0:
56,384,225647,1,8,0:0:0:0:
432,164,225864,2,0,P|256:16|80:164,1,500,6|4,0:0|0:3,0:0:0:0:
496,140,226517,1,8,0:0:0:0:
16,244,226734,1,2,2:0:0:0:
400,84,226951,5,4,0:0:0:0:
400,84,227169,1,0,0:0:0:0:
331,338,227386,1,8,0:0:0:0:
146,152,227604,1,0,0:0:0:0:
400,84,227821,1,2,0:0:0:0:
400,84,228038,2,0,P|317:284|145:152,1,500,4|0,0:0|0:0,0:0:0:0:
356,352,228691,6,0,P|230:219|229:36,2,375,6|0|0,0:0|0:0|0:0,0:0:0:0:
360,48,229560,2,2,B|172:68|340:316|152:336,1,400,12|0,0:0|0:0,0:0:0:0:
360,48,230212,2,0,L|152:336,1,355.000001354217,6|0,0:0|3:0,0:0:0:0:
