osu file format v14

[General]
AudioFilename: audio.mp3
AudioLeadIn: 0
PreviewTime: 105488
Countdown: 0
SampleSet: Soft
StackLeniency: 0.4
Mode: 0
LetterboxInBreaks: 0
WidescreenStoryboard: 1

[Editor]
Bookmarks: 16020,38742,50103,61464,84186,95550,106910,129632,140993,158045,180766,209169
DistanceSpacing: 1
BeatDivisor: 4
GridSize: 4
TimelineZoom: 2.4

[Metadata]
Title:Cigarettes in the Theatre
TitleUnicode:Cigarettes in the Theatre
Artist:Two Door Cinema Club
ArtistUnicode:Two Door Cinema Club
Creator:entsetzen
Version:Myxo's Normal
Source:
Tags:tdcc tourist history british indie rock english fisky myxo myxomatosis elinor eli [_eli_]
BeatmapID:3381782
BeatmapSetID:1598238

[Difficulty]
HPDrainRate:4
CircleSize:3
OverallDifficulty:4
ApproachRate:5
SliderMultiplier:1
SliderTickRate:1

[Events]
//Background and Video events
0,0,"anthony-intraversato-vYRAP3yMa3I-unsplash.jpg",0,0
//Break Periods
2,84320,94284
2,132606,139727
//Storyboard Layer 0 (Background)
//Storyboard Layer 1 (Fail)
//Storyboard Layer 2 (Pass)
//Storyboard Layer 3 (Foreground)
//Storyboard Layer 4 (Overlay)
//Storyboard Sound Samples

[TimingPoints]
4594,355.029585798817,4,2,1,50,1,0
4594,-100,4,2,1,50,0,0
28824,-100,4,2,1,5,0,0
28913,-100,4,2,1,50,0,0
31665,-100,4,2,1,5,0,0
31753,-100,4,2,1,50,0,0
38676,-100,4,2,1,70,0,0
38943,-100,4,2,1,5,0,0
39031,-100,4,2,1,70,0,0
41783,-100,4,2,1,5,0,0
41872,-100,4,2,1,70,0,0
44623,-100,4,2,1,5,0,0
44712,-100,4,2,1,70,0,0
47463,-100,4,2,1,5,0,0
47552,-100,4,2,1,70,0,0
50037,-100,4,2,1,50,0,0
60244,-100,4,2,1,5,0,0
60333,-100,4,2,1,50,0,0
60599,-100,4,2,1,5,0,0
60688,-100,4,2,1,50,0,0
61398,-83.3333333333333,4,2,1,85,0,1
64505,-83.3333333333333,4,2,1,5,0,1
64594,-83.3333333333333,4,2,1,85,0,1
64860,-83.3333333333333,4,2,1,5,0,1
64949,-83.3333333333333,4,2,1,85,0,1
65570,-83.3333333333333,4,2,1,5,0,1
65659,-83.3333333333333,4,2,1,85,0,1
65925,-83.3333333333333,4,2,1,5,0,1
66014,-83.3333333333333,4,2,1,85,0,1
66280,-83.3333333333333,4,2,1,5,0,1
66369,-83.3333333333333,4,2,1,85,0,1
67700,-83.3333333333333,4,2,1,5,0,1
67789,-83.3333333333333,4,2,1,85,0,1
69120,-83.3333333333333,4,2,1,5,0,1
69209,-83.3333333333333,4,2,1,85,0,1
70185,-83.3333333333333,4,2,1,5,0,1
70274,-83.3333333333333,4,2,1,85,0,1
70895,-83.3333333333333,4,2,1,5,0,1
70984,-83.3333333333333,4,2,1,85,0,1
75866,-83.3333333333333,4,2,1,5,0,1
75954,-83.3333333333333,4,2,1,85,0,1
76221,-83.3333333333333,4,2,1,5,0,1
76309,-83.3333333333333,4,2,1,85,0,1
76931,-83.3333333333333,4,2,1,5,0,1
77020,-83.3333333333333,4,2,1,85,0,1
77286,-83.3333333333333,4,2,1,5,0,1
77375,-83.3333333333333,4,2,1,85,0,1
77641,-83.3333333333333,4,2,1,5,0,1
77730,-83.3333333333333,4,2,1,85,0,1
81546,-83.3333333333333,4,2,1,5,0,1
81635,-83.3333333333333,4,2,1,85,0,1
82256,-83.3333333333333,4,2,1,5,0,1
82345,-83.3333333333333,4,2,1,85,0,1
83588,-83.3333333333333,4,2,1,50,0,1
83765,-83.3333333333333,4,2,1,85,0,1
84120,-100,4,2,1,70,0,0
84386,-100,4,2,1,5,0,0
84475,-100,4,2,1,70,0,0
87227,-100,4,2,1,5,0,0
87315,-100,4,2,1,70,0,0
89357,-100,4,2,1,5,0,0
89446,-100,4,2,1,70,0,0
90067,-100,4,2,1,5,0,0
90156,-100,4,2,1,70,0,0
92907,-100,4,2,1,5,0,0
92996,-100,4,2,1,70,0,0
95484,355.029585798817,4,2,1,70,1,0
96016,-100,4,2,1,50,0,0
105691,-100,4,2,1,5,0,0
105779,-100,4,2,1,50,0,0
106046,-100,4,2,1,5,0,0
106134,-100,4,2,1,50,0,0
106844,-83.3333333333333,4,2,1,85,0,1
109951,-83.3333333333333,4,2,1,5,0,1
110040,-83.3333333333333,4,2,1,85,0,1
110306,-83.3333333333333,4,2,1,5,0,1
110395,-83.3333333333333,4,2,1,85,0,1
111016,-83.3333333333333,4,2,1,5,0,1
111105,-83.3333333333333,4,2,1,85,0,1
111371,-83.3333333333333,4,2,1,5,0,1
111460,-83.3333333333333,4,2,1,85,0,1
111726,-83.3333333333333,4,2,1,5,0,1
111815,-83.3333333333333,4,2,1,85,0,1
113146,-83.3333333333333,4,2,1,5,0,1
113235,-83.3333333333333,4,2,1,85,0,1
114566,-83.3333333333333,4,2,1,5,0,1
114655,-83.3333333333333,4,2,1,85,0,1
115631,-83.3333333333333,4,2,1,5,0,1
115720,-83.3333333333333,4,2,1,85,0,1
116341,-83.3333333333333,4,2,1,5,0,1
116430,-83.3333333333333,4,2,1,85,0,1
121312,-83.3333333333333,4,2,1,5,0,1
121401,-83.3333333333333,4,2,1,85,0,1
126992,-83.3333333333333,4,2,1,5,0,1
127081,-83.3333333333333,4,2,1,85,0,1
128057,-83.3333333333333,4,2,1,5,0,1
128146,-83.3333333333333,4,2,1,85,0,1
129566,-100,4,2,1,80,0,0
129833,-100,4,2,1,5,0,0
129921,-100,4,2,1,80,0,0
131608,-100,4,2,1,5,0,0
131697,-100,4,2,1,80,0,0
132673,-100,4,2,1,5,0,0
132762,-100,4,2,1,80,0,0
133649,-100,4,2,1,70,0,0
135513,-100,4,2,1,5,0,0
135602,-100,4,2,1,70,0,0
138353,-100,4,2,1,5,0,0
138442,-100,4,2,1,70,0,0
140927,-100,4,2,1,50,0,0
157791,-100,4,2,1,70,0,0
157979,355.029585798817,4,2,1,70,1,1
157979,-83.3333333333333,4,2,1,70,0,1
158245,-83.3333333333333,4,2,1,5,0,1
158334,-83.3333333333333,4,2,1,70,0,1
159665,-83.3333333333333,4,2,1,5,0,1
159754,-83.3333333333333,4,2,1,70,0,1
161085,-83.3333333333333,4,2,1,5,0,1
161174,-83.3333333333333,4,2,1,70,0,1
164280,-83.3333333333333,4,2,1,5,0,1
164369,-83.3333333333333,4,2,1,70,0,1
166765,-83.3333333333333,4,2,1,5,0,1
166854,-83.3333333333333,4,2,1,70,0,1
169606,-83.3333333333333,4,2,1,5,0,1
169694,-83.3333333333333,4,2,1,70,0,1
171026,-83.3333333333333,4,2,1,5,0,1
171115,-83.3333333333333,4,2,1,70,0,1
172446,-83.3333333333333,4,2,1,5,0,1
172535,-83.3333333333333,4,2,1,70,0,1
178126,-83.3333333333333,4,2,1,5,0,1
178215,-83.3333333333333,4,2,1,70,0,1
180700,-83.3333333333333,4,2,1,80,0,0
180967,-83.3333333333333,4,2,1,5,0,0
181055,-83.3333333333333,4,2,1,80,0,0
181677,-83.3333333333333,4,2,1,5,0,0
181765,-83.3333333333333,4,2,1,80,0,0
182387,-83.3333333333333,4,2,1,5,0,0
182476,-83.3333333333333,4,2,1,80,0,0
183807,-83.3333333333333,4,2,1,5,0,0
183896,-83.3333333333333,4,2,1,80,0,0
184162,-83.3333333333333,4,2,1,5,0,0
184251,-83.3333333333333,4,2,1,80,0,0
184517,-83.3333333333333,4,2,1,5,0,0
184606,-83.3333333333333,4,2,1,80,0,0
184872,-83.3333333333333,4,2,1,5,0,0
184961,-83.3333333333333,4,2,1,80,0,0
185227,-83.3333333333333,4,2,1,5,0,0
185316,-83.3333333333333,4,2,1,80,0,0
186381,-80,4,2,1,80,0,0
186647,-80,4,2,1,5,0,0
186736,-80,4,2,1,80,0,0
187002,-80,4,2,1,5,0,0
187091,-80,4,2,1,80,0,0
187357,-80,4,2,1,5,0,0
187446,-80,4,2,1,80,0,0
188067,-80,4,2,1,5,0,0
188156,-80,4,2,1,80,0,0
189487,-80,4,2,1,5,0,0
189576,-80,4,2,1,80,0,0
189842,-80,4,2,1,5,0,0
189931,-80,4,2,1,80,0,0
190197,-80,4,2,1,5,0,0
190286,-80,4,2,1,80,0,0
190552,-80,4,2,1,5,0,0
190641,-80,4,2,1,80,0,0
190907,-80,4,2,1,5,0,0
190996,-80,4,2,1,80,0,0
192061,-76.9230769230769,4,2,1,85,0,0
192328,-76.9230769230769,4,2,1,5,0,0
192416,-76.9230769230769,4,2,1,85,0,0
192683,-76.9230769230769,4,2,1,5,0,0
192771,-76.9230769230769,4,2,1,85,0,0
193038,-76.9230769230769,4,2,1,5,0,0
193126,-76.9230769230769,4,2,1,85,0,0
193748,-76.9230769230769,4,2,1,5,0,0
193836,-76.9230769230769,4,2,1,85,0,0
194458,-76.9230769230769,4,2,1,5,0,0
194547,-76.9230769230769,4,2,1,85,0,0
195168,-76.9230769230769,4,2,1,5,0,0
195257,-76.9230769230769,4,2,1,85,0,0
195523,-76.9230769230769,4,2,1,5,0,0
195612,-76.9230769230769,4,2,1,85,0,0
195878,-76.9230769230769,4,2,1,5,0,0
195967,-76.9230769230769,4,2,1,85,0,0
196588,-76.9230769230769,4,2,1,5,0,0
196677,-76.9230769230769,4,2,1,85,0,0
197298,-76.9230769230769,4,2,1,5,0,0
197387,-76.9230769230769,4,2,1,85,0,0
197742,-74.0740740740741,4,2,1,85,0,0
198008,-74.0740740740741,4,2,1,5,0,0
198097,-74.0740740740741,4,2,1,85,0,0
198363,-74.0740740740741,4,2,1,5,0,0
198452,-74.0740740740741,4,2,1,85,0,0
198718,-74.0740740740741,4,2,1,5,0,0
198807,-74.0740740740741,4,2,1,85,0,0
199428,-74.0740740740741,4,2,1,5,0,0
199517,-74.0740740740741,4,2,1,85,0,0
200760,-74.0740740740741,4,2,1,85,0,0
200848,-74.0740740740741,4,2,1,5,0,0
200937,-74.0740740740741,4,2,1,85,0,0
201203,-74.0740740740741,4,2,1,5,0,0
201292,-74.0740740740741,4,2,1,85,0,0
201558,-74.0740740740741,4,2,1,5,0,0
201647,-74.0740740740741,4,2,1,85,0,0
202002,-66.6666666666667,4,2,1,90,0,0
202268,-66.6666666666667,4,2,1,5,0,0
202357,-66.6666666666667,4,2,1,90,0,0
202623,-66.6666666666667,4,2,1,5,0,0
202712,-66.6666666666667,4,2,1,95,0,0
202979,-66.6666666666667,4,2,1,5,0,0
203067,-66.6666666666667,4,2,1,100,0,0
203334,-66.6666666666667,4,2,1,5,0,0
203422,-71.4285714285714,4,2,1,80,0,0
208570,-66.6666666666667,4,2,1,80,0,0
208615,-66.6666666666667,4,2,1,85,0,0

[Colours]
Combo1 : 255,215,140
Combo2 : 220,71,71
Combo3 : 255,133,91
Combo4 : 255,180,111

[HitObjects]
54,191,15954,6,0,P|44:143|28:87,1,100,2|0,3:2|3:0,0:0:0:0:
90,14,16665,1,0,3:0:0:0:
180,56,17020,2,0,P|169:156|163:266,1,200,0|0,3:0|3:0,0:0:0:0:
144,353,18085,2,0,P|192:347|255:341,1,100,2|2,3:2|3:2,0:0:0:0:
288,362,18617,1,2,0:3:0:0:
288,362,18795,6,0,P|337:357|387:350,1,100,2|0,3:2|3:0,0:0:0:0:
454,276,19505,1,0,3:0:0:0:
394,195,19860,2,0,P|342:183|273:257,2,150,0|2|2,3:0|0:3|3:2,0:0:0:0:
474,70,21457,1,2,3:3:0:0:
474,70,21635,6,0,P|412:68|361:63,1,100,2|0,3:2|3:0,0:0:0:0:
288,13,22345,1,0,3:0:0:0:
222,88,22700,2,0,P|147:98|20:119,1,200,0|0,3:0|3:0,0:0:0:0:
9,217,23765,2,0,P|26:270|39:334,1,100,2|2,3:2|3:2,0:0:0:0:
25,365,24298,1,2,0:3:0:0:
25,365,24475,6,0,P|77:352|138:340,1,100,2|0,3:2|3:0,0:0:0:0:
219,367,25185,1,0,3:0:0:0:
271,282,25540,2,0,P|242:244|134:250,2,150,0|2|2,3:0|0:3|3:2,0:0:0:0:
411,349,27138,1,2,0:3:0:0:
411,349,27315,6,0,P|413:300|418:246,1,100,2|0,3:2|3:0,0:0:0:0:
481,172,28025,1,2,3:2:0:0:
398,46,28558,2,0,P|352:41|300:81,1,100,2|2,0:2|0:3,0:0:0:0:
295,116,29091,1,0,3:0:0:0:
322,212,29446,1,2,3:2:0:0:
238,267,29801,1,2,3:2:0:0:
163,199,30156,6,0,P|167:141|174:92,1,100,2|0,3:2|3:0,0:0:0:0:
109,21,30866,1,2,3:2:0:0:
24,144,31398,2,0,P|30:193|33:243,1,100,2|2,0:2|0:3,0:0:0:0:
17,290,31931,1,0,3:0:0:0:
90,358,32286,1,2,3:2:0:0:
176,307,32641,1,2,3:2:0:0:
265,350,32996,6,0,P|316:342|374:339,1,100,2|0,3:2|3:0,0:0:0:0:
455,380,33706,1,2,3:2:0:0:
503,238,34238,2,0,P|480:210|416:203,1,100,2|2,0:2|0:3,0:0:0:0:
377,229,34771,1,0,3:0:0:0:
290,179,35126,1,2,3:2:0:0:
299,79,35481,1,2,3:2:0:0:
393,47,35836,6,0,P|439:56|501:65,1,100,2|0,3:2|3:0,0:0:0:0:
438,158,36546,2,0,P|370:165|273:182,1,150,2|2,3:2|0:2,0:0:0:0:
252,212,37256,1,0,3:0:0:0:
41,34,38676,6,0,B|72:50|109:67|109:67|98:150|89:257,1,250,6|0,3:2|0:0,0:0:0:0:
55,334,39919,2,0,P|101:337|161:344,1,100,2|0,0:2|0:0,0:0:0:0:
249,375,40629,1,0,0:0:0:0:
293,285,40984,2,0,P|284:243|277:200,1,75,8|8,0:0|0:0,0:0:0:0:
201,183,41517,6,0,B|209:120|217:59|217:59|255:55|302:48,1,200,6|2,3:2|3:2,0:0:0:0:
336,27,42404,1,2,0:2:0:0:
432,51,42759,1,2,0:2:0:0:
393,143,43114,1,2,0:2:0:0:
482,187,43469,1,2,0:2:0:0:
426,270,43824,2,0,P|422:315|421:347,1,75,10|8,0:2|0:0,0:0:0:0:
342,369,44357,6,0,B|302:362|266:359|266:359|252:272|237:178,1,250,6|0,3:2|0:0,0:0:0:0:
259,90,45599,2,0,P|204:85|145:75,1,100,2|0,0:2|0:0,0:0:0:0:
80,17,46309,1,0,0:0:0:0:
19,96,46665,2,0,P|32:134|42:173,1,75,8|8,0:0|0:0,0:0:0:0:
17,246,47197,6,0,B|39:308|56:364|56:364|92:369|137:377,1,200,6|2,3:2|3:2,0:0:0:0:
180,383,48085,1,2,0:2:0:0:
225,293,48440,1,2,0:2:0:0:
136,246,48795,1,2,0:2:0:0:
162,149,49150,1,2,0:2:0:0:
64,127,49505,2,0,P|54:89|48:48,1,75,10|8,0:2|0:0,0:0:0:0:
112,0,50037,5,0,3:0:0:0:
296,76,50747,2,0,P|338:66|404:58,1,100,2|0,3:2|3:0,0:0:0:0:
481,108,51457,1,2,3:2:0:0:
352,260,52167,2,0,P|302:253|253:242,1,100,2|0,3:2|3:0,0:0:0:0:
181,172,52878,5,2,3:2:0:0:
85,206,53233,1,2,3:2:0:0:
49,299,53588,2,0,P|129:319|252:340,1,200,2|2,3:2|3:2,0:0:0:0:
444,345,55008,2,0,P|408:308|424:218,1,150,2|2,3:2|0:3,0:0:0:0:
468,195,55718,5,2,3:2:0:0:
349,34,56428,2,0,P|311:36|242:49,1,100,2|0,3:2|3:0,0:0:0:0:
214,140,57138,1,2,3:2:0:0:
139,325,57848,2,0,P|101:323|32:310,1,100,2|0,3:2|3:0,0:0:0:0:
4,218,58558,5,2,3:2:0:0:
79,152,58913,1,2,3:2:0:0:
49,56,59268,2,0,P|119:41|206:28,1,150,2|2,3:2|0:0,0:0:0:0:
243,47,59978,1,0,3:0:0:0:
231,146,60333,1,0,3:0:0:0:
219,245,60688,2,0,P|193:249|166:255,2,50,0|0|8,3:0|0:0|3:2,0:0:0:0:
292,324,61398,6,0,P|349:345|412:325,1,119.999996337891,4|8,3:2|0:0,0:0:0:0:
449,300,61931,1,2,0:2:0:0:
458,246,62108,1,2,3:2:0:0:
470,193,62286,1,2,0:2:0:0:
497,88,62641,2,0,P|429:57|338:135,1,179.999994506836,2|8,0:2|0:0,0:0:0:0:
315,153,63351,2,0,P|259:170|195:137,1,119.999996337891,2|8,0:2|0:0,0:0:0:0:
179,71,63972,1,8,0:0:0:0:
102,43,64238,6,0,P|47:64|26:131,1,119.999996337891,4|8,3:1|0:0,0:0:0:0:
52,163,64771,2,0,P|43:217|27:292,1,119.999996337891
114,347,65481,1,2,0:0:0:0:
218,318,65836,1,2,0:0:0:0:
245,213,66191,1,2,0:0:0:0:
163,142,66546,2,0,P|154:102|149:51,1,89.9999972534181,8|8,0:0|0:0,0:0:0:0:
220,14,67079,6,0,P|274:7|331:55,1,119.999996337891,4|10,3:1|0:2,0:0:0:0:
421,91,67789,1,2,3:2:0:0:
405,142,67966,1,2,0:2:0:0:
393,194,68144,1,10,0:2:0:0:
421,298,68499,2,0,P|374:333|315:327,1,119.999996337891,0|10,3:0|0:2,0:0:0:0:
212,359,69209,1,2,3:2:0:0:
164,334,69386,2,0,P|126:330|69:327,1,89.9999972534181,10|8,0:2|0:0,0:0:0:0:
21,265,69919,6,0,P|46:233|125:222,1,119.999996337891,4|8,3:1|0:0,0:0:0:0:
171,238,70451,2,0,P|177:193|190:115,1,119.999996337891
130,28,71162,1,2,0:0:0:0:
27,61,71517,1,2,0:0:0:0:
26,168,71872,1,2,0:0:0:0:
129,200,72227,2,0,P|139:251|142:275,2,59.9999981689454,0|0|0,0:0|1:0|1:0,0:0:0:0:
166,160,72759,6,0,P|202:145|281:174,1,119.999996337891,4|8,3:1|0:0,0:0:0:0:
303,215,73292,1,2,0:2:0:0:
289,267,73469,1,2,3:2:0:0:
279,320,73647,1,2,0:2:0:0:
373,371,74002,2,0,P|432:378|493:274,1,179.999994506836,2|8,0:2|0:0,0:0:0:0:
460,247,74712,2,0,P|439:223|434:139,1,119.999996337891,2|8,0:2|0:0,0:0:0:0:
474,69,75333,1,8,0:0:0:0:
412,16,75599,6,0,P|361:10|302:47,1,119.999996337891,4|8,3:1|0:0,0:0:0:0:
288,96,76132,2,0,P|230:87|165:82,1,119.999996337891
80,19,76842,1,2,0:0:0:0:
21,109,77197,1,2,0:0:0:0:
80,199,77552,1,2,0:0:0:0:
187,187,77907,2,0,P|192:237|199:282,1,89.9999972534181,8|8,0:0|0:0,0:0:0:0:
244,342,78440,6,0,P|207:370|131:369,1,119.999996337891,4|10,3:1|0:2,0:0:0:0:
51,303,79150,1,2,3:2:0:0:
62,250,79327,1,2,0:2:0:0:
80,199,79505,1,10,0:2:0:0:
36,100,79860,2,0,P|73:72|149:73,1,119.999996337891,0|10,3:0|0:2,0:0:0:0:
229,137,80570,1,2,3:2:0:0:
270,102,80747,2,0,P|316:96|362:92,1,89.9999972534181,10|8,0:2|0:0,0:0:0:0:
434,62,81280,6,0,P|443:113|453:191,1,119.999996337891,4|8,3:1|0:0,0:0:0:0:
431,230,81812,2,0,P|385:262|307:242,1,119.999996337891
285,217,82345,1,8,0:0:0:0:
256,192,82522,12,6,84120,3:1:0:0:
356,69,95484,5,4,3:1:0:0:
263,110,95839,1,0,3:0:0:0:
183,48,96194,2,0,P|137:52|75:64,1,100,2|0,3:2|3:0,0:0:0:0:
25,142,96904,1,2,3:2:0:0:
111,322,97614,2,0,P|120:271|133:223,1,100,2|0,3:2|3:0,0:0:0:0:
223,182,98324,5,2,3:2:0:0:
275,267,98679,1,2,3:2:0:0:
363,221,99034,2,0,P|354:162|340:17,1,200,2|2,3:2|3:2,0:0:0:0:
491,153,100454,2,0,P|505:194|447:282,1,150,2|2,3:2|0:3,0:0:0:0:
430,324,101164,5,2,3:2:0:0:
338,283,101519,1,0,3:0:0:0:
268,354,101874,2,0,P|215:348|154:348,1,100,2|0,3:2|3:0,0:0:0:0:
102,272,102584,1,2,3:2:0:0:
275,173,103294,2,0,P|275:123|281:73,1,100,2|0,3:2|3:0,0:0:0:0:
188,36,104004,6,0,P|118:29|61:91,2,150,2|2|0,3:2|0:2|0:0,0:0:0:0:
229,73,105247,1,2,0:0:0:0:
229,73,105424,1,0,3:0:0:0:
215,172,105779,1,0,3:0:0:0:
202,271,106134,2,0,P|234:279|259:286,2,50,0|0|8,3:0|0:0|0:0,0:0:0:0:
113,333,106844,6,0,P|74:311|55:237,1,119.999996337891,4|8,3:1|0:0,0:0:0:0:
75,192,107377,1,2,0:2:0:0:
98,143,107555,1,2,3:2:0:0:
67,98,107732,1,2,0:2:0:0:
144,23,108087,2,0,P|201:14|283:99,1,179.999994506836,2|8,0:2|0:0,0:0:0:0:
279,147,108797,2,0,P|322:157|389:119,1,119.999996337891,2|8,0:2|0:0,0:0:0:0:
418,49,109418,1,8,0:0:0:0:
488,88,109685,6,0,P|502:134|450:209,1,119.999996337891,4|8,3:1|0:0,0:0:0:0:
446,243,110217,2,0,P|416:247|381:256,2,59.9999981689454,0|0|0,0:0|3:0|0:0,0:0:0:0:
498,337,110927,1,2,0:0:0:0:
398,378,111282,1,2,0:0:0:0:
303,325,111637,1,2,0:0:0:0:
307,217,111992,2,0,P|300:180|297:126,1,89.9999972534181,8|8,0:0|0:0,0:0:0:0:
326,52,112525,6,0,P|296:30|212:42,1,119.999996337891,4|10,3:1|0:2,0:0:0:0:
152,124,113235,1,2,3:2:0:0:
98,114,113412,1,2,0:2:0:0:
44,106,113590,1,10,0:2:0:0:
5,206,113945,2,0,P|-4:257|30:312,1,119.999996337891,0|10,3:0|0:2,0:0:0:0:
121,369,114655,1,2,3:2:0:0:
162,335,114833,2,0,P|202:328|252:322,1,89.9999972534181,10|8,0:2|0:0,0:0:0:0:
327,349,115365,6,0,P|359:315|358:241,1,119.999996337891,4|8,3:1|0:0,0:0:0:0:
324,204,115898,2,0,P|325:170|329:137,2,59.9999981689454,0|0|0,0:0|3:0|0:0,0:0:0:0:
238,269,116608,1,0,0:0:0:0:
139,223,116963,1,0,0:0:0:0:
178,122,117318,1,0,0:0:0:0:
79,76,117673,2,0,P|44:81|16:89,2,59.9999981689454,0|0|0,0:0|1:0|1:0,0:0:0:0:
118,38,118205,6,0,P|164:63|234:48,1,119.999996337891,4|8,3:1|0:0,0:0:0:0:
280,38,118738,1,2,0:2:0:0:
331,21,118915,1,2,3:2:0:0:
374,53,119093,1,2,0:2:0:0:
477,21,119448,2,0,P|503:79|442:178,1,179.999994506836,2|8,0:2|0:0,0:0:0:0:
400,195,120158,2,0,P|347:186|287:216,1,119.999996337891,2|8,0:2|0:0,0:0:0:0:
263,290,120779,1,8,0:0:0:0:
319,348,121046,6,0,P|372:357|432:327,1,119.999996337891,4|8,3:1|0:0,0:0:0:0:
483,235,121756,2,0,P|487:197|493:168,2,59.9999981689454,2|2|10,3:2|0:2|0:2,0:0:0:0:
429,329,122466,1,0,3:0:0:0:
377,315,122643,1,2,0:2:0:0:
364,207,122998,1,2,0:2:0:0:
263,167,123353,2,0,P|254:119|250:78,1,89.9999972534181,10|8,0:2|0:0,0:0:0:0:
183,32,123886,6,0,P|139:22|74:61,1,119.999996337891,4|10,3:1|0:2,0:0:0:0:
22,151,124596,1,2,3:2:0:0:
38,202,124773,1,2,0:2:0:0:
50,254,124951,1,10,0:2:0:0:
50,361,125306,2,0,P|94:371|159:332,1,119.999996337891,0|10,3:0|0:2,0:0:0:0:
188,232,126016,1,2,3:2:0:0:
238,214,126194,2,0,P|273:219|330:230,1,89.9999972534181,10|8,0:2|0:0,0:0:0:0:
367,299,126726,6,0,P|412:288|487:279,1,119.999996337891,4|8,3:1|0:0,0:0:0:0:
502,227,127259,2,0,P|452:214|405:105,1,179.999994506836,0|10,0:0|0:2,0:0:0:0:
434,58,127969,1,0,0:0:0:0:
332,19,128324,1,0,0:0:0:0:
268,106,128679,1,0,0:0:0:0:
335,190,129034,2,0,P|364:192|396:196,2,59.9999981689454,0|0|0,1:0|1:0|1:0,0:0:0:0:
256,192,129566,12,6,132406,3:1:0:0:
73,255,140927,5,6,3:2:0:0:
60,165,141282,1,0,3:0:0:0:
40,77,141637,1,0,3:0:0:0:
210,136,142347,5,0,3:0:0:0:
190,224,142702,1,0,3:0:0:0:
177,314,143057,1,0,3:0:0:0:
341,242,143768,5,0,3:0:0:0:
328,152,144123,1,0,3:0:0:0:
308,64,144478,1,0,3:0:0:0:
478,123,145188,5,0,3:0:0:0:
458,211,145543,1,0,3:0:0:0:
445,301,145898,1,0,3:0:0:0:
273,355,146608,5,0,3:2:0:0:
174,340,146963,1,8,3:2:0:0:
74,330,147318,2,0,P|44:339|0:357,2,75,8|8|8,3:2|0:2|3:2,0:0:0:0:
93,283,148028,5,0,3:2:0:0:
66,186,148383,1,8,3:2:0:0:
42,88,148738,1,0,3:2:0:0:
84,61,148915,2,0,P|124:65|185:76,1,100,8|8,3:2|3:2,0:0:0:0:
225,49,149448,5,0,3:2:0:0:
321,75,149803,1,8,3:2:0:0:
418,95,150158,2,0,P|445:70|477:45,2,75,8|8|8,3:2|0:2|3:2,0:0:0:0:
440,139,150868,5,0,3:2:0:0:
421,237,151223,1,8,3:2:0:0:
406,336,151578,1,0,3:2:0:0:
359,319,151756,2,0,P|309:326|248:339,1,100,8|8,3:2|3:2,0:0:0:0:
220,365,152288,5,0,3:2:0:0:
196,267,152643,1,8,3:2:0:0:
177,168,152998,2,0,P|169:124|165:89,1,75,8|8,3:2|0:2,0:0:0:0:
207,25,153531,1,8,3:2:0:0:
243,59,153708,5,0,3:2:0:0:
342,71,154063,1,8,3:2:0:0:
441,83,154418,1,0,3:2:0:0:
476,118,154596,2,0,P|466:157|455:218,1,100,8|8,3:2|3:2,0:0:0:0:
478,259,155128,5,0,3:2:0:0:
379,275,155484,1,8,3:2:0:0:
281,294,155839,2,0,P|242:301|196:312,1,75,8|8,3:2|0:2,0:0:0:0:
131,333,156371,1,8,3:2:0:0:
89,306,156549,5,0,3:2:0:0:
89,306,157979,6,0,P|122:259|101:186,1,119.999996337891,4|8,3:1|0:0,0:0:0:0:
65,173,158511,1,0,0:0:0:0:
51,120,158689,1,2,3:2:0:0:
45,66,158866,1,2,0:2:0:0:
136,9,159221,2,0,P|176:7|241:115,1,179.999994506836,2|8,0:2|0:0,0:0:0:0:
284,144,159931,2,0,P|333:151|393:111,1,119.999996337891,2|0,0:2|0:0,0:0:0:0:
407,63,160464,1,10,0:2:0:0:
500,117,160819,6,0,P|494:168|484:255,1,119.999996337891,4|8,3:1|0:0,0:0:0:0:
500,288,161351,1,0,0:0:0:0:
500,288,161529,2,0,P|447:279|405:275,1,89.9999972534181,2|2,3:2|3:2,0:0:0:0:
341,316,162061,1,0,3:0:0:0:
250,256,162416,1,0,3:0:0:0:
195,349,162771,1,0,3:0:0:0:
195,349,162949,2,0,P|139:340|72:335,1,119.999996337891,2|0,3:2|0:0,0:0:0:0:
31,365,163481,1,0,3:0:0:0:
31,365,163659,6,0,P|1:335|8:255,1,119.999996337891,4|10,3:1|0:2,0:0:0:0:
95,205,164369,1,2,3:2:0:0:
101,151,164547,1,2,0:2:0:0:
110,97,164724,1,10,0:2:0:0:
194,30,165079,2,0,P|231:24|296:76,1,119.999996337891,0|10,3:0|0:2,0:0:0:0:
268,175,165789,1,2,3:2:0:0:
274,229,165967,1,2,0:2:0:0:
283,283,166144,2,0,P|246:320|173:321,2,119.999996337891,10|4|8,0:2|3:1|0:2,0:0:0:0:
333,315,167032,5,0,0:0:0:0:
333,315,167209,2,0,P|383:309|432:306,1,89.9999972534181,2|2,3:2|3:2,0:0:0:0:
477,247,167742,1,0,3:0:0:0:
412,160,168097,1,0,3:0:0:0:
486,81,168452,1,0,3:0:0:0:
389,32,168807,2,0,P|358:28|322:21,2,59.9999981689454,0|0|0,0:0|1:0|1:0,0:0:0:0:
363,79,169339,6,0,P|326:109|250:100,1,119.999996337891,4|8,3:1|0:0,0:0:0:0:
213,72,169872,1,0,0:0:0:0:
172,36,170050,1,2,3:2:0:0:
120,53,170227,1,2,0:2:0:0:
20,94,170582,2,0,P|29:148|146:186,1,179.999994506836,2|8,0:2|0:0,0:0:0:0:
185,210,171292,2,0,P|213:257|198:327,1,119.999996337891,2|0,0:2|0:0,0:0:0:0:
165,357,171825,1,10,0:2:0:0:
60,328,172180,6,0,P|50:287|30:211,1,119.999996337891,4|8,3:1|0:0,0:0:0:0:
6,169,172712,1,0,0:0:0:0:
6,169,172890,2,0,P|50:154|93:143,1,89.9999972534181,2|2,3:2|3:2,0:0:0:0:
135,75,173422,1,0,3:0:0:0:
225,133,173777,1,0,3:0:0:0:
292,49,174132,1,0,3:0:0:0:
292,49,174310,2,0,P|347:54|415:58,1,119.999996337891,2|0,3:2|0:0,0:0:0:0:
464,39,174842,1,0,3:0:0:0:
464,39,175020,6,0,P|477:98|426:158,1,119.999996337891,4|10,3:1|0:2,0:0:0:0:
365,216,175730,1,2,3:2:0:0:
372,269,175907,1,2,0:2:0:0:
384,321,176085,1,10,0:2:0:0:
286,367,176440,2,0,P|241:368|194:312,1,119.999996337891,0|10,3:0|0:0,0:0:0:0:
230,212,177150,1,2,3:0:0:0:
235,158,177328,1,2,0:0:0:0:
246,105,177505,2,0,P|212:57|154:52,2,119.999996337891,10|4|8,0:0|3:1|0:0,0:0:0:0:
291,143,178393,5,0,0:0:0:0:
291,143,178570,2,0,P|345:134|385:129,1,89.9999972534181,2|2,3:2|3:2,0:0:0:0:
437,73,179103,1,0,3:0:0:0:
499,161,179458,1,0,0:0:0:0:
456,260,179813,1,0,3:0:0:0:
348,265,180168,2,0,P|326:241|298:218,2,59.9999981689454,0|0|0,0:0|1:0|1:0,0:0:0:0:
365,316,180700,5,6,3:1:0:0:
273,372,181055,1,8,0:0:0:0:
192,299,181410,2,0,P|143:296|82:344,1,119.999996337891,2|8,3:2|0:0,0:0:0:0:
26,246,182121,2,0,P|53:205|42:128,1,119.999996337891,2|8,3:2|0:0,0:0:0:0:
100,43,182831,2,0,P|164:59|188:162,1,179.999994506836,2|0,3:2|0:0,0:0:0:0:
152,200,183541,5,6,3:2:0:0:
205,293,183896,1,8,0:0:0:0:
308,262,184251,2,0,P|353:276|378:344,1,119.999996337891,2|8,3:2|0:0,0:0:0:0:
475,290,184961,2,0,P|464:244|506:187,1,119.999996337891,2|8,3:2|0:0,0:0:0:0:
413,130,185671,2,0,P|378:161|308:154,1,119.999996337891,2|8,3:2|0:0,0:0:0:0:
293,104,186203,1,0,1:0:0:0:
280,51,186381,5,6,3:1:0:0:
181,104,186736,1,8,0:0:0:0:
82,49,187091,2,0,P|72:92|-4:131,1,125,2|8,3:2|0:0,0:0:0:0:
77,218,187801,2,0,P|119:205|191:251,1,125,2|8,3:2|0:0,0:0:0:0:
154,350,188511,2,0,P|217:373|315:298,1,187.5,2|0,3:2|0:0,0:0:0:0:
299,255,189221,5,6,3:1:0:0:
271,145,189576,1,8,0:0:0:0:
354,69,189931,2,0,P|405:97|479:75,1,125,2|8,3:2|0:0,0:0:0:0:
505,189,190641,2,0,P|455:219|437:294,1,125,2|8,3:2|0:0,0:0:0:0:
351,354,191351,1,2,3:2:0:0:
306,319,191529,2,0,P|270:322|239:327,2,62.5,0|0|0,1:0|1:0|1:0,0:0:0:0:
328,267,192061,5,6,3:1:0:0:
258,173,192416,1,8,0:0:0:0:
344,94,192771,2,0,P|319:64|230:63,1,129.999994049073,0|8,3:0|0:0,0:0:0:0:
121,27,193481,2,0,P|90:77|0:85,1,129.999994049073,4|8,3:1|0:0,0:0:0:0:
6,208,194192,2,0,P|62:199|137:309,1,194.999991073609,2|0,3:2|0:0,0:0:0:0:
115,351,194902,5,6,3:1:0:0:
227,382,195257,1,8,0:0:0:0:
291,284,195612,2,0,P|255:260|248:174,1,129.999994049073,0|8,3:0|0:0,0:0:0:0:
165,94,196322,2,0,P|189:58|275:51,1,129.999994049073,4|8,3:1|0:0,0:0:0:0:
378,2,197032,2,0,P|414:26|421:112,1,129.999994049073,2|8,3:2|0:0,0:0:0:0:
360,205,197742,5,6,3:1:0:0:
464,267,198097,1,8,0:0:0:0:
390,363,198452,2,0,P|336:331|255:364,1,135.000000514984,0|8,3:0|0:0,0:0:0:0:
153,313,199162,2,0,P|98:351|13:329,1,135.000000514984,4|8,3:1|0:0,0:0:0:0:
64,225,199872,2,0,P|26:170|90:60,1,202.500000772476,2|2,3:2|0:0,0:0:0:0:
144,53,200582,5,6,3:1:0:0:
219,147,200937,1,8,0:0:0:0:
315,73,201292,2,0,P|360:89|439:47,1,135.000000514984,0|8,3:0|0:0,0:0:0:0:
509,157,202002,2,0,B|505:308|240:406|173:236|317:82|440:152|416:256|408:356|295:370,1,600.000022888185,6|6,3:2|3:2,0:0:0:0:
132,319,203955,5,0,3:0:0:0:
111,259,204132,2,0,P|74:241|9:208,2,104.999996795654,2|2|2,1:2|2:0|1:2,0:0:0:0:
169,235,204842,1,0,3:0:0:0:
129,115,205197,1,0,3:0:0:0:
230,40,205552,1,2,0:0:0:0:
280,77,205730,2,0,P|285:138|298:229,1,139.999995727539,0|0,1:0|1:0,0:0:0:0:
348,250,206263,5,6,3:1:0:0:
511,155,206795,1,0,3:0:0:0:
477,101,206973,2,0,P|488:50|502:-6,2,104.999996795654,2|2|2,1:2|1:2|1:2,0:0:0:0:
422,132,207683,2,0,P|421:189|481:245,1,139.999995727539,0|2,3:0|3:2,0:0:0:0:
394,338,208393,1,2,0:0:0:0:
346,297,208570,2,0,B|305:261|203:289|245:348|189:362|134:348,1,225.000008583069,0|0,1:0|1:0,0:0:0:0:
