osu file format v14

[General]
AudioFilename: audio.mp3
AudioLeadIn: 0
PreviewTime: 105488
Countdown: 0
SampleSet: Soft
StackLeniency: 0.4
Mode: 0
LetterboxInBreaks: 0
WidescreenStoryboard: 0

[Editor]
Bookmarks: 16020,27381,37322,38742,50103,61464,72825,84186,95550,106910,118271,129632,140993,146674,156615,158045,169405,180766,192127,203488
DistanceSpacing: 1
BeatDivisor: 4
GridSize: 8
TimelineZoom: 2.4

[Metadata]
Title:Cigarettes in the Theatre
TitleUnicode:Cigarettes in the Theatre
Artist:Two Door Cinema Club
ArtistUnicode:Two Door Cinema Club
Creator:entsetzen
Version:please don't stop talking
Source:
Tags:tdcc tourist history british indie rock english fisky myxo myxomatosis elinor eli [_eli_]
BeatmapID:3264072
BeatmapSetID:1598238

[Difficulty]
HPDrainRate:5.3
CircleSize:5
OverallDifficulty:9.1
ApproachRate:9.1
SliderMultiplier:1.69
SliderTickRate:1

[Events]
//Background and Video events
0,0,"anthony-intraversato-vYRAP3yMa3I-unsplash.jpg",0,0
//Break Periods
2,142170,145010
//Storyboard Layer 0 (Background)
//Storyboard Layer 1 (Fail)
//Storyboard Layer 2 (Pass)
//Storyboard Layer 3 (Foreground)
//Storyboard Layer 4 (Overlay)
//Storyboard Sound Samples

[TimingPoints]
4594,355.029585798817,4,2,1,50,1,0
4594,-100,4,2,1,50,0,0
15954,-133.333333333333,4,2,1,50,0,0
27315,-100,4,2,1,50,0,0
28824,-100,4,2,1,5,0,0
28913,-100,4,2,1,50,0,0
31665,-100,4,2,1,5,0,0
31753,-100,4,2,1,50,0,0
38676,-57.1428571428571,4,2,1,70,0,1
38943,-57.1428571428571,4,2,1,5,0,1
39031,-80,4,2,1,70,0,1
39209,-80,4,2,1,70,0,0
41517,-57.1428571428571,4,2,1,70,0,0
41783,-57.1428571428571,4,2,1,5,0,0
41872,-80,4,2,1,70,0,0
44357,-57.1428571428571,4,2,1,70,0,0
44623,-57.1428571428571,4,2,1,5,0,0
44712,-80,4,2,1,70,0,0
47463,-80,4,2,1,5,0,0
47552,-80,4,2,1,70,0,0
50037,-133.333333333333,4,2,1,50,0,0
60244,-133.333333333333,4,2,1,5,0,0
60333,-133.333333333333,4,2,1,50,0,0
60599,-133.333333333333,4,2,1,5,0,0
60688,-133.333333333333,4,2,1,50,0,0
61398,-50,4,2,1,85,0,1
62641,-66.6666666666667,4,2,1,85,0,1
64238,-50,4,2,1,85,0,1
64505,-50,4,2,1,5,0,1
64594,-66.6666666666667,4,2,1,85,0,1
64860,-66.6666666666667,4,2,1,5,0,1
64949,-66.6666666666667,4,2,1,85,0,1
65570,-66.6666666666667,4,2,1,5,0,1
65659,-66.6666666666667,4,2,1,85,0,1
65925,-66.6666666666667,4,2,1,5,0,1
66014,-66.6666666666667,4,2,1,85,0,1
66280,-66.6666666666667,4,2,1,5,0,1
66369,-66.6666666666667,4,2,1,85,0,1
67079,-50,4,2,1,85,0,1
67434,-66.6666666666667,4,2,1,85,0,1
67700,-66.6666666666667,4,2,1,5,0,1
67789,-66.6666666666667,4,2,1,85,0,1
69120,-66.6666666666667,4,2,1,5,0,1
69209,-66.6666666666667,4,2,1,85,0,1
69919,-50,4,2,1,85,0,1
70185,-50,4,2,1,5,0,1
70274,-66.6666666666667,4,2,1,85,0,1
70895,-66.6666666666667,4,2,1,5,0,1
70984,-66.6666666666667,4,2,1,85,0,1
72759,-50,4,2,1,85,0,1
74002,-66.6666666666667,4,2,1,85,0,1
75599,-50,4,2,1,85,0,1
75866,-50,4,2,1,5,0,1
75954,-66.6666666666667,4,2,1,85,0,1
76221,-66.6666666666667,4,2,1,5,0,1
76309,-66.6666666666667,4,2,1,85,0,1
76931,-66.6666666666667,4,2,1,5,0,1
77020,-66.6666666666667,4,2,1,85,0,1
77286,-66.6666666666667,4,2,1,5,0,1
77375,-66.6666666666667,4,2,1,85,0,1
77641,-66.6666666666667,4,2,1,5,0,1
77730,-66.6666666666667,4,2,1,85,0,1
78440,-50,4,2,1,85,0,1
79150,-66.6666666666667,4,2,1,85,0,1
81280,-50,4,2,1,85,0,1
81546,-50,4,2,1,5,0,1
81635,-66.6666666666667,4,2,1,85,0,1
82256,-66.6666666666667,4,2,1,5,0,1
82345,-66.6666666666667,4,2,1,85,0,1
83588,-66.6666666666667,4,2,1,50,0,1
83765,-66.6666666666667,4,2,1,85,0,1
84031,-66.6666666666667,4,2,1,85,0,0
84120,-54.054054054054,4,2,1,70,0,1
84386,-54.054054054054,4,2,1,5,0,1
84475,-74.0740740740741,4,2,1,70,0,1
84653,-74.0740740740741,4,2,1,70,0,0
86960,-54.054054054054,4,2,1,70,0,0
87227,-54.054054054054,4,2,1,5,0,0
87315,-74.0740740740741,4,2,1,70,0,0
89357,-74.0740740740741,4,2,1,5,0,0
89446,-74.0740740740741,4,2,1,70,0,0
89801,-54.054054054054,4,2,1,70,0,0
90067,-54.054054054054,4,2,1,5,0,0
90156,-74.0740740740741,4,2,1,70,0,0
92907,-74.0740740740741,4,2,1,5,0,0
92996,-74.0740740740741,4,2,1,70,0,0
95484,355.029585798817,4,2,1,70,1,0
95484,-133.333333333333,4,2,1,70,0,0
96016,-133.333333333333,4,2,1,50,0,0
105691,-133.333333333333,4,2,1,5,0,0
105779,-133.333333333333,4,2,1,50,0,0
106046,-133.333333333333,4,2,1,5,0,0
106134,-133.333333333333,4,2,1,50,0,0
106844,-50,4,2,1,85,0,1
108087,-66.6666666666667,4,2,1,85,0,1
109685,-50,4,2,1,85,0,1
109951,-50,4,2,1,5,0,1
110040,-66.6666666666667,4,2,1,85,0,1
110306,-66.6666666666667,4,2,1,5,0,1
110395,-66.6666666666667,4,2,1,85,0,1
111016,-66.6666666666667,4,2,1,5,0,1
111105,-66.6666666666667,4,2,1,85,0,1
111371,-66.6666666666667,4,2,1,5,0,1
111460,-66.6666666666667,4,2,1,85,0,1
111726,-66.6666666666667,4,2,1,5,0,1
111815,-66.6666666666667,4,2,1,85,0,1
112525,-50,4,2,1,85,0,1
112880,-66.6666666666667,4,2,1,85,0,1
113146,-66.6666666666667,4,2,1,5,0,1
113235,-66.6666666666667,4,2,1,85,0,1
114566,-66.6666666666667,4,2,1,5,0,1
114655,-66.6666666666667,4,2,1,85,0,1
115365,-50,4,2,1,85,0,1
115631,-50,4,2,1,5,0,1
115720,-66.6666666666667,4,2,1,85,0,1
116341,-66.6666666666667,4,2,1,5,0,1
116430,-66.6666666666667,4,2,1,85,0,1
118205,-50,4,2,1,85,0,1
119448,-66.6666666666667,4,2,1,85,0,1
121046,-50,4,2,1,85,0,1
121312,-50,4,2,1,5,0,1
121401,-66.6666666666667,4,2,1,85,0,1
123886,-50,4,2,1,85,0,1
124951,-66.6666666666667,4,2,1,85,0,1
126726,-50,4,2,1,85,0,1
126992,-50,4,2,1,5,0,1
127081,-66.6666666666667,4,2,1,85,0,1
128057,-66.6666666666667,4,2,1,5,0,1
128146,-66.6666666666667,4,2,1,85,0,1
129478,-66.6666666666667,4,2,1,85,0,0
129566,-50,4,2,1,80,0,1
129833,-50,4,2,1,5,0,1
129921,-66.6666666666667,4,2,1,80,0,1
131608,-66.6666666666667,4,2,1,5,0,1
131697,-66.6666666666667,4,2,1,80,0,1
132407,-54.054054054054,4,2,1,80,0,0
132673,-54.054054054054,4,2,1,5,0,0
132762,-74.0740740740741,4,2,1,80,0,0
133649,-74.0740740740741,4,2,1,70,0,0
135247,-54.054054054054,4,2,1,70,0,0
135513,-54.054054054054,4,2,1,5,0,0
135602,-74.0740740740741,4,2,1,70,0,0
138353,-74.0740740740741,4,2,1,5,0,0
138442,-74.0740740740741,4,2,1,70,0,0
140927,-74.0740740740741,4,2,1,50,0,0
146608,-100,4,2,1,50,0,0
156549,-200,4,2,1,50,0,0
157791,-200,4,2,1,70,0,0
157979,355.029585798817,4,2,1,70,1,1
157979,-43.4782608695652,4,2,1,70,0,1
158245,-43.4782608695652,4,2,1,5,0,1
158334,-55.5555555555556,4,2,1,70,0,1
159665,-55.5555555555556,4,2,1,5,0,1
159754,-55.5555555555556,4,2,1,70,0,1
160819,-43.4782608695652,4,2,1,70,0,1
161085,-43.4782608695652,4,2,1,5,0,1
161174,-55.5555555555556,4,2,1,70,0,1
163659,-43.4782608695652,4,2,1,70,0,1
164014,-55.5555555555556,4,2,1,70,0,1
164280,-55.5555555555556,4,2,1,5,0,1
164369,-55.5555555555556,4,2,1,70,0,1
166499,-43.4782608695652,4,2,1,70,0,1
166765,-43.4782608695652,4,2,1,5,0,1
166854,-55.5555555555556,4,2,1,70,0,1
169339,-43.4782608695652,4,2,1,70,0,1
169606,-43.4782608695652,4,2,1,5,0,1
169694,-55.5555555555556,4,2,1,70,0,1
171026,-55.5555555555556,4,2,1,5,0,1
171115,-55.5555555555556,4,2,1,70,0,1
172180,-43.4782608695652,4,2,1,70,0,1
172446,-43.4782608695652,4,2,1,5,0,1
172535,-55.5555555555556,4,2,1,70,0,1
175020,-43.4782608695652,4,2,1,70,0,1
175730,-55.5555555555556,4,2,1,70,0,1
177860,-43.4782608695652,4,2,1,70,0,1
178126,-43.4782608695652,4,2,1,5,0,1
178215,-55.5555555555556,4,2,1,70,0,1
180700,-52.6315789473684,4,2,1,80,0,0
180967,-52.6315789473684,4,2,1,5,0,0
181055,-52.6315789473684,4,2,1,80,0,0
181677,-52.6315789473684,4,2,1,5,0,0
181765,-52.6315789473684,4,2,1,80,0,0
182387,-52.6315789473684,4,2,1,5,0,0
182476,-52.6315789473684,4,2,1,80,0,0
183807,-52.6315789473684,4,2,1,5,0,0
183896,-52.6315789473684,4,2,1,80,0,0
184162,-52.6315789473684,4,2,1,5,0,0
184251,-52.6315789473684,4,2,1,80,0,0
184517,-52.6315789473684,4,2,1,5,0,0
184606,-52.6315789473684,4,2,1,80,0,0
184872,-52.6315789473684,4,2,1,5,0,0
184961,-52.6315789473684,4,2,1,80,0,0
185227,-52.6315789473684,4,2,1,5,0,0
185316,-52.6315789473684,4,2,1,80,0,0
186647,-52.6315789473684,4,2,1,5,0,0
186736,-52.6315789473684,4,2,1,80,0,0
187002,-52.6315789473684,4,2,1,5,0,0
187091,-52.6315789473684,4,2,1,80,0,0
187357,-52.6315789473684,4,2,1,5,0,0
187446,-52.6315789473684,4,2,1,80,0,0
188067,-52.6315789473684,4,2,1,5,0,0
188156,-52.6315789473684,4,2,1,80,0,0
189487,-52.6315789473684,4,2,1,5,0,0
189576,-52.6315789473684,4,2,1,80,0,0
189842,-52.6315789473684,4,2,1,5,0,0
189931,-52.6315789473684,4,2,1,80,0,0
190197,-52.6315789473684,4,2,1,5,0,0
190286,-52.6315789473684,4,2,1,80,0,0
190552,-52.6315789473684,4,2,1,5,0,0
190641,-52.6315789473684,4,2,1,80,0,0
190907,-52.6315789473684,4,2,1,5,0,0
190996,-52.6315789473684,4,2,1,80,0,0
192061,-47.6190476190476,4,2,1,85,0,1
192328,-47.6190476190476,4,2,1,5,0,1
192416,-47.6190476190476,4,2,1,85,0,1
192683,-47.6190476190476,4,2,1,5,0,1
192771,-47.6190476190476,4,2,1,85,0,1
193038,-47.6190476190476,4,2,1,5,0,1
193126,-47.6190476190476,4,2,1,85,0,1
193393,-47.6190476190476,4,2,1,5,0,1
193481,-47.6190476190476,4,2,1,85,0,1
193748,-47.6190476190476,4,2,1,5,0,1
193836,-47.6190476190476,4,2,1,85,0,1
194103,-47.6190476190476,4,2,1,5,0,1
194192,-47.6190476190476,4,2,1,85,0,1
194458,-47.6190476190476,4,2,1,5,0,1
194547,-47.6190476190476,4,2,1,85,0,1
195168,-47.6190476190476,4,2,1,5,0,1
195257,-47.6190476190476,4,2,1,85,0,1
195523,-47.6190476190476,4,2,1,5,0,1
195612,-47.6190476190476,4,2,1,85,0,1
195878,-47.6190476190476,4,2,1,5,0,1
195967,-47.6190476190476,4,2,1,85,0,1
196233,-47.6190476190476,4,2,1,5,0,1
196322,-47.6190476190476,4,2,1,85,0,1
196588,-47.6190476190476,4,2,1,5,0,1
196677,-47.6190476190476,4,2,1,85,0,1
196943,-47.6190476190476,4,2,1,5,0,1
197032,-47.6190476190476,4,2,1,85,0,1
197298,-47.6190476190476,4,2,1,5,0,1
197387,-47.6190476190476,4,2,1,85,0,1
198008,-47.6190476190476,4,2,1,5,0,1
198097,-47.6190476190476,4,2,1,85,0,1
198363,-47.6190476190476,4,2,1,5,0,1
198452,-47.6190476190476,4,2,1,85,0,1
198718,-47.6190476190476,4,2,1,5,0,1
198807,-47.6190476190476,4,2,1,85,0,1
199073,-47.6190476190476,4,2,1,5,0,1
199162,-47.6190476190476,4,2,1,85,0,1
199428,-47.6190476190476,4,2,1,5,0,1
199517,-47.6190476190476,4,2,1,85,0,1
199783,-47.6190476190476,4,2,1,5,0,1
199872,-47.6190476190476,4,2,1,85,0,1
200760,-47.6190476190476,4,2,1,85,0,1
200848,-47.6190476190476,4,2,1,5,0,1
200937,-47.6190476190476,4,2,1,85,0,1
201203,-47.6190476190476,4,2,1,5,0,1
201292,-47.6190476190476,4,2,1,85,0,1
201558,-47.6190476190476,4,2,1,5,0,1
201647,-47.6190476190476,4,2,1,85,0,1
201913,-47.6190476190476,4,2,1,5,0,1
202002,-40,4,2,1,90,0,1
202268,-40,4,2,1,5,0,1
202357,-40,4,2,1,90,0,1
202623,-40,4,2,1,5,0,1
202712,-40,4,2,1,95,0,1
202979,-40,4,2,1,5,0,1
203067,-40,4,2,1,100,0,1
203334,-40,4,2,1,5,0,1
203422,-59.1715976331361,4,2,1,80,0,0
204132,-81.3008130081301,4,2,1,80,0,0
208570,-59.1715976331361,4,2,1,85,0,1
209014,-59.1715976331361,4,2,1,85,0,0

[Colours]
Combo1 : 255,215,140
Combo2 : 220,71,71
Combo3 : 255,133,91
Combo4 : 255,180,111

[HitObjects]
64,47,15777,5,0,3:0:0:0:
80,110,15866,5,0,3:0:0:0:
79,88,15954,5,2,3:2:0:0:
171,148,16132,1,2,0:3:0:0:
186,148,16221,1,2,0:3:0:0:
201,145,16309,2,0,P|232:134|259:120,1,63.3750024175645,0|2,3:0|0:3,0:0:0:0:
293,195,16665,1,0,3:0:0:0:
286,17,16931,1,2,0:3:0:0:
286,17,17020,1,0,3:0:0:0:
355,30,17197,1,2,0:3:0:0:
464,235,17375,5,0,3:0:0:0:
394,300,17552,1,2,0:3:0:0:
379,305,17641,1,2,0:3:0:0:
363,308,17730,2,0,P|322:307|291:299,1,63.3750024175645,0|2,3:0|0:3,0:0:0:0:
309,384,18085,1,2,3:2:0:0:
305,236,18351,1,0,0:0:0:0:
305,236,18440,1,2,3:2:0:0:
178,302,18617,5,2,0:3:0:0:
95,184,18795,5,2,3:2:0:0:
25,276,18972,1,2,0:3:0:0:
19,261,19061,1,2,0:3:0:0:
14,245,19150,2,0,P|8:197|10:168,1,63.3750024175645,0|2,3:0|0:3,0:0:0:0:
61,111,19505,1,0,3:0:0:0:
128,257,19771,1,2,0:3:0:0:
128,257,19860,1,0,3:0:0:0:
162,192,20037,1,2,0:3:0:0:
338,253,20215,5,0,3:0:0:0:
319,163,20392,1,2,0:3:0:0:
323,147,20481,1,2,0:3:0:0:
328,132,20570,2,0,P|352:78|360:66,1,63.3750024175645,0|2,3:0|0:3,0:0:0:0:
260,78,20925,1,2,3:2:0:0:
434,31,21191,1,0,0:0:0:0:
434,31,21280,1,2,3:2:0:0:
512,143,21457,5,2,3:3:0:0:
500,212,21546,5,0,3:0:0:0:
495,190,21635,5,2,3:2:0:0:
445,283,21812,1,2,0:3:0:0:
443,298,21901,1,2,0:3:0:0:
442,313,21990,2,0,P|447:360|457:395,1,63.3750024175645,0|2,3:0|0:3,0:0:0:0:
373,351,22345,1,0,3:0:0:0:
245,378,22611,1,2,0:3:0:0:
245,378,22700,1,0,3:0:0:0:
204,305,22878,1,2,0:3:0:0:
283,165,23055,5,0,3:0:0:0:
179,181,23233,1,2,0:3:0:0:
162,179,23321,1,2,0:3:0:0:
147,175,23410,2,0,P|96:150|80:136,1,63.3750024175645,0|2,3:0|0:3,0:0:0:0:
105,235,23765,1,2,3:2:0:0:
123,73,24031,1,0,0:0:0:0:
123,73,24120,1,2,3:2:0:0:
2,0,24298,5,2,0:3:0:0:
0,142,24475,5,2,3:2:0:0:
42,261,24653,1,2,0:3:0:0:
45,276,24741,1,2,0:3:0:0:
47,291,24830,2,0,P|48:332|43:366,1,63.3750024175645,0|2,3:0|0:3,0:0:0:0:
126,324,25185,1,0,3:0:0:0:
302,302,25451,1,2,0:3:0:0:
302,302,25540,1,0,3:0:0:0:
286,378,25718,1,2,0:3:0:0:
448,349,25895,5,0,3:0:0:0:
380,285,26073,1,2,0:3:0:0:
378,269,26162,1,2,0:3:0:0:
378,253,26250,2,0,P|385:206|396:181,1,63.3750024175645,0|2,3:0|0:3,0:0:0:0:
309,210,26605,1,2,3:2:0:0:
454,142,26872,1,0,0:0:0:0:
454,142,26960,1,2,3:2:0:0:
393,15,27138,5,2,0:3:0:0:
361,76,27227,5,0,0:0:0:0:
366,54,27315,5,2,3:2:0:0:
260,3,27493,2,0,L|244:47,1,42.25,2|2,0:3|0:3,0:0:0:0:
268,108,27670,1,0,3:0:0:0:
268,108,27848,1,2,0:3:0:0:
92,124,28025,2,0,B|86:92|96:60|101:72|112:36|100:-4,2,126.75,2|2|2,3:2|0:0|0:2,0:0:0:0:
131,349,28913,6,0,L|167:385,1,42.25,2|2,0:3|0:3,0:0:0:0:
231,379,29091,1,0,3:0:0:0:
231,379,29268,1,2,0:3:0:0:
407,343,29446,6,0,L|416:388,1,42.25,2|0,3:2|0:0,0:0:0:0:
455,272,29623,2,0,L|464:318,1,42.25
382,232,29801,2,0,L|391:277,1,42.25,2|0,3:2|0:0,0:0:0:0:
433,163,29978,2,0,L|442:209,1,42.25
360,123,30156,5,2,3:2:0:0:
275,158,30333,2,0,L|233:136,1,42.25,2|2,0:3|0:3,0:0:0:0:
195,92,30511,1,0,3:0:0:0:
195,92,30688,1,2,0:3:0:0:
154,278,30866,2,0,P|116:243|129:158,2,126.75,2|2|2,3:2|0:0|0:2,0:0:0:0:
110,102,31753,6,0,L|133:59,1,42.25,2|2,0:3|0:3,0:0:0:0:
203,53,31931,1,0,3:0:0:0:
203,53,32108,1,2,0:3:0:0:
381,22,32286,6,0,L|435:2,1,42.25,2|0,3:2|0:0,0:0:0:0:
430,84,32463,2,0,L|487:78,1,42.25,2|0,0:0|0:0,0:0:0:0:
461,156,32641,2,0,L|517:165,1,42.25,2|0,3:2|0:0,0:0:0:0:
473,235,32818,2,0,L|525:259,1,42.25,2|0,0:0|0:0,0:0:0:0:
464,314,32996,5,2,3:2:0:0:
329,249,33173,2,0,L|319:298,1,42.25,2|2,0:3|0:3,0:0:0:0:
352,352,33351,1,0,3:0:0:0:
352,352,33528,1,2,0:3:0:0:
206,305,33706,2,0,B|169:290|146:306|155:312|119:335|83:311,2,126.75,2|2|2,3:2|0:2|0:2,0:0:0:0:
66,287,34416,5,2,3:2:0:0:
66,287,34594,2,0,L|79:235,1,42.25,2|2,0:3|0:3,0:0:0:0:
48,184,34771,1,0,3:0:0:0:
48,184,34949,1,2,0:3:0:0:
157,117,35126,6,0,L|213:132,1,42.25,2|0,3:2|0:0,0:0:0:0:
262,85,35304,2,0,L|299:129,1,42.25,2|0,0:0|0:0,0:0:0:0:
366,119,35481,2,0,L|371:176,1,42.25,2|0,3:2|0:0,0:0:0:0:
431,206,35659,2,0,L|402:256,1,42.25,2|0,0:0|0:0,0:0:0:0:
434,315,35836,5,2,3:2:0:0:
313,365,36014,2,0,L|345:332,1,42.25,2|2,0:3|0:3,0:3:0:0:
342,269,36191,1,0,3:0:0:0:
342,269,36369,1,2,0:3:0:0:
202,301,36546,5,2,3:2:0:0:
182,151,36812,5,2,0:2:0:0:
161,0,37079,5,2,0:2:0:0:
256,192,37256,12,8,38321,0:0:0:0:
414,74,38676,6,0,B|429:92|465:109|463:169|442:199|442:199|440:228|468:249|468:249|475:220,1,221.812502115369,6|0,3:2|0:0,0:0:0:0:
455,316,39031,2,0,B|428:314|392:280|380:249|376:228,1,105.625,8|0,0:2|0:0,0:0:0:0:
382,382,39386,1,0,3:0:0:0:
370,152,39564,1,0,0:0:0:0:
359,253,39741,1,8,0:0:0:0:
235,374,39919,2,0,L|120:351,2,105.625,2|0|0,0:2|3:0|0:0,0:0:0:0:
191,238,40451,2,0,B|182:207|182:207|168:152|129:163,1,105.625,8|0,0:0|0:0,0:0:0:0:
102,276,40807,5,0,3:0:0:0:
3,189,40984,1,8,0:0:0:0:
10,171,41073,1,8,0:0:0:0:
3,52,41250,1,8,0:0:0:0:
10,34,41339,1,8,0:0:0:0:
152,67,41517,6,0,B|201:46|201:46|215:52|215:52|256:42|301:61|301:61|313:56|313:56|361:95,1,221.812502115369,6|0,3:2|0:0,0:0:0:0:
407,39,41872,2,0,P|426:95|398:148,1,105.625,8|0,0:0|0:0,0:0:0:0:
417,275,42227,1,2,3:2:0:0:
342,105,42404,1,2,0:2:0:0:
336,207,42582,1,8,0:0:0:0:
196,303,42759,6,0,P|149:299|117:240,1,105.625,2|0,0:2|3:0,0:0:0:0:
190,136,43114,2,0,P|210:177|175:234,1,105.625,2|8,0:2|0:0,0:0:0:0:
49,224,43469,2,0,P|74:185|141:187,1,105.625,2|0,0:2|3:0,0:0:0:0:
300,158,43824,5,10,0:2:0:0:
288,178,43913,1,8,0:0:0:0:
371,283,44091,1,8,0:0:0:0:
359,303,44179,1,8,0:0:0:0:
496,370,44357,6,0,B|478:306|501:235|501:235|506:243|506:243|519:203|506:150,1,221.812502115369,6|0,3:2|0:0,0:0:0:0:
448,114,44712,2,0,B|459:64|507:52|507:52|492:95,1,105.625,8|0,0:0|0:0,0:0:0:0:
366,0,45067,1,0,3:0:0:0:
189,23,45244,1,0,0:0:0:0:
265,87,45422,1,8,0:0:0:0:
51,115,45599,2,0,P|60:56|70:12,2,105.625,2|0|0,0:2|3:0|0:0,0:0:0:0:
77,299,46132,2,0,B|66:258|46:224|46:224|65:199,1,105.625,8|0,0:0|0:0,0:0:0:0:
12,356,46487,5,0,3:0:0:0:
159,379,46665,1,8,0:0:0:0:
169,353,46753,1,8,0:0:0:0:
323,384,46931,1,8,0:0:0:0:
333,358,47020,1,8,0:0:0:0:
497,382,47197,5,6,3:2:0:0:
434,260,47375,1,0,0:0:0:0:
454,133,47552,2,0,B|470:66|470:66|501:37,1,105.625,8|0,0:0|0:0,0:0:0:0:
314,119,47907,2,0,P|354:77|364:32,2,105.625,2|2|8,3:2|0:2|0:0,0:0:0:0:
133,183,48440,6,0,B|114:122|114:122|129:79,1,105.625,2|0,0:2|3:0,0:0:0:0:
200,144,48795,2,0,B|262:158|262:158|291:192,1,105.625,2|8,0:2|0:0,0:0:0:0:
200,221,49150,2,0,B|156:267|156:267|112:276,1,105.625,2|0,0:2|3:0,0:0:0:0:
32,44,49505,5,10,0:2:0:0:
25,68,49594,1,8,0:0:0:0:
53,187,49771,1,8,0:0:0:0:
46,211,49860,1,8,0:0:0:0:
5,342,50037,6,0,P|68:348|131:337,1,126.750004835129,0|0,3:0|3:0,0:0:0:0:
130,337,50747,5,2,3:2:0:0:
154,244,51014,5,2,0:2:0:0:
178,152,51280,5,2,0:2:0:0:
177,152,51457,2,0,P|240:166|309:206,1,126.750004835129,2|0,3:2|3:0,0:0:0:0:
295,195,52167,5,2,3:2:0:0:
375,217,52345,2,0,L|424:230,1,31.6875012087822,2|2,0:3|0:3,0:0:0:0:
379,221,52611,2,0,L|409:229,1,31.6875012087822,2|2,0:3|0:3,0:0:0:0:
501,262,52878,6,0,P|509:202|496:127,1,126.750004835129,2|2,3:2|3:2,0:0:0:0:
499,137,53588,5,2,3:2:0:0:
405,119,53854,5,0,0:0:0:0:
311,102,54120,5,0,0:0:0:0:
311,102,54298,2,0,P|245:121|219:119,2,95.0625036263467,2|0|0,3:2|0:0|0:0,0:0:0:0:
269,12,55008,1,2,3:2:0:0:
192,35,55185,2,0,L|162:49,1,31.6875012087822,2|2,0:3|0:3,0:0:0:0:
196,39,55451,2,0,L|166:53,1,31.6875012087822,2|2,0:3|0:3,0:0:0:0:
73,88,55718,6,0,P|87:148|76:212,1,126.750004835129,2|0,3:2|3:0,0:0:0:0:
76,211,56428,5,2,3:2:0:0:
116,296,56694,5,2,0:2:0:0:
157,381,56960,5,2,0:2:0:0:
157,381,57049,1,0,0:0:0:0:
157,381,57138,2,0,P|255:381|301:361,1,126.750004835129,2|0,3:2|0:0,0:0:0:0:
281,372,57848,5,2,3:2:0:0:
321,310,58025,2,0,L|306:276,1,31.6875012087822,2|2,0:3|0:3,0:0:0:0:
325,314,58292,2,0,L|310:280,1,31.6875012087822,2|2,0:3|0:3,0:0:0:0:
400,229,58558,5,2,3:2:0:0:
463,207,58736,1,2,0:2:0:0:
503,260,58913,1,2,3:2:0:0:
464,314,59091,1,2,0:0:0:0:
402,296,59268,5,2,3:2:0:0:
337,226,59534,5,2,0:0:0:0:
272,155,59801,5,2,0:2:0:0:
272,155,59889,1,2,0:2:0:0:
272,155,59978,2,0,L|353:112,1,63.3750024175645,0|0,3:0|0:0,0:0:0:0:
188,135,60333,2,0,L|244:62,1,63.3750024175645,0|0,3:0|0:0,0:0:0:0:
103,150,60688,2,0,L|125:61,1,63.3750024175645,0|0,3:0|0:0,0:0:0:0:
31,199,61043,1,8,3:2:0:0:
31,199,61398,6,0,B|19:290|19:290|33:326|33:326|39:364|22:382,1,169,4|0,3:2|0:0,0:0:0:0:
203,368,61753,1,8,0:0:0:0:
176,277,61931,1,2,0:2:0:0:
377,299,62108,1,2,3:2:0:0:
306,232,62286,1,2,0:2:0:0:
479,209,62463,1,8,0:0:0:0:
393,65,62641,2,0,B|414:38|456:41|446:48|479:51|521:8,2,126.750004835129,2|0|0,0:2|3:0|0:0,0:0:0:0:
296,46,63173,2,0,B|233:35|214:-4|214:-4|184:10,1,126.750004835129,8|2,0:0|0:2,0:0:0:0:
213,124,63528,5,0,3:0:0:0:
62,146,63706,1,8,0:0:0:0:
77,173,63795,1,8,0:0:0:0:
55,318,63972,1,8,0:0:0:0:
70,345,64061,1,8,0:0:0:0:
204,362,64238,6,0,B|249:311|314:333|314:333|329:329|329:329|381:373|467:343,1,253.5,4|0,3:1|0:0,0:0:0:0:
473,273,64594,2,0,P|440:208|461:114,1,126.750004835129,8|0,0:0|0:0,0:0:0:0:
340,45,64949,1,0,3:0:0:0:
340,45,65126,1,0,0:0:0:0:
280,166,65304,1,8,0:0:0:0:
173,236,65481,6,0,L|79:262,1,63.3750024175645
47,274,65659,1,0,3:0:0:0:
173,148,65836,6,0,L|79:122,1,63.3750024175645
47,110,66014,1,8,0:0:0:0:
173,236,66191,6,0,L|79:262,1,63.3750024175645
47,274,66369,1,0,3:0:0:0:
164,333,66546,1,8,0:0:0:0:
178,352,66635,1,8,0:0:0:0:
326,335,66812,1,8,0:0:0:0:
340,354,66901,1,8,0:0:0:0:
420,49,67079,6,0,B|391:128|391:128|408:196|386:266|386:266|414:249,1,253.5,4|0,3:1|0:0,0:0:0:0:
501,230,67434,2,0,P|485:307|413:342,1,126.750004835129,10|0,0:2|0:0,0:0:0:0:
320,233,67789,1,2,3:2:0:0:
320,233,67966,1,2,0:2:0:0:
168,293,68144,2,0,B|172:222|148:179|148:179|168:184|168:184|149:128|173:42,1,253.500009670258,10|0,0:2|3:0,0:0:0:0:
278,133,68676,5,2,0:2:0:0:
79,149,68854,2,0,B|77:193|77:193|106:241|97:307,1,126.750004835129,10|0,0:2|0:0,0:0:0:0:
6,367,69209,1,2,3:2:0:0:
160,384,69386,1,10,0:2:0:0:
171,364,69475,1,8,0:0:0:0:
327,384,69653,1,8,0:0:0:0:
338,364,69741,1,8,0:0:0:0:
180,237,69919,6,0,P|182:145|302:195,1,253.5,4|0,3:1|0:0,0:0:0:0:
444,153,70274,2,0,B|398:155|360:140|360:140|368:157|369:179,1,126.750004835129,8|0,0:0|0:0,0:0:0:0:
459,6,70629,1,0,3:0:0:0:
312,54,70807,1,0,0:0:0:0:
166,12,70984,1,8,0:0:0:0:
72,143,71162,2,0,P|29:72|15:3,2,126.750004835129,0|0|0,0:0|3:0|0:0,0:0:0:0:
62,252,71694,2,0,P|46:344|16:374,1,126.750004835129,8|0,0:0|0:0,0:0:0:0:
156,211,72049,2,0,P|195:295|187:336,1,126.750004835129,0|0,3:0|0:0,0:0:0:0:
289,163,72404,5,0,1:0:0:0:
305,190,72493,1,0,1:0:0:0:
329,209,72582,1,0,1:0:0:0:
357,221,72670,1,0,1:0:0:0:
388,226,72759,6,0,B|396:242|396:242|414:114|414:114|427:149,1,169,4|0,3:1|0:0,0:0:0:0:
511,310,73114,1,8,0:0:0:0:
431,357,73292,1,2,0:2:0:0:
498,168,73469,1,2,3:2:0:0:
483,78,73647,1,2,0:2:0:0:
292,125,73824,1,8,0:0:0:0:
222,8,74002,2,0,P|124:25|-4:132,1,253.500009670258,2|0,0:2|0:0,0:0:0:0:
85,291,74534,2,0,B|101:255|97:231|97:231|70:206|73:164,1,126.750004835129,8|2,0:0|0:2,0:0:0:0:
200,273,74889,5,0,3:0:0:0:
353,333,75067,1,8,0:0:0:0:
357,309,75156,1,8,0:0:0:0:
507,326,75333,1,8,0:0:0:0:
510,297,75422,1,8,0:0:0:0:
332,135,75599,6,0,B|387:18|549:52|503:191|427:154,1,253.5,4|0,3:1|0:0,0:0:0:0:
404,237,75954,2,0,B|414:200|400:150|400:150|381:173|371:204,1,126.750004835129,8|0,0:0|0:0,0:0:0:0:
274,83,76309,1,0,3:0:0:0:
274,83,76487,1,0,0:0:0:0:
196,224,76665,1,8,0:0:0:0:
82,121,76842,6,0,L|36:64,1,63.3750024175645
0,17,77020,1,0,3:0:0:0:
207,144,77197,6,0,L|202:70,1,63.3750024175645
199,12,77375,1,8,0:0:0:0:
82,121,77552,6,0,L|36:64,1,63.3750024175645
0,17,77730,1,0,3:0:0:0:
10,184,77907,1,8,0:0:0:0:
37,178,77996,1,8,0:0:0:0:
2,320,78173,1,8,0:0:0:0:
29,314,78262,1,8,0:0:0:0:
266,375,78440,6,0,B|191:387|129:354|129:354|96:375,1,169,4|2,3:1|0:2,0:0:0:0:
190,251,78795,1,10,0:2:0:0:
190,251,78972,1,2,0:2:0:0:
330,308,79150,1,2,3:2:0:0:
326,150,79327,1,2,0:2:0:0:
440,252,79505,2,0,B|428:262|428:262|449:206|439:45|439:45|426:59,1,253.500009670258,10|0,0:2|3:0,0:0:0:0:
210,59,80037,5,2,0:2:0:0:
301,209,80215,2,0,B|305:258|305:258|301:293|301:293|309:337,1,126.750004835129,10|2,0:2|0:2,0:0:0:0:
186,207,80570,1,2,3:2:0:0:
29,296,80747,1,10,0:2:0:0:
0,293,80836,1,8,0:0:0:0:
29,154,81014,1,8,0:0:0:0:
0,151,81102,1,8,0:0:0:0:
65,21,81280,6,0,B|139:-8|201:29|183:32|259:64|341:-1,1,253.5,4|0,3:1|0:0,0:0:0:0:
363,67,81635,2,0,B|332:93|289:102|289:102|328:107|332:110,1,126.750004835129,8|0,0:0|0:0,0:0:0:0:
300,290,81990,1,0,3:0:0:0:
436,224,82167,1,0,0:0:0:0:
274,167,82345,1,8,0:0:0:0:
139,276,82522,2,0,B|132:313|138:359|138:359|112:365|83:395,2,126.750004835129,0|0|0,0:0|3:0|0:0,0:0:0:0:
101,138,83055,2,0,P|37:74|-16:76,1,126.750004835129,8|0,0:0|0:0,0:0:0:0:
221,120,83410,2,0,P|205:30|160:2,1,126.750004835129,0|0,3:0|1:0,0:0:0:0:
328,151,83765,5,0,1:0:0:0:
359,146,83854,1,0,1:0:0:0:
387,131,83943,1,0,1:0:0:0:
407,107,84031,1,0,1:0:0:0:
419,77,84120,6,0,B|426:43|426:43|444:136|444:136|451:143|451:143|467:254,1,234.487499105501,6|0,3:1|0:0,0:0:0:0:
440,333,84475,2,0,B|414:300|414:300|405:305|405:305|386:226,1,114.075000435162,8|0,0:0|0:0,0:0:0:0:
262,376,84830,1,0,3:0:0:0:
380,214,85008,1,0,0:0:0:0:
304,276,85185,1,8,0:0:0:0:
189,214,85363,2,0,P|164:104|204:0,1,228.150000870323,6|0,2:1|2:0,2:0:0:0:
0,27,85895,2,0,P|52:37|106:13,1,114.075000435162,8|0,0:0|0:0,0:0:0:0:
280,96,86250,5,0,3:0:0:0:
139,167,86428,1,0,0:0:0:0:
193,311,86605,1,8,0:0:0:0:
52,382,86783,1,0,0:0:0:0:
0,248,86960,6,0,B|48:257|79:296|79:296|130:237|200:235,1,234.487499105501,6|0,3:1|0:0,0:0:0:0:
305,246,87315,2,0,B|310:213|354:194|354:194|375:149,1,114.075000435162,8|0,0:0|0:0,0:0:0:0:
416,25,87670,1,2,3:2:0:0:
392,175,87848,1,2,0:2:0:0:
506,119,88025,1,8,0:0:0:0:
317,94,88203,6,0,P|234:100|208:121,1,114.075000435162,2|0,0:2|3:0,0:0:0:0:
125,259,88558,2,0,P|161:184|156:151,1,114.075000435162,2|8,0:2|0:0,0:0:0:0:
78,10,88913,2,0,P|124:78|155:90,1,114.075000435162,2|0,0:2|3:0,0:0:0:0:
311,179,89268,5,2,0:2:0:0:
190,245,89446,1,10,0:2:0:0:
213,384,89623,1,2,0:2:0:0:
380,330,89801,6,0,B|359:348|360:381|360:381|340:279|443:196,1,234.487499105501,6|0,3:1|0:0,0:0:0:0:
453,303,90156,2,0,B|478:307|506:288|506:288|498:320|511:344,1,114.075000435162,8|0,0:0|0:0,0:0:0:0:
476,176,90511,1,0,3:0:0:0:
510,0,90688,1,0,0:0:0:0:
438,65,90866,1,8,0:0:0:0:
262,19,91043,2,0,L|254:136,2,114.075000435162,6|0|0,2:1|0:0|0:0,0:0:0:0:
160,227,91576,2,0,P|148:176|169:117,1,114.075000435162,8|0,0:0|0:0,0:0:0:0:
116,28,91931,5,0,3:0:0:0:
50,141,92108,1,0,0:0:0:0:
83,279,92286,1,8,0:0:0:0:
0,384,92463,1,0,0:0:0:0:
176,336,92641,5,6,3:1:0:0:
176,336,92818,1,0,0:0:0:0:
350,371,92996,2,0,B|362:374|374:384|374:384|361:347|307:333,1,114.075000435162,8|0,0:0|0:0,0:0:0:0:
449,289,93351,2,0,P|477:338|511:383,2,114.075000435162,2|2|8,3:2|0:2|0:0,0:0:0:0:
402,86,93883,6,0,P|352:69|343:121,1,114.075000435162,2|0,0:2|3:0,0:0:0:0:
436,213,94238,2,0,P|476:178|436:144,1,114.075000435162,2|8,0:2|0:0,0:0:0:0:
309,179,94594,2,0,P|319:231|369:213,1,114.075000435162,2|0,0:2|3:0,0:0:0:0:
250,64,94949,1,2,1:2:0:0:
235,57,95037,1,0,1:0:0:0:
220,51,95126,5,2,1:2:0:0:
245,58,95215,1,0,1:0:0:0:
270,50,95304,1,2,1:2:0:0:
295,55,95392,1,0,1:0:0:0:
319,45,95484,6,0,P|373:40|450:57,1,126.750004835129,4|0,3:1|3:0,0:0:0:0:
444,54,96194,5,2,3:2:0:0:
499,131,96460,5,2,0:2:0:0:
511,225,96726,5,2,0:2:0:0:
511,225,96904,2,0,P|508:282|484:347,1,126.750004835129,2|0,3:2|3:0,0:0:0:0:
484,347,97614,5,2,3:2:0:0:
406,354,97791,2,0,L|371:358,1,31.6875012087822,2|2,0:3|0:3,0:0:0:0:
410,358,98057,2,0,L|375:362,1,31.6875012087822,2|2,0:3|0:3,0:0:0:0:
320,284,98324,6,0,P|227:282|187:274,1,126.750004835129,2|2,3:2|3:2,0:0:0:0:
194,276,99034,5,2,3:2:0:0:
99,266,99300,5,0,0:0:0:0:
18,224,99566,5,0,0:0:0:0:
18,224,99744,2,0,P|9:163|16:122,2,95.0625036263467,2|0|0,3:2|0:0|0:0,0:0:0:0:
96,206,100454,1,2,3:2:0:0:
104,129,100631,2,0,L|96:94,1,31.6875012087822,2|2,0:3|0:3,0:0:0:0:
108,133,100898,2,0,L|100:98,1,31.6875012087822,2|2,0:3|0:3,0:0:0:0:
39,24,101164,6,0,P|79:8|165:16,1,126.750004835129,2|0,3:2|3:0,0:0:0:0:
161,14,101874,5,2,3:2:0:0:
254,28,102140,5,2,0:2:0:0:
351,8,102407,5,2,0:2:0:0:
351,8,102495,1,0,0:0:0:0:
351,8,102584,2,0,P|322:80|292:120,1,126.750004835129,2|0,3:2|0:0,0:0:0:0:
293,119,103294,5,2,3:2:0:0:
357,170,103472,2,0,L|365:205,1,31.6875012087822,2|2,0:3|0:3,0:0:0:0:
361,174,103738,2,0,L|369:209,1,31.6875012087822,2|2,0:3|0:3,0:0:0:0:
436,288,104004,5,2,3:2:0:0:
391,384,104182,1,2,0:0:0:0:
370,280,104359,1,2,3:2:0:0:
450,352,104537,1,2,0:2:0:0:
343,341,104714,5,2,3:2:0:0:
255,376,104981,5,2,0:0:0:0:
160,384,105247,5,2,0:2:0:0:
160,384,105336,1,2,0:2:0:0:
160,384,105424,2,0,L|152:322,1,63.3750024175645,0|0,3:0|0:0,0:0:0:0:
77,309,105779,2,0,L|95:249,1,63.3750024175645,0|0,3:0|0:0,0:0:0:0:
33,205,106134,2,0,L|75:159,1,63.3750024175645,0|0,3:0|0:0,0:0:0:0:
37,93,106489,1,8,0:0:0:0:
37,93,106844,6,0,B|54:82|54:82|181:111|181:111|198:100,1,169,4|0,3:1|0:0,0:0:0:0:
316,0,107199,1,8,0:0:0:0:
378,66,107377,1,2,0:2:0:0:
327,250,107555,1,2,3:2:0:0:
394,182,107732,1,2,0:2:0:0:
193,227,107910,1,8,0:0:0:0:
91,378,108087,2,0,B|64:336|50:295|50:295|50:319|41:340,2,126.750004835129,2|0|0,0:2|3:0|0:0,0:0:0:0:
256,375,108620,2,0,P|306:329|370:326,1,126.750004835129,8|2,0:0|0:2,0:0:0:0:
511,382,108975,5,0,3:0:0:0:
502,228,109152,1,8,0:0:0:0:
478,234,109241,1,8,0:0:0:0:
512,76,109418,1,8,0:0:0:0:
488,82,109507,1,8,0:0:0:0:
341,72,109685,6,0,B|324:42|327:0|327:0|305:104|359:188,1,253.5,4|0,3:1|0:0,0:0:0:0:
250,142,110040,2,0,B|182:125|182:125|143:152|143:152|145:134,1,126.750004835129,8|0,0:0|0:0,0:0:0:0:
227,30,110395,1,0,3:0:0:0:
227,30,110572,1,0,0:0:0:0:
89,57,110750,1,8,0:0:0:0:
90,203,110927,6,0,L|169:255,1,63.3750024175645
201,277,111105,1,0,3:0:0:0:
4,253,111282,6,0,L|23:345,1,63.3750024175645
30,383,111460,1,8,0:0:0:0:
90,203,111637,6,0,L|169:255,1,63.3750024175645
201,277,111815,1,0,3:0:0:0:
322,179,111992,1,8,0:0:0:0:
339,196,112081,1,8,0:0:0:0:
452,90,112259,1,8,0:0:0:0:
469,107,112347,1,8,0:0:0:0:
506,254,112525,6,0,B|506:231|506:231|491:208|491:208|466:261|466:261|470:293|470:293|443:347|443:347|422:320|422:320|422:265,1,253.5,4|0,3:1|0:0,0:0:0:0:
310,378,112880,2,0,B|302:334|316:277|316:277|329:307|334:326,1,126.750004835129,10|0,0:2|0:0,0:0:0:0:
161,269,113235,1,2,3:2:0:0:
161,269,113412,1,2,0:2:0:0:
147,105,113590,2,0,B|123:80|123:80|227:93|227:93|220:84|220:84|324:98,1,253.500009670258,10|0,0:2|3:0,0:0:0:0:
481,0,114123,5,2,0:2:0:0:
431,167,114300,2,0,B|423:114|423:114|408:99|408:99|403:46,1,126.750004835129,10|0,0:2|0:0,0:0:0:0:
348,222,114655,1,2,3:2:0:0:
196,143,114833,1,10,0:2:0:0:
184,169,114921,1,8,0:0:0:0:
16,135,115099,1,8,0:0:0:0:
4,161,115188,1,8,0:0:0:0:
70,375,115365,6,0,P|112:278|-11:236,1,253.5,4|0,3:1|0:0,0:0:0:0:
35,302,115720,2,0,B|59:287|59:287|89:217|89:217|118:196,1,126.750004835129,8|0,0:0|0:0,0:0:0:0:
169,365,116075,1,0,3:0:0:0:
348,269,116253,1,0,0:0:0:0:
269,384,116430,1,8,0:0:0:0:
314,204,116608,2,0,P|398:213|419:276,2,126.750004835129,0|0|0,0:0|3:0|0:0,0:0:0:0:
229,123,117140,2,0,P|332:64|355:67,1,126.750004835129,8|0,0:0|0:0,0:0:0:0:
125,213,117495,1,0,3:0:0:0:
110,67,117673,1,0,0:0:0:0:
118,50,117762,1,0,0:0:0:0:
121,31,117850,5,0,1:0:0:0:
135,66,117939,1,0,1:0:0:0:
137,103,118028,1,0,1:0:0:0:
120,137,118117,1,0,1:0:0:0:
86,154,118205,6,0,B|56:138|56:138|43:34|43:34|22:61,1,169,4|0,3:1|0:0,0:0:0:0:
209,28,118560,1,8,0:0:0:0:
249,115,118738,1,2,0:2:0:0:
433,60,118915,1,2,3:2:0:0:
361,132,119093,1,2,0:2:0:0:
449,296,119270,1,8,0:0:0:0:
276,381,119448,2,0,B|93:420|83:245|219:244|223:304,1,253.500009670258,2|0,0:2|0:0,0:0:0:0:
174,92,119981,2,0,B|156:139|156:139|122:152|114:201,1,126.750004835129,8|2,0:0|0:2,0:0:0:0:
41,311,120336,5,0,3:0:0:0:
5,153,120513,1,8,0:0:0:0:
31,162,120602,1,8,0:0:0:0:
0,0,120779,1,8,0:0:0:0:
26,9,120868,1,8,0:0:0:0:
202,15,121046,6,0,B|191:58|149:80|149:80|330:53,1,253.5,4|0,3:1|0:0,0:0:0:0:
355,153,121401,2,0,B|376:123|436:105|436:105|390:95,1,126.750004835129,8|0,0:0|0:0,0:0:0:0:
424,246,121756,1,2,3:2:0:0:
424,246,121933,1,2,0:2:0:0:
480,31,122111,1,10,0:2:0:0:
500,206,122288,1,0,0:0:0:0:
295,193,122466,1,0,3:0:0:0:
111,257,122643,6,0,P|99:267|122:255,1,126.750004835129,2|8,0:2|0:0,0:0:0:0:
372,305,122998,2,0,P|384:315|361:303,1,126.750004835129,2|0,0:2|3:0,0:0:0:0:
193,363,123353,1,10,0:2:0:0:
170,368,123442,1,8,0:0:0:0:
180,172,123620,1,8,0:0:0:0:
157,177,123708,1,8,0:0:0:0:
23,268,123886,6,0,B|4:230|7:192|7:192|-1:186|-1:186|8:182|8:182|13:141|67:100,1,169,4|2,3:1|0:2,0:0:0:0:
169,271,124241,1,10,0:2:0:0:
169,271,124418,1,2,0:2:0:0:
293,162,124596,1,2,3:2:0:0:
415,268,124773,1,2,0:2:0:0:
506,141,124951,2,0,B|472:56|512:4|512:4|497:78|406:66,1,253.500009670258,10|0,0:2|3:0,0:0:0:0:
404,179,125484,5,2,0:2:0:0:
334,27,125661,2,0,B|317:84|317:84|327:85|327:85|309:156,1,126.750004835129,10|2,0:2|0:2,0:0:0:0:
188,2,126016,1,2,3:2:0:0:
79,140,126194,1,10,0:2:0:0:
103,135,126282,1,8,0:0:0:0:
17,291,126460,1,8,0:0:0:0:
41,286,126549,1,8,0:0:0:0:
252,384,126726,6,0,B|171:370|165:286|180:306|185:222|68:212,1,253.5,4|0,3:1|0:0,0:0:0:0:
179,158,127081,2,0,B|227:127|282:136|282:136|270:140|265:157,1,126.750004835129,8|0,0:0|0:0,0:0:0:0:
309,325,127436,1,0,3:0:0:0:
469,384,127614,1,2,0:2:0:0:
405,268,127791,1,10,0:2:0:0:
448,109,127969,2,0,P|501:164|511:216,2,126.750004835129,0|0|0,0:0|3:0|0:0,0:0:0:0:
368,44,128501,2,0,P|448:3|512:15,1,126.750004835129,8|0,0:0|0:0,0:0:0:0:
352,191,128856,1,0,3:0:0:0:
270,40,129034,1,0,1:0:0:0:
263,22,129123,1,0,1:0:0:0:
262,2,129211,5,0,1:0:0:0:
263,40,129300,1,0,1:0:0:0:
252,76,129389,1,0,1:0:0:0:
228,105,129478,1,0,1:0:0:0:
194,124,129566,6,0,B|108:68|108:68|98:67|98:67|16:12|16:12|25:115,1,253.5,6|0,3:2|0:0,0:0:0:0:
0,149,129921,2,0,B|12:138|12:138|5:196|5:196|18:258,1,126.750004835129,8|0,0:0|0:0,0:0:0:0:
199,229,130276,1,0,3:0:0:0:
0,274,130454,1,0,0:0:0:0:
123,306,130631,1,8,0:0:0:0:
322,261,130809,2,0,P|350:138|329:8,1,253.500009670258,6|0,0:1|0:0,0:0:0:0:
512,83,131341,2,0,P|455:57|432:0,1,126.750004835129,8|0,0:0|0:0,0:0:0:0:
384,159,131697,5,0,3:0:0:0:
512,241,131874,1,0,0:0:0:0:
430,369,132052,2,0,B|370:374|370:374|295:363,1,126.750004835129,8|0,0:0|0:0,0:0:0:0:
279,370,132318,1,8,0:0:0:0:
252,371,132407,6,0,B|237:270|265:184|265:184|242:124,1,234.487499105501,6|0,3:1|0:0,0:0:0:0:
178,199,132762,2,0,B|168:180|168:180|172:223|159:294,1,114.075000435162,8|0,0:0|0:0,0:0:0:0:
0,224,133117,1,2,3:2:0:0:
82,300,133294,1,2,0:2:0:0:
0,113,133472,1,8,0:0:0:0:
170,60,133649,6,0,B|227:27|266:42|266:42|251:62,1,114.075000435162,2|0,0:2|3:0,0:0:0:0:
374,3,134004,2,0,B|374:68|341:95|341:95|331:72,1,114.075000435162,2|8,0:2|0:0,0:0:0:0:
321,208,134359,2,0,B|263:175|257:133|257:133|282:136,1,114.075000435162,2|0,0:2|3:0,0:0:0:0:
489,153,134714,5,2,0:3:0:0:
500,179,134803,1,2,0:3:0:0:
505,206,134892,1,10,0:2:0:0:
505,234,134981,1,2,0:3:0:0:
499,262,135069,1,2,0:3:0:0:
499,262,135247,6,0,B|513:305|513:305|368:294|368:294|382:340,1,234.487499105501,6|0,3:1|0:0,0:0:0:0:
242,377,135602,2,0,B|323:372|323:372|306:319,1,114.075000435162,8|0,0:0|0:0,0:0:0:0:
146,361,135957,1,0,3:0:0:0:
184,176,136134,1,0,0:0:0:0:
93,303,136312,1,8,0:0:0:0:
0,166,136489,2,0,P|61:121|114:95,2,114.075000435162,6|0|0,0:1|0:0|0:0,0:0:0:0:
316,67,137022,2,0,P|251:64|162:79,1,114.075000435162,8|0,0:0|0:0,0:0:0:0:
425,0,137377,5,0,3:0:0:0:
506,137,137555,1,0,0:0:0:0:
393,247,137732,1,8,0:0:0:0:
474,384,137910,1,0,0:0:0:0:
258,376,138087,5,6,3:1:0:0:
258,376,138265,1,0,0:0:0:0:
311,191,138442,2,0,P|325:301|324:327,1,114.075000435162,8|0,0:0|0:0,0:0:0:0:
125,380,138797,2,0,B|169:318|169:318|231:292,2,114.075000435162,2|2|8,3:2|0:2|0:0,0:0:0:0:
83,262,139330,6,0,P|81:184|126:144,1,114.075000435162,2|0,0:2|3:0,0:0:0:0:
3,0,139685,2,0,P|70:36|82:95,1,114.075000435162,2|8,0:2|0:0,0:0:0:0:
269,61,140040,2,0,P|202:100|145:81,1,114.075000435162,2|0,0:2|3:0,0:0:0:0:
393,97,140395,5,2,1:2:0:0:
410,130,140484,1,0,1:0:0:0:
416,168,140572,1,2,1:2:0:0:
409,205,140661,1,0,1:0:0:0:
402,242,140750,1,2,1:2:0:0:
404,280,140839,1,0,1:0:0:0:
414,317,140927,1,6,3:2:0:0:
88,267,146430,5,0,3:2:0:0:
74,192,146519,5,0,3:2:0:0:
70,221,146608,5,0,3:2:0:0:
108,116,146785,1,2,0:2:0:0:
108,116,146963,2,0,B|162:110|162:110|184:87,1,84.5,8|0,3:2|0:0,0:0:0:0:
278,21,147318,6,0,L|228:28,1,42.25,8|0,3:2|0:0,0:0:0:0:
271,156,147584,6,0,L|321:164,1,42.25,8|0,0:2|0:0,0:0:0:0:
278,21,147850,5,8,3:2:0:0:
278,21,147939,1,0,3:0:0:0:
278,21,148028,1,0,3:2:0:0:
359,85,148205,1,2,0:2:0:0:
359,85,148383,2,0,B|419:75|419:75|452:97,1,84.5,8|0,3:2|0:2,0:0:0:0:
512,192,148738,5,0,3:2:0:0:
400,184,148915,1,8,3:2:0:0:
392,296,149093,1,0,3:0:0:0:
504,304,149270,5,8,3:2:0:0:
504,304,149359,1,8,3:2:0:0:
504,304,149448,1,0,3:2:0:0:
439,383,149626,1,2,0:2:0:0:
439,383,149803,2,0,B|397:385|397:385|346:368,1,84.5,8|0,3:2|0:0,0:0:0:0:
311,288,150158,6,0,L|321:239,1,42.25,8|0,3:2|0:0,0:0:0:0:
178,321,150424,6,0,L|187:371,1,42.25,8|0,0:2|0:0,0:0:0:0:
311,288,150691,5,8,3:2:0:0:
311,288,150779,1,0,3:0:0:0:
311,288,150868,1,0,3:2:0:0:
371,158,151046,1,2,0:2:0:0:
371,158,151223,2,0,B|316:173|316:173|287:159,1,84.5,8|0,3:2|0:2,0:0:0:0:
150,188,151578,5,0,3:2:0:0:
71,109,151756,1,8,3:2:0:0:
150,30,151933,1,0,3:0:0:0:
228,109,152111,5,8,3:2:0:0:
228,109,152199,1,8,3:2:0:0:
228,109,152288,1,0,3:2:0:0:
277,17,152466,1,2,0:2:0:0:
277,17,152643,2,0,B|300:3|300:3|358:-1,1,84.5,8|0,3:2|0:2,0:0:0:0:
420,134,152998,6,0,L|413:178,1,42.25,8|0,3:2|0:0,0:0:0:0:
508,42,153265,6,0,L|501:0,1,42.25,8|0,0:2|0:0,0:0:0:0:
420,134,153531,5,8,3:2:0:0:
420,134,153620,1,0,3:0:0:0:
420,134,153708,1,0,3:2:0:0:
452,239,153886,1,2,0:2:0:0:
452,239,154063,2,0,B|463:267|463:267|509:295,1,84.5,8|0,3:2|0:2,0:2:0:0:
434,378,154418,5,0,3:2:0:0:
327,327,154596,1,8,3:2:0:0:
219,375,154773,1,0,3:0:0:0:
116,315,154951,5,8,3:2:0:0:
116,315,155040,1,8,3:2:0:0:
116,315,155128,1,0,3:2:0:0:
7,365,155306,1,2,0:2:0:0:
7,365,155484,2,0,B|-4:326|-4:326|0:275,1,84.5,8|0,3:2|0:2,0:0:0:0:
89,196,155839,6,0,L|133:209,1,42.25,8|0,3:2|0:0,0:0:0:0:
68,76,156105,6,0,L|24:89,1,42.25,8|0,0:2|0:0,0:0:0:0:
89,196,156371,5,8,3:2:0:0:
89,196,156460,1,0,3:0:0:0:
89,196,156549,2,0,B|106:165|177:118|234:125|234:125|200:115|179:88,1,232.375,0|0,3:2|0:0,0:0:0:0:
385,76,157791,5,0,3:0:0:0:
381,4,157880,5,0,3:0:0:0:
389,34,157979,6,0,B|431:163|431:163|448:176|448:176|488:312,1,291.525005560398,4|0,3:1|0:0,0:0:0:0:
346,342,158334,2,0,B|453:392|453:392|512:372,1,152.099995358277,8|0,0:0|0:0,0:0:0:0:
256,384,158689,1,2,3:2:0:0:
175,232,158866,2,0,P|228:163|296:156,1,152.099995358277,2|8,0:2|0:0,0:0:0:0:
75,119,159221,1,2,0:2:0:0:
86,357,159399,6,0,B|55:288|93:234|98:259|139:193|80:116,1,228.149993037415,0|0,3:0|0:0,0:0:0:0:
75,119,159754,1,8,0:0:0:0:
167,305,159931,1,2,0:2:0:0:
182,115,160109,6,0,B|264:84|331:139|281:168|355:196|441:152,1,228.149993037415,0|0,3:0|0:0,0:0:0:0:
445,132,160464,1,10,0:2:0:0:
297,34,160641,5,0,3:0:0:0:
365,49,160730,5,0,3:0:0:0:
343,39,160819,6,0,B|208:-3|208:-3|102:34|102:34|120:-3,1,291.525005560398,4|0,3:1|0:0,0:0:0:0:
21,83,161174,1,8,0:0:0:0:
21,83,161351,1,0,0:0:0:0:
138,240,161529,6,0,P|78:359|74:377,1,152.099995358277,2|0,3:2|0:0,0:0:0:0:
93,384,161795,2,0,P|153:265|157:247,1,152.099995358277,2|0,3:2|0:0,0:0:0:0:
157,139,162061,5,0,3:0:0:0:
157,139,162150,1,0,3:0:0:0:
157,139,162239,2,0,L|244:131,1,76.0499976791383,0|0,3:0|0:0,0:0:0:0:
305,120,162416,1,0,3:0:0:0:
454,347,162594,5,8,3:2:0:0:
431,317,162683,1,0,3:0:0:0:
420,280,162771,1,0,3:0:0:0:
426,242,162860,1,0,3:0:0:0:
449,212,162949,2,0,P|470:123|434:52,1,152.099995358277,2|0,3:2|0:0,0:0:0:0:
426,69,163215,2,0,P|405:158|441:229,1,152.099995358277,2|0,3:2|0:0,0:0:0:0:
330,270,163481,5,0,3:0:0:0:
306,203,163570,5,0,3:0:0:0:
317,229,163659,6,0,B|308:149|308:149|342:103|342:103|298:28|298:28|249:95,1,291.525005560398,4|0,3:1|0:0,0:0:0:0:
169,137,164014,2,0,B|206:148|206:148|152:93|180:6,1,152.099995358277,10|0,0:2|0:0,0:0:0:0:
191,255,164369,1,2,3:2:0:0:
191,255,164547,1,2,0:2:0:0:
54,370,164724,2,0,B|10:237|10:237|-1:234|-1:234|8:227|8:227|57:51,1,304.199990716553,10|0,0:2|3:0,0:0:0:0:
80,232,165257,5,2,0:2:0:0:
236,135,165434,2,0,B|260:120|260:120|306:153|329:227,1,152.099995358277,10|0,0:2|0:0,0:0:0:0:
512,208,165789,1,2,3:2:0:0:
512,208,165967,1,2,0:2:0:0:
512,208,166144,1,10,0:2:0:0:
376,362,166322,5,0,3:2:0:0:
450,368,166410,5,0,3:0:0:0:
421,377,166499,6,0,B|307:384|307:384|310:373|310:373|176:377|176:377|201:325,1,291.525005560398,4|0,3:1|0:0,0:0:0:0:
153,249,166854,2,0,B|104:264|77:335|77:335|120:362,1,152.099995358277,8|0,0:2|0:0,0:0:0:0:
213,95,167209,6,0,P|126:90|55:115,1,152.099995358277,2|0,3:2|0:0,0:0:0:0:
67,134,167476,2,0,P|154:139|225:114,1,152.099995358277,2|0,3:2|0:0,0:0:0:0:
291,22,167742,5,0,3:0:0:0:
291,22,167831,1,0,3:0:0:0:
291,22,167919,2,0,L|313:113,1,76.0499976791383,0|0,3:0|0:0,0:0:0:0:
327,163,168097,1,0,3:0:0:0:
483,79,168274,5,8,3:0:0:0:
453,103,168363,1,0,3:0:0:0:
438,138,168452,1,0,3:0:0:0:
439,175,168541,1,0,3:0:0:0:
453,210,168629,2,0,P|472:297|457:361,1,152.099995358277,2|0,3:2|0:0,0:0:0:0:
360,355,168896,1,2,3:2:0:0:
378,348,168984,5,0,1:0:0:0:
347,371,169073,1,0,1:0:0:0:
309,363,169162,1,0,1:0:0:0:
275,379,169251,1,0,1:0:0:0:
237,372,169339,6,0,B|-10:389|11:145|173:152|214:279,1,388.700007413864,4|8,3:1|0:0,0:0:0:0:
69,64,169872,1,0,0:0:0:0:
170,134,170050,1,2,3:2:0:0:
423,41,170227,1,2,0:2:0:0:
394,156,170405,1,8,0:0:0:0:
460,356,170582,2,0,P|392:331|299:112,1,304.199990716553,2|0,0:2|0:0,0:0:0:0:
130,268,171115,1,8,0:0:0:0:
140,0,171292,2,0,P|128:145|1:216,1,304.199990716553,2|0,0:2|0:0,0:0:0:0:
245,79,171825,1,10,0:2:0:0:
391,27,172002,5,0,3:2:0:0:
404,100,172091,5,0,3:2:0:0:
406,72,172180,6,0,B|441:218|427:308|427:308|436:278|456:251,1,291.525005560398,4|0,3:1|0:0,0:0:0:0:
349,264,172535,1,8,0:0:0:0:
349,264,172712,1,0,0:0:0:0:
172,312,172890,6,0,P|84:354|28:362,1,152.099995358277,2|0,3:2|0:0,0:0:0:0:
23,336,173156,2,0,P|111:294|167:286,1,152.099995358277,2|0,3:2|0:0,0:0:0:0:
99,207,173422,5,0,3:0:0:0:
99,207,173511,1,0,3:0:0:0:
99,207,173600,2,0,L|80:115,1,76.0499976791383,0|0,3:0|0:0,0:0:0:0:
68,64,173777,1,0,3:0:0:0:
215,22,173955,5,8,3:0:0:0:
248,39,174044,1,0,3:0:0:0:
286,38,174132,1,0,3:0:0:0:
323,29,174221,1,0,3:0:0:0:
356,11,174310,2,0,P|452:20|508:50,1,152.099995358277,2|0,3:2|0:0,0:0:0:0:
494,75,174576,2,0,P|398:66|342:36,1,152.099995358277,2|0,3:2|0:0,0:0:0:0:
314,134,174842,5,0,3:0:0:0:
379,159,174931,5,0,3:0:0:0:
354,155,175020,6,0,B|269:147|269:147|249:159|249:159|110:142,1,194.350003706932,4|2,3:1|0:2,0:0:0:0:
72,347,175375,1,10,0:2:0:0:
69,148,175552,1,2,0:2:0:0:
196,358,175730,2,0,P|308:351|371:317,1,152.099995358277,2|2,3:2|0:2,0:0:0:0:
415,64,176085,2,0,P|482:175|502:377,1,304.199990716553,10|0,0:2|3:0,0:0:0:0:
312,261,176618,5,2,0:0:0:0:
312,261,176795,1,10,0:0:0:0:
312,261,176973,1,2,0:0:0:0:
114,273,177150,2,0,P|148:182|205:151,1,152.099995358277,2|2,3:0|0:0,0:0:0:0:
386,201,177505,1,10,0:0:0:0:
298,41,177683,5,0,3:0:0:0:
362,65,177771,5,0,3:0:0:0:
341,56,177860,6,0,B|279:13|230:23|230:23|216:5|216:5|132:6|57:69,1,291.525005560398,4|0,3:1|0:0,0:0:0:0:
0,0,178215,1,8,0:0:0:0:
0,0,178393,1,0,0:0:0:0:
96,173,178570,6,0,P|221:149|265:125,1,152.099995358277,2|0,3:2|0:0,0:0:0:0:
236,112,178836,2,0,P|111:136|67:160,1,152.099995358277,2|0,3:2|0:0,0:0:0:0:
106,254,179103,5,0,3:0:0:0:
106,254,179192,1,0,3:0:0:0:
106,254,179280,2,0,P|64:328|11:379,1,152.099995358277,0|0,3:0|0:0,0:0:0:0:
169,364,179635,1,8,3:2:0:0:
206,367,179724,1,0,3:0:0:0:
243,370,179813,1,0,3:0:0:0:
280,373,179902,1,0,3:0:0:0:
317,376,179990,2,0,L|470:322,1,152.099995358277,2|0,3:2|0:0,0:0:0:0:
467,224,180257,1,2,3:2:0:0:
475,239,180345,5,0,1:0:0:0:
470,193,180434,1,0,1:0:0:0:
465,147,180523,1,0,1:0:0:0:
460,101,180612,1,0,1:0:0:0:
455,52,180700,6,0,B|331:19|340:109|212:56,1,240.824993569279,6|0,3:1|0:0,0:0:0:0:
191,40,181055,2,0,P|212:134|160:206,1,160.549995712853,8|0,0:0|0:0,0:0:0:0:
83,324,181410,2,0,P|209:323|317:380,1,240.824993569279,2|0,3:2|0:0,0:0:0:0:
342,382,181765,2,0,P|284:375|332:299,1,160.549995712853,8|0,0:0|0:0,0:0:0:0:
512,224,182121,2,0,P|448:163|443:281,1,240.824993569279,2|0,3:2|0:0,0:0:0:0:
443,260,182476,2,0,P|367:212|299:185,1,160.549995712853,8|0,0:0|0:0,0:0:0:0:
226,0,182831,1,2,3:2:0:0:
226,0,183186,1,8,0:0:0:0:
8,0,183541,6,0,B|101:71|60:197|60:197|33:132,1,240.824993569279,6|0,3:2|0:0,0:0:0:0:
19,166,183896,2,0,B|8:263|8:263|29:330,1,160.549995712853,8|0,0:0|0:0,0:0:0:0:
187,242,184251,2,0,P|187:343|314:366,1,240.824993569279,2|0,3:2|0:0,0:0:0:0:
332,348,184606,2,0,B|325:266|325:266|385:217,1,160.549995712853,8|0,0:0|0:0,0:0:0:0:
265,55,184961,2,0,P|371:97|464:27,1,240.824993569279,2|0,3:2|0:0,0:0:0:0:
487,0,185316,2,0,B|507:66|507:66|497:100|497:100|513:161,1,160.549995712853,8|0,0:0|0:0,0:0:0:0:
512,352,185671,1,2,3:2:0:0:
512,352,186026,1,8,0:0:0:0:
377,227,186203,5,0,1:0:0:0:
371,297,186292,5,0,1:0:0:0:
373,273,186381,6,0,B|357:166|357:166|347:153|347:153|334:34,1,240.824993569279,6|0,3:1|0:0,0:0:0:0:
307,57,186736,2,0,B|243:69|192:44|192:44|216:69|223:106,1,160.549995712853,8|0,0:0|0:0,0:0:0:0:
110,215,187091,2,0,P|190:265|143:382,1,240.824993569279,2|0,3:2|0:0,0:0:0:0:
177,384,187446,2,0,B|286:391|320:364|320:364|307:346,1,160.549995712853,8|0,0:0|0:0,0:0:0:0:
431,171,187801,2,0,B|406:273|444:337|444:337|454:301|485:274,1,240.824993569279,2|0,3:2|0:0,0:0:0:0:
504,260,188156,2,0,B|506:141|506:141|489:101,1,160.549995712853,8|0,0:0|0:0,0:0:0:0:
308,180,188511,1,2,3:2:0:0:
308,180,188866,1,8,0:0:0:0:
189,9,189221,6,0,P|129:115|160:254,1,240.824993569279,6|0,3:1|0:0,0:0:0:0:
143,253,189576,2,0,B|49:291|49:291|117:319,1,160.549995712853,8|0,0:0|0:0,0:0:0:0:
247,372,189931,2,0,B|308:337|308:337|254:242|254:242|331:184,1,240.824993569279,2|0,3:2|0:0,0:0:0:0:
308,180,190286,2,0,P|274:152|367:88,1,160.549995712853,8|0,0:0|0:0,0:0:0:0:
512,4,190641,2,0,P|511:102|398:186,1,240.824993569279,2|0,3:2|0:0,0:0:0:0:
388,205,190996,2,0,P|385:288|449:336,1,160.549995712853,8|0,0:0|0:0,0:0:0:0:
115,340,191351,1,2,3:2:0:0:
115,340,191529,5,0,1:0:0:0:
93,302,191618,1,0,1:0:0:0:
87,259,191706,1,0,1:0:0:0:
93,215,191795,1,0,1:0:0:0:
96,172,191884,1,0,1:0:0:0:
87,129,191973,1,0,1:0:0:0:
68,90,192061,6,0,B|140:43|140:43|208:76|208:76|313:35,1,266.174991876984,6|0,3:1|0:0,0:0:0:0:
374,0,192416,2,0,B|459:151|325:104|440:257,1,266.174991876984,8|0,0:0|0:0,0:0:0:0:
442,327,192771,2,0,P|323:369|161:376,1,266.174991876984,0|0,3:0|0:0,0:0:0:0:
99,377,193126,2,0,P|136:373|167:176,1,266.174991876984,8|0,0:0|0:0,0:0:0:0:
142,117,193481,2,0,B|130:100|130:100|58:163|55:307|55:307|77:290,1,266.174991876984,4|0,3:1|0:0,0:0:0:0:
0,384,193836,2,0,P|-8:249|41:93,1,266.174991876984,8|0,0:0|0:0,0:0:0:0:
61,51,194192,1,2,3:2:0:0:
512,0,194547,1,8,0:0:0:0:
444,346,194902,6,0,B|406:363|406:363|418:257|418:257|411:248|411:248|424:141,1,266.174991876984,6|0,3:1|0:0,0:0:0:0:
441,70,195257,2,0,P|382:52|207:151,1,266.174991876984,8|0,0:0|0:0,0:0:0:0:
191,221,195612,2,0,B|110:167|110:167|93:77|143:5,1,266.174991876984,0|0,3:0|0:0,0:0:0:0:
222,0,195967,2,0,P|304:82|404:224,1,266.174991876984,8|0,0:0|0:0,0:0:0:0:
433,269,196322,2,0,B|364:317|234:335|234:335|268:351|301:411,1,266.174991876984,4|0,3:1|0:0,0:0:0:0:
175,370,196677,2,0,B|84:376|84:376|73:382|73:382|-19:389|-19:389|9:304,1,266.174991876984,8|0,0:0|0:0,0:0:0:0:
43,252,197032,1,2,3:2:0:0:
43,252,197209,1,2,0:0:0:0:
0,0,197387,1,8,0:0:0:0:
130,134,197653,5,0,1:0:0:0:
155,137,197742,2,0,B|193:120|244:119|293:161|293:161,1,88.724997292328,6|0,3:1|0:0,0:0:0:0:
320,177,197919,2,0,B|362:194|393:182|429:153,1,88.724997292328
463,102,198097,2,0,B|525:190|495:340|495:340|472:328,1,266.174991876984,8|0,0:0|0:0,0:0:0:0:
415,363,198452,2,0,B|189:381|189:381|138:347,1,266.174991876984,0|0,3:0|0:0,0:0:0:0:
201,293,198807,2,0,B|219:266|217:217|217:217|140:256|79:357,1,266.174991876984,8|0,0:0|0:0,0:0:0:0:
20,384,199162,2,0,B|-6:269|-6:269|28:114,1,266.174991876984,4|0,3:1|0:0,0:0:0:0:
74,65,199517,2,0,B|202:57|202:57|206:46|206:46|308:2|308:2|321:34,1,266.174991876984,8|0,0:0|0:0,0:0:0:0:
296,95,199872,1,2,3:2:0:0:
37,290,200227,5,8,0:0:0:0:
78,305,200316,1,2,0:0:0:0:
121,312,200405,1,2,0:0:0:0:
165,313,200493,1,0,1:0:0:0:
208,303,200582,2,0,L|332:287,3,88.724997292328,6|0|2|0,3:1|0:0|0:2|0:0,0:0:0:0:
332,304,200937,2,0,B|396:254|395:170|368:200|371:121|452:62,1,266.174991876984,8|0,0:0|0:0,0:0:0:0:
509,12,201292,2,0,B|406:-10|256:23|256:23|284:49,1,266.174991876984,0|0,3:0|0:0,0:0:0:0:
326,92,201647,2,0,P|209:153|88:100,1,266.174991876984,8|0,0:0|0:0,0:0:0:0:
26,43,202002,6,0,L|0:358,1,316.875,6|0,3:2|0:0,0:0:0:0:
122,365,202357,6,0,L|148:50,1,316.875,14|0,3:2|0:0,0:0:0:0:
269,56,202712,6,0,L|243:371,1,316.875,6|0,3:2|0:0,0:0:0:0:
364,377,203067,6,0,L|390:62,1,316.875,14|0,0:2|0:0,0:0:0:0:
512,69,203422,6,0,B|532:179|505:298|505:298|486:265|482:203,1,285.610005338627,6|0,3:2|0:0,0:0:0:0:
320,304,203955,5,0,3:0:0:0:
301,233,204044,5,0,0:0:0:0:
312,258,204132,6,0,P|302:191|282:124,1,103.935001585922,2|0,1:2|0:0,0:0:0:0:
310,141,204399,2,0,P|263:91|208:48,1,103.935001585922,2|0,2:0|0:0,0:0:0:0:
163,73,204665,1,2,1:2:0:0:
163,73,204842,5,0,3:0:0:0:
0,0,205197,1,0,3:0:0:0:
160,209,205730,5,0,1:0:0:0:
123,203,205819,1,0,1:0:0:0:
89,216,205907,1,0,1:0:0:0:
71,248,205996,1,0,1:0:0:0:
70,284,206085,1,0,1:0:0:0:
87,316,206174,1,0,1:0:0:0:
120,328,206263,2,0,P|241:335|336:295,1,207.870003171845,6|0,3:1|0:0,0:0:0:0:
437,353,206795,5,0,3:0:0:0:
437,353,206973,2,0,B|467:311|467:311|465:252,1,103.935001585922,2|0,1:2|0:0,0:0:0:0:
445,237,207239,2,0,B|415:195|415:195|417:136,1,103.935001585922,2|0,1:2|0:0,0:0:0:0:
437,121,207505,1,2,1:2:0:0:
437,121,207683,5,0,3:0:0:0:
512,0,208038,1,0,3:0:0:0:
163,6,208570,5,0,1:0:0:0:
179,45,208659,1,0,1:0:0:0:
180,87,208748,1,0,1:0:0:0:
161,125,208836,1,0,1:0:0:0:
153,167,208925,1,0,1:0:0:0:
160,209,209014,1,0,1:0:0:0:
