osu file format v14

[General]
AudioFilename: audio.mp3
AudioLeadIn: 0
PreviewTime: 11157
Countdown: 0
SampleSet: Soft
StackLeniency: 0.7
Mode: 0
LetterboxInBreaks: 0
WidescreenStoryboard: 1

[Editor]
Bookmarks: 11269,29179
DistanceSpacing: 1
BeatDivisor: 4
GridSize: 4
TimelineZoom: 1

[Metadata]
Title:yapyap
TitleUnicode:얍국가
Artist:Twitch Big Streamer
ArtistUnicode:김성태
Creator:jieusieu
Version:BloodTrail
Source:
Tags:얍얍
BeatmapID:1288966
BeatmapSetID:610465

[Difficulty]
HPDrainRate:3
CircleSize:4.5
OverallDifficulty:6.9
ApproachRate:7.8
SliderMultiplier:1.7
SliderTickRate:1

[Events]
//Background and Video events
0,0,"1494176527.png",0,0
//Break Periods
//Storyboard Layer 0 (Background)
//Storyboard Layer 1 (Fail)
//Storyboard Layer 2 (Pass)
//Storyboard Layer 3 (Foreground)
//Storyboard Sound Samples

[TimingPoints]
523,447.761194029851,4,2,0,80,1,0
22015,-100,4,2,0,60,0,0
22463,-100,4,2,0,70,0,0
22911,-100,4,2,0,80,0,0
23358,-100,4,2,0,90,0,0
23806,-100,4,2,0,100,0,0
24254,-100,4,2,0,100,0,0

[HitObjects]
236,376,11269,6,0,P|232:336|220:284,1,85,4|0,0:3|0:0,0:0:0:0:
468,168,11717,2,0,P|460:200|454:251,1,85,2|0,0:3|0:0,0:0:0:0:
148,100,12164,2,0,P|210:46|291:61,1,170,4|4,0:0|0:0,0:0:0:0:
291,61,13060,5,4,0:3:0:0:
132,196,13284,2,0,P|100:164|48:148,1,85,0|2,0:0|0:3,0:0:0:0:
188,340,13731,1,0,0:0:0:0:
360,111,13955,6,0,P|351:153|346:195,1,85,4|0,0:3|0:0,0:0:0:0:
120,84,14403,2,0,P|127:42|132:0,1,85,2|0,0:3|0:0,0:0:0:0:
288,284,14851,5,4,0:3:0:0:
276,28,15075,1,0,0:0:0:0:
436,212,15299,5,2,0:0:0:0:
120,84,15523,1,4,0:3:0:0:
292,376,15746,5,4,0:3:0:0:
360,72,15970,1,0,0:0:0:0:
63,149,16194,5,2,0:3:0:0:
63,149,16642,6,0,P|103:157|155:165,1,85,4|0,0:3|0:0,0:0:0:0:
387,370,17090,2,0,P|345:376|303:384,1,85,2|0,0:3|0:0,0:0:0:0:
216,104,17537,5,4,0:3:0:0:
332,292,17761,1,0,0:0:0:0:
512,72,17985,2,0,P|502:113|495:155,1,85,2|0,0:3|0:0,0:0:0:0:
212,352,18433,6,0,P|195:313|166:281,1,85,4|0,0:3|0:0,0:0:0:0:
324,12,18881,2,0,P|328:72|332:116,1,85,2|0,0:3|0:0,0:0:0:0:
21,164,19328,2,0,L|189:192,1,170,4|4,0:0|0:0,0:0:0:0:
188,191,20224,5,4,0:3:0:0:
108,12,20448,2,0,P|65:13|29:33,1,85,0|2,0:0|0:3,0:0:0:0:
228,76,20895,1,4,0:3:0:0:
115,259,21119,6,0,P|108:208|100:160,1,85,4|0,0:3|0:0,0:0:0:0:
304,16,21567,2,0,P|311:67|319:115,1,85,2|0,0:3|0:0,0:0:0:0:
352,288,22015,5,4,0:1:0:0:
115,259,22239,1,12,0:3:0:0:
392,208,22463,5,12,0:3:0:0:
24,216,22687,1,12,0:3:0:0:
428,328,22910,5,12,0:3:0:0:
28,128,23134,1,12,0:3:0:0:
476,104,23358,5,12,0:3:0:0:
24,216,23582,1,12,0:3:0:0:
512,232,23806,5,4,0:0:0:0:
512,232,24254,6,0,P|468:240|416:252,1,85,2|0,0:3|0:0,0:0:0:0:
212,384,24702,2,0,P|170:375|128:367,1,85,2|2,0:3|3:0,0:0:0:0:
116,351,25037,1,8,0:3:0:0:
104,335,25149,1,4,0:3:0:0:
64,108,25373,1,0,0:0:0:0:
284,192,25597,6,0,B|372:216|360:144|448:168,1,170,4|2,0:0|0:3,0:0:0:0:
316,112,26269,1,0,0:0:0:0:
405,332,26493,2,0,P|412:288|419:248,1,85,4|0,0:3|0:0,0:0:0:0:
184,72,26940,2,0,P|190:114|194:156,1,85,2|0,0:3|0:0,0:0:0:0:
445,167,27388,5,4,0:3:0:0:
203,249,27612,2,0,P|163:225|107:221,1,85,0|2,0:0|0:3,0:0:0:0:
316,384,28060,1,0,0:0:0:0:
267,61,28284,6,0,P|307:57|375:45,1,85,4|0,0:3|3:0,0:0:0:0:
496,240,28731,2,0,P|456:244|388:256,1,85,8|4,0:3|0:3,0:0:0:0:
432,84,29179,5,4,0:0:0:0:
