osu file format v14

[General]
AudioFilename: Twisted Fate - Sweet Sweet Cendrillon Drug.mp3
AudioLeadIn: 0
PreviewTime: 70105
Countdown: 1
SampleSet: Soft
StackLeniency: 0.7
Mode: 0
LetterboxInBreaks: 1
WidescreenStoryboard: 1

[Editor]
Bookmarks: 90015,100015,149091,158937
DistanceSpacing: 0.7
BeatDivisor: 4
GridSize: 4
TimelineZoom: 1

[Metadata]
Title:Sweet Sweet Cendrillon Drug
TitleUnicode:Sweet Sweet Cendrillon Drug
Artist:Twisted Fate
ArtistUnicode:Twisted ǝʇɐɟ
Creator:Kyshiro
Version:cant
Source:
Tags:MuryokuP remix
BeatmapID:1377241
BeatmapSetID:649869

[Difficulty]
HPDrainRate:7
CircleSize:4
OverallDifficulty:8
ApproachRate:9
SliderMultiplier:1.8
SliderTickRate:1

[Events]
//Background and Video events
0,0,"bgb.jpg",0,0
Video,0,"cendrillon.avi"
//Break Periods
//Storyboard Layer 0 (Background)
//Storyboard Layer 1 (Fail)
//Storyboard Layer 2 (Pass)
//Storyboard Layer 3 (Foreground)
//Storyboard Sound Samples

[TimingPoints]
403,307.692307692308,4,2,0,45,1,0
1326,-133.333333333333,4,2,0,45,0,0
21172,307.692307692308,4,2,0,45,1,0
70403,-83.3333333333333,4,1,0,65,0,1
90095,-100,4,1,0,65,0,0
100095,307.692307692308,4,2,0,45,1,0
100095,-133.333333333333,4,2,0,45,0,0
109941,-100,4,2,0,45,0,0
119633,307.692307692308,4,2,0,45,1,0
129479,-83.3333333333333,4,1,0,65,0,1
149172,-100,4,1,0,45,0,0
168864,307.692307692308,4,2,0,45,1,0
208248,-100,4,1,0,65,0,1
227940,-100,4,1,0,65,0,0

[Colours]
Combo1 : 169,140,208
Combo2 : 220,156,156
Combo3 : 140,171,227
Combo4 : 129,216,181

[HitObjects]
39,81,21172,6,0,P|98:56|198:106,1,180
200,301,21633,1,0,0:0:0:0:
110,241,21787,1,0,0:0:0:0:
110,241,21864,1,0,0:0:0:0:
110,241,21941,2,0,P|96:192|108:155,1,90
244,33,22248,1,0,0:0:0:0:
389,133,22402,6,0,L|423:322,1,180
288,173,22864,2,0,L|303:84,1,90
329,53,23095,1,0,0:0:0:0:
329,53,23172,1,0,0:0:0:0:
512,282,23325,2,0,L|496:370,1,90
146,304,23633,6,0,P|222:253|313:281,1,180
239,361,24095,1,0,0:0:0:0:
58,251,24248,1,0,0:0:0:0:
58,251,24325,1,0,0:0:0:0:
58,251,24402,2,0,P|52:204|66:157,1,90
275,31,24710,1,0,0:0:0:0:
190,98,24864,6,0,L|96:89,1,90
223,204,25172,1,0,0:0:0:0:
330,200,25325,2,0,L|424:191,1,90
496,86,25633,1,0,0:0:0:0:
292,48,25787,1,0,0:0:0:0:
400,34,25941,1,0,0:0:0:0:
223,131,26095,6,0,P|166:148|66:78,1,180
292,48,26556,2,0,P|327:87|338:126,1,90
340,160,26787,1,0,0:0:0:0:
340,160,26864,1,0,0:0:0:0:
213,301,27018,2,0,P|227:258|258:226,1,90
497,191,27325,6,0,P|444:212|336:151,1,180
433,109,27787,1,0,0:0:0:0:
269,245,27941,1,0,0:0:0:0:
269,245,28018,1,0,0:0:0:0:
269,245,28095,2,0,L|168:233,1,90
76,266,28402,1,0,0:0:0:0:
24,89,28556,6,0,P|112:61|194:123,1,180
97,171,29018,1,0,0:0:0:0:
254,51,29172,1,0,0:0:0:0:
254,51,29248,1,0,0:0:0:0:
254,51,29325,2,0,P|300:63|354:59,1,90,0|0,0:0|0:0,0:0:0:0:
446,29,29633,1,0,0:0:0:0:
121,68,29787,6,0,L|79:244,1,180
55,266,30172,1,0,0:0:0:0:
55,266,30248,1,0,0:0:0:0:
308,354,30402,1,0,0:0:0:0:
332,341,30478,1,0,0:0:0:0:
353,323,30555,1,0,0:0:0:0:
370,302,30632,1,0,0:0:0:0:
383,278,30709,1,0,0:0:0:0:
390,251,30786,1,0,0:0:0:0:
392,224,30863,1,0,0:0:0:0:
388,197,30940,1,0,0:0:0:0:
379,171,31017,1,0,0:0:0:0:
