osu file format v14

[General]
AudioFilename: Twisted Fate - Sweet Sweet Cendrillon Drug.mp3
AudioLeadIn: 0
PreviewTime: 70095
Countdown: 1
SampleSet: Normal
StackLeniency: 0.7
Mode: 0
LetterboxInBreaks: 1
WidescreenStoryboard: 1

[Editor]
Bookmarks: 90015,100015,149091,158937,198402,207940,237787
DistanceSpacing: 1
BeatDivisor: 4
GridSize: 32
TimelineZoom: 1

[Metadata]
Title:Sweet Sweet Cendrillon Drug
TitleUnicode:Sweet Sweet Cendrillon Drug
Artist:Twisted Fate
ArtistUnicode:↑Twisted ǝʇɐɟ↓
Creator:Kyshiro
Version:Addiction
Source:
Tags:MuryokuP remix
BeatmapID:1377240
BeatmapSetID:649869

[Difficulty]
HPDrainRate:6
CircleSize:4.3
OverallDifficulty:8.5
ApproachRate:9.4
SliderMultiplier:1.8
SliderTickRate:1

[Events]
//Background and Video events
0,0,"bgb.jpg",0,0
Video,0,"cendrillon.avi"
//Break Periods
2,90295,99555
2,149371,158477
2,198602,207400
//Storyboard Layer 0 (Background)
//Storyboard Layer 1 (Fail)
//Storyboard Layer 2 (Pass)
//Storyboard Layer 3 (Foreground)
//Storyboard Sound Samples

[TimingPoints]
403,307.692307692308,4,2,0,45,1,0
1326,-166.666666666667,4,2,0,45,0,0
9941,-200,4,2,0,45,0,0
11479,-166.666666666667,4,2,0,45,0,0
13479,-166.666666666667,4,2,0,5,0,0
13633,-166.666666666667,4,2,0,45,0,0
18710,-400,4,2,0,45,0,0
19941,-800,4,2,0,45,0,0
21172,307.692307692308,4,2,0,45,1,0
41018,-114.942528735632,4,2,0,45,0,0
58095,-100,4,2,0,45,0,0
69172,-800,4,2,0,45,0,0
70095,-117.647058823529,4,2,0,45,0,0
70402,-83.3333333333333,4,1,0,65,0,1
90095,-100,4,1,0,65,0,0
100095,307.692307692308,4,2,0,45,1,0
100095,-158.730158730159,4,2,0,45,0,0
109325,-100,4,2,0,45,0,0
109941,-114.942528735632,4,2,0,45,0,0
119633,307.692307692308,4,2,0,45,1,0
124479,-100,4,2,0,5,0,0
124556,-100,4,2,0,45,0,0
127017,-400,4,2,0,45,0,0
128248,-800,4,2,0,45,0,0
129479,-83.3333333333333,4,1,0,65,0,1
149172,-100,4,1,0,45,0,0
159017,-555.555555555556,4,2,0,45,0,0
163940,-333.333333333333,4,2,0,45,0,0
168556,-333.333333333333,4,2,0,5,0,0
168864,307.692307692308,4,2,0,45,1,0
168864,-263.157894736842,4,2,0,45,0,0
178710,-208.333333333333,4,2,0,45,0,0
183633,-172.413793103448,4,2,0,45,0,0
187325,-555.555555555556,4,2,0,45,0,0
188556,-71.4285714285714,4,1,0,45,0,1
198402,-83.3333333333333,4,2,0,45,0,0
207940,-133.333333333333,4,2,0,45,0,0
208248,-83.3333333333333,4,1,0,65,0,1
218094,-100,4,1,0,65,0,1
223017,-86.9565217391304,4,1,0,65,0,1
227940,-90.9090909090909,4,1,0,65,0,0

[Colours]
Combo1 : 185,225,225
Combo2 : 186,174,238
Combo3 : 164,205,255
Combo4 : 251,174,186

[HitObjects]
63,86,1326,5,0,0:0:0:0:
161,165,1633,2,0,L|146:288,2,107.999996704102
316,148,2556,2,0,P|257:171|140:88,2,215.999993408203
247,60,4095,5,0,0:0:0:0:
487,133,4403,1,0,0:0:0:0:
183,193,4710,1,0,0:0:0:0:
370,41,5018,2,0,L|353:263,1,215.999993408203
353,256,6249,5,0,0:0:0:0:
163,174,6556,2,0,P|217:147|280:149,2,107.999996704102
416,124,7479,2,0,P|336:63|211:48,2,215.999993408203
249,243,9018,5,0,0:0:0:0:
142,132,9326,1,0,0:0:0:0:
388,222,9633,1,0,0:0:0:0:
118,250,9941,2,0,L|95:64,1,180
95,71,11172,5,0,0:0:0:0:
285,161,11479,2,0,P|234:160|176:135,2,107.999996704102
99,266,12403,2,0,P|148:245|202:243,1,107.999996704102
417,256,13018,2,0,P|382:219|354:113,1,161.999995056153
353,113,13633,6,0,P|324:161|166:191,1,215.999993408203
224,62,14556,1,0,0:0:0:0:
41,284,14864,2,0,B|146:248|146:319|252:284,2,215.999993408203
335,351,16403,6,0,P|356:291|349:244,2,107.999996704102
267,162,17326,2,0,P|340:135|454:200,1,215.999993408203
81,267,18710,6,0,P|61:233|38:156,1,112.5
210,153,19941,6,0,P|231:112|240:76,1,78.75
239,80,21172,6,0,P|297:104|360:95,1,90
423,47,21479,1,0,0:0:0:0:
137,21,21633,2,0,L|126:117,1,90
295,282,21941,2,0,L|284:192,1,90
0,216,22248,1,0,0:0:0:0:
0,216,22325,1,0,0:0:0:0:
0,216,22402,6,0,B|54:255|54:255|177:218,1,180
268,83,22864,1,0,0:0:0:0:
57,62,23018,1,0,0:0:0:0:
57,62,23095,1,0,0:0:0:0:
57,62,23172,2,0,L|72:166,1,90
185,302,23479,1,0,0:0:0:0:
337,125,23633,6,0,B|248:91|248:158|160:125,1,180
204,9,24095,1,0,0:0:0:0:
296,220,24248,1,0,0:0:0:0:
51,157,24402,2,0,L|160:150,1,90
411,165,24710,1,0,0:0:0:0:
274,319,24864,6,0,L|259:140,1,180
350,46,25325,1,0,0:0:0:0:
360,248,25479,1,0,0:0:0:0:
360,248,25556,1,0,0:0:0:0:
360,248,25633,1,0,0:0:0:0:
233,35,25787,1,0,0:0:0:0:
470,53,25941,1,0,0:0:0:0:
164,129,26095,6,0,P|249:115|328:170,1,180
244,315,26556,2,0,L|229:209,1,90
346,58,26864,1,0,0:0:0:0:
324,257,27018,1,0,0:0:0:0:
130,209,27172,1,0,0:0:0:0:
397,157,27325,6,0,P|313:160|239:87,1,180
465,90,27787,1,0,0:0:0:0:
221,215,27941,1,0,0:0:0:0:
221,215,28018,1,0,0:0:0:0:
221,215,28095,1,0,0:0:0:0:
406,263,28248,1,0,0:0:0:0:
117,300,28402,1,0,0:0:0:0:
424,356,28556,6,0,L|457:167,1,180
312,48,29018,2,0,L|329:150,1,90
203,344,29325,1,0,0:0:0:0:
213,314,29402,1,0,0:0:0:0:
218,282,29479,1,0,0:0:0:0:
218,250,29556,1,0,0:0:0:0:
212,218,29633,1,0,0:0:0:0:
201,188,29710,1,0,0:0:0:0:
184,161,29787,6,0,L|62:172,1,90
311,237,30095,1,0,0:0:0:0:
13,268,30248,2,0,L|135:279,1,90
330,74,30556,1,0,0:0:0:0:
302,58,30633,1,0,0:0:0:0:
271,49,30710,1,0,0:0:0:0:
239,46,30787,1,0,0:0:0:0:
207,47,30864,1,0,0:0:0:0:
175,51,30941,1,0,0:0:0:0:
145,61,31018,6,0,L|131:167,1,90
268,164,31325,1,0,0:0:0:0:
33,229,31479,2,0,P|15:187|16:131,1,90
169,264,31787,2,0,P|167:308|149:349,1,90
136,102,32095,1,0,0:0:0:0:
339,244,32248,6,0,P|299:191|305:65,1,180
417,136,32710,1,0,0:0:0:0:
272,321,32864,1,0,0:0:0:0:
272,321,32941,1,0,0:0:0:0:
272,321,33018,1,0,0:0:0:0:
201,134,33172,1,0,0:0:0:0:
483,210,33325,1,0,0:0:0:0:
163,232,33479,6,0,L|171:41,1,180
35,239,33941,2,0,L|38:328,1,90
354,222,34248,2,0,L|264:225,1,90
181,348,34556,1,0,0:0:0:0:
465,307,34710,6,0,P|491:245|455:131,1,180
202,163,35172,1,0,0:0:0:0:
354,222,35325,1,0,0:0:0:0:
354,222,35402,1,0,0:0:0:0:
354,222,35479,1,0,0:0:0:0:
384,39,35633,1,0,0:0:0:0:
113,126,35787,1,0,0:0:0:0:
113,126,35864,1,0,0:0:0:0:
113,126,35941,6,0,P|185:146|279:81,1,180
4,79,36402,2,0,P|-3:143|10:179,1,90
288,186,36710,2,0,L|188:167,1,90
101,284,37018,1,0,0:0:0:0:
393,280,37172,6,0,L|382:94,1,180
501,194,37633,1,0,0:0:0:0:
267,146,37787,1,0,0:0:0:0:
267,146,37864,1,0,0:0:0:0:
267,146,37941,2,0,P|238:89|238:53,1,90
425,33,38248,1,0,0:0:0:0:
292,258,38402,6,0,P|222:245|127:160,1,180
119,58,38864,1,0,0:0:0:0:
410,221,39018,1,0,0:0:0:0:
410,221,39095,1,0,0:0:0:0:
410,221,39171,2,0,L|396:323,1,90
240,358,39479,1,0,0:0:0:0:
379,109,39633,6,0,L|481:123,1,90
291,201,39941,1,0,0:0:0:0:
291,201,40018,1,0,0:0:0:0:
291,201,40095,1,0,0:0:0:0:
339,27,40248,1,0,0:0:0:0:
493,259,40402,1,0,0:0:0:0:
454,282,40479,1,0,0:0:0:0:
411,295,40556,1,0,0:0:0:0:
366,287,40633,1,0,0:0:0:0:
327,263,40710,1,0,0:0:0:0:
286,242,40787,1,0,0:0:0:0:
240,240,40864,1,0,0:0:0:0:
199,258,40941,1,0,0:0:0:0:
175,296,41018,6,0,P|156:248|130:214,1,78.3000006571198
58,95,41325,2,0,P|36:127|23:164,1,78.3000006571198
66,343,41633,1,0,0:0:0:0:
218,209,41787,1,0,0:0:0:0:
1,266,41941,1,0,0:0:0:0:
199,313,42095,6,0,L|363:300,1,156.60000131424
492,216,42556,2,0,L|410:209,1,78.3000006571198
266,138,42864,1,0,0:0:0:0:
473,104,43018,1,0,0:0:0:0:
369,19,43172,2,0,L|362:101,1,78.3000006571198
137,234,43479,6,0,P|110:184|120:79,1,156.60000131424
254,243,43941,1,0,0:0:0:0:
95,329,44095,2,0,P|47:314|14:292,1,78.3000006571198
11,171,44402,1,0,0:0:0:0:
297,172,44556,6,0,P|273:337|274:354,1,156.60000131424
399,212,45018,1,0,0:0:0:0:
225,110,45172,1,0,0:0:0:0:
192,228,45325,1,0,0:0:0:0:
192,228,45402,1,0,0:0:0:0:
192,228,45479,1,0,0:0:0:0:
426,114,45633,1,0,0:0:0:0:
165,42,45787,1,0,0:0:0:0:
292,288,45941,6,0,P|306:243|305:189,1,78.3000006571198
87,192,46248,2,0,P|125:195|162:207,1,78.3000006571198
171,339,46556,1,0,0:0:0:0:
27,251,46710,1,0,0:0:0:0:
237,179,46864,1,0,0:0:0:0:
72,328,47018,6,0,L|53:163,1,156.60000131424
159,33,47479,2,0,L|150:110,1,78.3000006571198
367,97,47787,2,0,L|289:88,1,78.3000006571198
239,202,48095,1,0,0:0:0:0:
387,117,48248,1,0,0:0:0:0:
129,116,48402,6,0,P|126:194|154:271,1,156.60000131424
302,297,48864,1,0,0:0:0:0:
89,192,49018,2,0,P|41:181|5:180,1,78.3000006571198
135,343,49325,1,0,0:0:0:0:
222,191,49479,5,0,0:0:0:0:
40,287,49633,1,0,0:0:0:0:
40,287,49710,1,0,0:0:0:0:
40,287,49787,1,0,0:0:0:0:
238,363,49941,1,0,0:0:0:0:
223,98,50095,1,0,0:0:0:0:
135,343,50248,1,0,0:0:0:0:
169,374,50325,1,0,0:0:0:0:
215,378,50402,1,0,0:0:0:0:
254,351,50479,1,0,0:0:0:0:
263,304,50556,1,0,0:0:0:0:
274,258,50633,1,0,0:0:0:0:
313,233,50710,1,0,0:0:0:0:
359,237,50787,1,0,0:0:0:0:
392,270,50864,6,0,P|401:320|397:364,1,78.3000006571198
337,153,51172,2,0,P|387:144|431:148,1,78.3000006571198
507,228,51479,1,0,0:0:0:0:
256,198,51633,1,0,0:0:0:0:
316,67,51787,1,0,0:0:0:0:
379,288,51941,6,0,L|368:368,1,78.3000006571198
239,119,52248,2,0,L|228:41,1,78.3000006571198
120,287,52556,2,0,P|176:284|213:271,1,78.3000006571198
339,184,52864,1,0,0:0:0:0:
148,173,53018,1,0,0:0:0:0:
288,315,53172,1,0,0:0:0:0:
266,79,53325,6,0,P|249:124|244:163,1,78.3000006571198
452,185,53633,2,0,P|413:178|377:163,1,78.3000006571198
380,32,53941,1,0,0:0:0:0:
392,251,54095,1,0,0:0:0:0:
256,232,54248,1,0,0:0:0:0:
476,121,54402,6,0,L|490:221,1,78.3000006571198
204,151,54710,2,0,L|304:137,1,78.3000006571198
167,299,55018,1,0,0:0:0:0:
64,196,55172,1,0,0:0:0:0:
64,196,55248,1,0,0:0:0:0:
64,196,55325,1,0,0:0:0:0:
267,241,55479,1,0,0:0:0:0:
31,317,55633,1,0,0:0:0:0:
178,85,55787,6,0,P|185:136|181:167,1,78.3000006571198
275,344,56095,2,0,P|272:305|278:266,1,78.3000006571198
416,187,56402,1,0,0:0:0:0:
397,321,56556,1,0,0:0:0:0:
171,288,56710,1,0,0:0:0:0:
378,101,56864,6,0,L|391:194,1,78.3000006571198
171,171,57172,2,0,L|264:158,1,78.3000006571198
260,23,57479,1,0,0:0:0:0:
100,46,57633,1,0,0:0:0:0:
268,164,57787,1,0,0:0:0:0:
361,22,57941,1,0,0:0:0:0:
61,132,58095,6,0,P|44:196|66:308,1,180
285,314,58556,1,0,0:0:0:0:
229,152,58710,1,0,0:0:0:0:
193,368,58864,1,0,0:0:0:0:
375,267,59018,1,0,0:0:0:0:
89,304,59172,1,0,0:0:0:0:
389,366,59325,6,0,L|419:176,1,180
96,69,59787,1,0,0:0:0:0:
119,112,59864,1,0,0:0:0:0:
164,131,59941,1,0,0:0:0:0:
213,123,60018,1,0,0:0:0:0:
248,87,60095,1,0,0:0:0:0:
286,55,60172,1,0,0:0:0:0:
334,57,60248,1,0,0:0:0:0:
376,82,60325,1,0,0:0:0:0:
391,129,60402,1,0,0:0:0:0:
369,173,60479,1,0,0:0:0:0:
326,198,60556,6,0,P|311:260|315:309,1,90
419,349,60864,1,0,0:0:0:0:
424,116,61018,2,0,P|353:100|249:141,1,180
180,329,61479,1,0,0:0:0:0:
136,177,61633,2,0,P|124:116|110:84,1,90
65,250,61941,5,0,0:0:0:0:
201,55,62095,1,0,0:0:0:0:
289,214,62248,2,0,P|273:256|266:300,1,90
462,130,62556,2,0,L|358:119,1,90
215,157,62864,1,0,0:0:0:0:
481,241,63018,6,0,L|503:33,1,180
361,248,63479,2,0,L|370:337,1,90
398,132,63787,1,0,0:0:0:0:
270,315,63941,1,0,0:0:0:0:
455,322,64095,1,0,0:0:0:0:
197,236,64248,6,0,P|142:242|104:255,1,90
107,28,64556,2,0,P|110:72|123:115,1,90
356,124,64864,2,0,L|259:113,1,90
431,202,65172,1,0,0:0:0:0:
237,39,65325,1,0,0:0:0:0:
464,111,65479,6,0,P|465:189|444:293,1,180
229,218,65941,2,0,L|324:209,1,90
145,300,66248,2,0,L|55:291,1,90
7,175,66556,1,0,0:0:0:0:
250,357,66710,6,0,P|320:348|423:299,1,180
333,117,67172,2,0,P|325:167|328:214,1,90
454,110,67479,1,0,0:0:0:0:
240,51,67633,1,0,0:0:0:0:
447,222,67787,1,0,0:0:0:0:
352,29,67941,6,0,P|270:10|174:15,1,180
102,206,68402,1,0,0:0:0:0:
241,161,68556,1,0,0:0:0:0:
26,113,68710,1,0,0:0:0:0:
201,285,68864,1,0,0:0:0:0:
236,50,69018,1,0,0:0:0:0:
35,304,69172,6,0,L|42:350,1,45
61,356,70095,6,0,L|75:262,1,76.5000014591217
225,112,70402,6,0,P|98:90|28:154,1,215.999993408203
327,190,70864,2,0,B|356:145|356:145|350:89,1,107.999996704102
144,210,71172,2,0,B|138:264|138:264|167:309,1,107.999996704102
225,112,71479,1,0,0:0:0:0:
52,199,71633,5,0,0:0:0:0:
52,199,71710,1,0,0:0:0:0:
52,199,71787,1,0,0:0:0:0:
236,219,71941,1,0,0:0:0:0:
216,19,72095,1,0,0:0:0:0:
114,249,72248,2,0,L|222:234,1,107.999996704102
449,72,72556,1,0,0:0:0:0:
446,88,72633,1,0,0:0:0:0:
444,104,72710,1,0,0:0:0:0:
442,120,72787,1,0,0:0:0:0:
440,136,72864,6,0,B|334:175|334:96|229:136,1,215.999993408203
285,233,73325,1,0,0:0:0:0:
387,39,73479,1,0,0:0:0:0:
117,97,73633,2,0,P|113:164|135:210,1,107.999996704102
353,119,73941,2,0,P|302:136|249:130,1,107.999996704102
290,13,74248,5,0,0:0:0:0:
464,122,74402,1,0,0:0:0:0:
464,122,74479,1,0,0:0:0:0:
464,122,74556,1,0,0:0:0:0:
311,244,74710,2,0,L|304:130,1,107.999996704102
53,261,75018,1,0,0:0:0:0:
67,269,75095,1,0,0:0:0:0:
81,277,75172,1,0,0:0:0:0:
94,284,75248,1,0,0:0:0:0:
106,293,75325,6,0,B|167:244|167:244|145:95,1,215.999993408203
30,156,75787,1,0,0:0:0:0:
196,323,75941,1,0,0:0:0:0:
257,195,76095,1,0,0:0:0:0:
47,300,76248,1,0,0:0:0:0:
299,343,76402,2,0,L|423:323,1,107.999996704102
117,188,76710,6,0,L|-7:168,1,107.999996704102
287,72,77018,2,0,L|267:196,1,107.999996704102
184,310,77325,1,0,0:0:0:0:
84,108,77479,1,0,0:0:0:0:
84,108,77556,1,0,0:0:0:0:
84,108,77633,1,0,0:0:0:0:
323,128,77787,6,0,B|341:199|341:199|321:265|321:265|340:336,1,215.999993408203
448,267,78248,1,0,0:0:0:0:
224,188,78402,1,0,0:0:0:0:
221,307,78556,1,0,0:0:0:0:
410,162,78710,1,0,0:0:0:0:
410,162,78787,1,0,0:0:0:0:
410,162,78864,1,0,0:0:0:0:
129,282,79018,6,0,B|234:321|234:242|339:282,1,215.999993408203
43,334,79479,2,0,P|6:280|1:222,1,107.999996704102
246,28,79787,1,0,0:0:0:0:
270,63,79864,1,0,0:0:0:0:
282,104,79941,1,0,0:0:0:0:
283,147,80018,1,0,0:0:0:0:
275,189,80095,1,0,0:0:0:0:
255,227,80172,1,0,0:0:0:0:
226,258,80248,6,0,L|109:246,1,107.999996704102
359,206,80556,1,0,0:0:0:0:
43,152,80710,2,0,L|160:140,1,107.999996704102
288,58,81018,1,0,0:0:0:0:
222,267,81172,1,0,0:0:0:0:
170,20,81325,1,0,0:0:0:0:
315,181,81479,1,0,0:0:0:0:
315,181,81556,1,0,0:0:0:0:
315,181,81633,6,0,P|335:253|330:294,1,107.999996704102
406,103,81941,1,0,0:0:0:0:
442,353,82095,2,0,P|440:299|459:248,1,107.999996704102
209,282,82402,2,0,P|281:302|322:297,1,107.999996704102
166,45,82710,6,0,P|100:20|130:123,1,215.999993408203
327,166,83172,2,0,L|448:152,1,107.999996704102
146,262,83479,2,0,L|25:248,1,107.999996704102
193,119,83787,1,0,0:0:0:0:
283,298,83941,5,0,0:0:0:0:
283,298,84018,1,0,0:0:0:0:
283,298,84095,1,0,0:0:0:0:
66,177,84248,1,0,0:0:0:0:
296,74,84402,1,0,0:0:0:0:
185,258,84556,1,0,0:0:0:0:
181,27,84710,1,0,0:0:0:0:
228,16,84787,1,0,0:0:0:0:
273,32,84864,1,0,0:0:0:0:
296,74,84941,1,0,0:0:0:0:
333,105,85018,1,0,0:0:0:0:
381,111,85095,1,0,0:0:0:0:
426,92,85172,6,0,P|328:63|222:115,1,215.999993408203
311,300,85633,2,0,B|342:254|342:254|336:201,1,107.999996704102
118,76,85941,2,0,B|112:129|112:129|143:175,1,107.999996704102
260,93,86248,1,0,0:0:0:0:
29,187,86402,1,0,0:0:0:0:
241,211,86556,5,0,0:0:0:0:
37,67,86710,1,0,0:0:0:0:
274,87,86864,1,0,0:0:0:0:
14,192,87018,1,0,0:0:0:0:
258,223,87172,1,0,0:0:0:0:
19,54,87326,1,0,0:0:0:0:
298,78,87479,1,0,0:0:0:0:
0,209,87633,6,0,L|17:326,1,107.999996704102
370,201,87941,1,0,0:0:0:0:
329,173,88018,1,0,0:0:0:0:
280,169,88095,1,0,0:0:0:0:
239,195,88172,1,0,0:0:0:0:
202,226,88248,1,0,0:0:0:0:
155,240,88325,1,0,0:0:0:0:
109,223,88402,1,0,0:0:0:0:
83,181,88479,1,0,0:0:0:0:
95,134,88556,1,0,0:0:0:0:
135,107,88633,1,0,0:0:0:0:
182,115,88710,1,0,0:0:0:0:
213,152,88787,1,0,0:0:0:0:
210,200,88864,1,0,0:0:0:0:
210,200,89172,5,0,0:0:0:0:
241,171,89248,1,0,0:0:0:0:
284,167,89325,1,0,0:0:0:0:
322,185,89402,1,0,0:0:0:0:
345,221,89479,1,0,0:0:0:0:
375,251,89556,1,0,0:0:0:0:
418,254,89633,1,0,0:0:0:0:
455,233,89710,1,0,0:0:0:0:
470,192,89787,1,0,0:0:0:0:
454,151,89864,1,0,0:0:0:0:
415,130,89941,1,0,0:0:0:0:
372,139,90018,1,0,0:0:0:0:
349,170,90095,1,0,0:0:0:0:
89,156,100095,6,0,L|67:44,2,113.399996539307
214,63,101018,1,0,0:0:0:0:
291,179,101325,5,0,0:0:0:0:
287,201,101633,1,0,0:0:0:0:
283,223,101941,1,0,0:0:0:0:
279,245,102248,1,0,0:0:0:0:
427,235,102556,5,0,0:0:0:0:
431,257,102864,1,0,0:0:0:0:
435,279,103172,1,0,0:0:0:0:
439,301,103479,1,0,0:0:0:0:
482,147,103787,6,0,P|491:95|514:35,1,113.399996539307
288,178,104402,2,0,P|308:230|318:286,1,113.399996539307
114,341,105018,6,0,L|-1:325,2,113.399996539307
239,250,105941,1,0,0:0:0:0:
68,163,106248,5,0,0:0:0:0:
90,157,106556,1,0,0:0:0:0:
112,151,106864,1,0,0:0:0:0:
134,146,107171,1,0,0:0:0:0:
424,316,107479,5,0,0:0:0:0:
424,316,109325,6,0,L|442:292,1,22.5
410,286,109402,2,0,L|418:257,1,22.5
386,263,109479,2,0,L|384:233,1,22.5
356,249,109556,2,0,L|344:221,1,22.5
323,246,109633,2,0,L|302:224,1,22.5
291,254,109710,2,0,L|264:240,1,22.5
265,272,109787,2,0,L|235:268,1,22.5
246,299,109864,2,0,L|216:305,1,22.5
242,328,109941,6,0,P|190:339|143:333,1,78.3000006571198
194,119,110248,2,0,P|183:171|189:212,1,78.3000006571198
308,162,110556,1,0,0:0:0:0:
90,159,110710,1,0,0:0:0:0:
334,269,110864,1,0,0:0:0:0:
204,89,111018,6,0,L|220:248,1,156.60000131424
327,117,111479,2,0,L|336:29,1,78.3000006571198
401,196,111787,1,0,0:0:0:0:
225,104,111941,1,0,0:0:0:0:
428,180,112095,2,0,L|437:261,1,78.3000006571198
212,242,112402,6,0,P|266:224|299:222,1,78.3000006571198
121,342,112710,2,0,P|82:336|45:321,1,78.3000006571198
92,139,113018,2,0,L|105:235,1,78.3000006571198
7,59,113325,1,0,0:0:0:0:
206,48,113479,6,0,B|253:24|253:24|297:50|297:50|354:42,1,156.60000131424
479,141,113941,1,0,0:0:0:0:
324,222,114095,1,0,0:0:0:0:
456,39,114248,1,0,0:0:0:0:
456,39,114325,1,0,0:0:0:0:
456,39,114402,1,0,0:0:0:0:
407,284,114556,1,0,0:0:0:0:
217,221,114710,1,0,0:0:0:0:
336,69,114864,6,0,L|350:158,1,78.3000006571198
199,322,115171,2,0,L|211:244,1,78.3000006571198
179,77,115479,1,0,0:0:0:0:
110,263,115633,1,0,0:0:0:0:
306,285,115787,1,0,0:0:0:0:
92,150,115941,6,0,P|47:144|8:147,1,78.3000006571198
199,322,116248,1,0,0:0:0:0:
262,116,116402,2,0,P|268:71|265:32,1,78.3000006571198
142,36,116710,1,0,0:0:0:0:
366,220,116864,2,0,L|463:205,1,78.3000006571198
167,248,117171,6,0,P|114:226|12:217,1,156.60000131424
121,342,117633,1,0,0:0:0:0:
299,222,117787,1,0,0:0:0:0:
202,133,117941,1,0,0:0:0:0:
250,343,118095,1,0,0:0:0:0:
418,196,118248,1,0,0:0:0:0:
163,64,118402,6,0,L|182:231,1,156.60000131424
19,71,118864,1,0,0:0:0:0:
60,48,118941,1,0,0:0:0:0:
107,48,119018,1,0,0:0:0:0:
146,73,119095,1,0,0:0:0:0:
167,113,119171,1,0,0:0:0:0:
167,160,119248,1,0,0:0:0:0:
187,202,119325,1,0,0:0:0:0:
226,227,119402,1,0,0:0:0:0:
272,230,119479,1,0,0:0:0:0:
315,213,119556,1,0,0:0:0:0:
342,175,119633,6,0,P|266:151|184:206,1,180
457,237,120094,2,0,L|468:142,1,90
300,79,120402,1,0,0:0:0:0:
361,278,120556,1,0,0:0:0:0:
417,35,120709,1,0,0:0:0:0:
273,192,120863,6,0,L|256:373,1,180
65,244,121325,2,0,P|117:224|169:226,1,90
371,301,121633,1,0,0:0:0:0:
160,323,121786,1,0,0:0:0:0:
160,323,121863,1,0,0:0:0:0:
160,323,121940,1,0,0:0:0:0:
223,112,122094,6,0,P|298:100|376:176,1,180
96,126,122556,2,0,B|72:88|72:88|79:38,1,90
278,205,122863,2,0,B|284:249|284:249|260:287,1,90
229,84,123171,1,0,0:0:0:0:
374,253,123325,6,0,L|384:357,1,90
196,167,123633,2,0,L|204:77,1,90
429,117,123940,2,0,L|339:125,1,90
101,283,124248,2,0,B|146:295|146:295|189:284|189:284|236:294,1,135
253,299,124556,6,0,P|282:235|255:130,1,180
406,18,125017,2,0,P|380:78|381:114,1,90
447,200,125325,1,0,0:0:0:0:
285,35,125479,1,0,0:0:0:0:
184,192,125633,2,0,L|279:183,1,90
121,117,125940,5,0,0:0:0:0:
238,277,126094,1,0,0:0:0:0:
194,70,126248,1,0,0:0:0:0:
156,307,126402,1,0,0:0:0:0:
103,92,126556,1,0,0:0:0:0:
255,301,126710,1,0,0:0:0:0:
294,102,126863,1,0,0:0:0:0:
55,274,127017,6,0,P|36:244|28:145,1,135
201,38,128248,6,0,L|197:107,1,67.5
278,240,129325,1,0,0:0:0:0:
334,60,129479,6,0,B|228:20|228:99|123:60,1,215.999993408203
429,143,129940,2,0,P|454:98|457:37,1,107.999996704102
298,202,130248,2,0,L|311:327,1,107.999996704102
174,212,130556,1,0,0:0:0:0:
337,98,130709,5,0,0:0:0:0:
337,98,130786,1,0,0:0:0:0:
337,98,130863,1,0,0:0:0:0:
402,229,131017,1,0,0:0:0:0:
128,93,131171,1,0,0:0:0:0:
435,113,131325,2,0,L|425:223,1,107.999996704102
287,333,131633,1,0,0:0:0:0:
241,161,131786,1,0,0:0:0:0:
403,321,131940,6,0,B|337:350|337:350|281:304|281:304|210:315,1,215.999993408203
24,203,132402,2,0,P|95:206|142:228,1,107.999996704102
345,144,132709,2,0,P|294:161|240:160,1,107.999996704102
131,76,133017,1,0,0:0:0:0:
328,239,133171,1,0,0:0:0:0:
11,106,133325,5,0,0:0:0:0:
53,82,133402,1,0,0:0:0:0:
101,82,133479,1,0,0:0:0:0:
144,104,133556,1,0,0:0:0:0:
170,145,133633,1,0,0:0:0:0:
210,170,133709,1,0,0:0:0:0:
258,176,133786,1,0,0:0:0:0:
304,161,133863,1,0,0:0:0:0:
332,121,133940,2,0,L|351:10,1,107.999996704102
440,113,134248,1,0,0:0:0:0:
231,62,134402,6,0,L|267:274,1,215.999993408203
47,164,134863,2,0,B|95:141|95:141|156:153,1,107.999996704102
460,232,135171,2,0,B|406:242|406:242|358:219,1,107.999996704102
282,101,135479,1,0,0:0:0:0:
228,258,135633,1,0,0:0:0:0:
399,115,135786,5,0,0:0:0:0:
169,84,135940,1,0,0:0:0:0:
390,248,136094,2,0,L|519:231,1,107.999996704102
275,49,136402,2,0,L|292:178,1,107.999996704102
448,58,136709,1,0,0:0:0:0:
189,155,136863,6,0,B|294:194|294:115|399:155,1,215.999993408203
244,49,137325,1,0,0:0:0:0:
132,243,137479,1,0,0:0:0:0:
132,243,137556,1,0,0:0:0:0:
132,243,137633,1,0,0:0:0:0:
303,211,137786,1,0,0:0:0:0:
76,75,137940,1,0,0:0:0:0:
111,254,138094,6,0,L|133:364,1,107.999996704102
196,133,138402,1,0,0:0:0:0:
196,133,138479,1,0,0:0:0:0:
196,133,138556,1,0,0:0:0:0:
10,242,138709,1,0,0:0:0:0:
233,331,138863,1,0,0:0:0:0:
279,344,138940,1,0,0:0:0:0:
326,332,139017,1,0,0:0:0:0:
353,291,139094,1,0,0:0:0:0:
386,255,139171,1,0,0:0:0:0:
432,242,139248,1,0,0:0:0:0:
479,254,139325,6,0,P|412:273|277:209,1,215.999993408203
362,20,139786,2,0,L|376:140,1,107.999996704102
130,113,140094,2,0,L|250:99,1,107.999996704102
161,245,140402,1,0,0:0:0:0:
32,114,140556,1,0,0:0:0:0:
283,216,140709,6,0,P|284:283|263:329,1,107.999996704102
53,224,141017,1,0,0:0:0:0:
251,114,141171,2,0,L|361:133,1,107.999996704102
183,239,141479,1,0,0:0:0:0:
143,37,141633,1,0,0:0:0:0:
399,40,141786,6,0,B|399:73|379:96|379:96|403:127|403:127|366:178|382:244,1,215.999993408203
495,209,142248,1,0,0:0:0:0:
307,96,142402,1,0,0:0:0:0:
257,261,142556,2,0,L|376:245,1,107.999996704102
123,231,142863,2,0,L|139:350,1,107.999996704102
222,134,143171,1,0,0:0:0:0:
24,247,143325,1,0,0:0:0:0:
24,247,143402,1,0,0:0:0:0:
24,247,143479,1,0,0:0:0:0:
225,341,143633,6,0,B|330:380|330:301|435:341,1,215.999993408203
274,233,144094,1,0,0:0:0:0:
398,128,144248,6,0,L|384:248,1,107.999996704102
509,118,144556,1,0,0:0:0:0:
276,54,144709,2,0,P|338:49|391:27,1,107.999996704102
145,20,145017,2,0,P|162:70|166:124,1,107.999996704102
96,249,145325,1,0,0:0:0:0:
24,104,145479,5,0,0:0:0:0:
206,235,145633,1,0,0:0:0:0:
11,321,145786,1,0,0:0:0:0:
151,115,145940,1,0,0:0:0:0:
255,320,146094,1,0,0:0:0:0:
26,141,146248,1,0,0:0:0:0:
268,93,146402,1,0,0:0:0:0:
52,257,146556,1,0,0:0:0:0:
166,19,146709,1,0,0:0:0:0:
166,19,147017,5,0,0:0:0:0:
197,61,147094,1,0,0:0:0:0:
209,111,147171,1,0,0:0:0:0:
209,163,147248,1,0,0:0:0:0:
191,213,147325,1,0,0:0:0:0:
138,219,147402,1,0,0:0:0:0:
105,178,147479,1,0,0:0:0:0:
114,126,147556,1,0,0:0:0:0:
162,108,147633,1,0,0:0:0:0:
207,133,147709,1,0,0:0:0:0:
245,166,147786,1,0,0:0:0:0:
296,176,147863,1,0,0:0:0:0:
347,166,147940,1,0,0:0:0:0:
347,166,148248,5,0,0:0:0:0:
311,153,148325,1,0,0:0:0:0:
273,152,148402,1,0,0:0:0:0:
237,164,148479,1,0,0:0:0:0:
209,189,148556,1,0,0:0:0:0:
293,272,148709,1,0,0:0:0:0:
446,182,148863,1,0,0:0:0:0:
169,217,149017,1,0,0:0:0:0:
429,314,149171,5,0,0:0:0:0:
47,90,159017,6,0,P|99:85|168:117,1,129.600003164063
224,190,160402,2,0,L|217:287,1,97.2000023730469
287,347,161479,2,0,B|330:333|330:333|375:350|375:350|426:337,1,145.80000355957
193,270,163940,6,0,B|160:308|81:312|27:233|60:133|160:121|214:183|214:183|256:225|256:225|297:183|297:183|351:121|451:133|484:233|430:312|351:308|318:270,1,809.999975280762
257,105,168864,6,0,P|238:72|232:6,2,102.599998747559
508,52,170094,2,0,B|461:22|461:22|346:34,1,170.999997912598
415,233,171171,1,0,0:0:0:0:
415,233,171248,1,0,0:0:0:0:
415,233,171325,6,0,P|431:178|427:123,2,102.599998747559
311,278,172556,2,0,L|203:265,2,102.599998747559
64,114,173787,6,0,P|124:93|237:168,1,205.199997495117
138,213,174864,1,0,0:0:0:0:
138,213,174940,1,0,0:0:0:0:
138,213,175017,2,0,B|-4:199|-4:199|51:235,1,205.199997495117
235,284,176094,1,0,0:0:0:0:
235,284,176171,1,0,0:0:0:0:
235,284,176248,6,0,P|253:243|247:174,2,102.599998747559
182,118,177479,2,0,B|243:87|243:87|383:129,1,205.199997495117
122,216,178710,6,0,P|83:178|72:97,2,129.600003164063
264,245,179787,1,0,0:0:0:0:
264,245,179864,1,0,0:0:0:0:
264,245,179940,2,0,B|138:292|138:197|12:245,1,259.200006328125
207,138,181017,1,0,0:0:0:0:
207,138,181094,1,0,0:0:0:0:
207,138,181171,6,0,L|345:154,2,129.600003164063
407,93,182248,1,0,0:0:0:0:
407,93,182325,1,0,0:0:0:0:
407,93,182402,2,0,B|432:129|432:129|409:229,2,129.600003164063
91,70,183633,6,0,B|125:31|165:24|216:43|238:74|243:126|243:126|249:157|283:181|326:167,1,313.200009558106
164,124,184710,1,0,0:0:0:0:
164,124,184787,1,0,0:0:0:0:
164,124,184864,2,0,L|146:284,2,156.600004779053
37,277,186094,6,0,B|85:286|109:317|109:317|180:275|180:275|237:321|322:306,1,313.200009558106
331,189,187325,6,0,P|293:170|218:170,1,113.400002768555
104,77,188556,6,0,B|170:102|170:102|212:84|241:81|279:86|279:86|337:41,1,251.999992309571
171,2,189017,1,0,0:0:0:0:
135,202,189171,1,0,0:0:0:0:
272,94,189325,1,0,0:0:0:0:
48,47,189479,1,0,0:0:0:0:
265,215,189633,1,0,0:0:0:0:
372,20,189787,1,0,0:0:0:0:
156,108,189940,5,0,0:0:0:0:
387,160,190094,1,0,0:0:0:0:
230,17,190248,1,0,0:0:0:0:
82,192,190402,1,0,0:0:0:0:
261,147,190556,1,0,0:0:0:0:
35,70,190710,1,0,0:0:0:0:
120,298,190864,1,0,0:0:0:0:
355,149,191017,6,0,B|316:136|291:110|291:110|229:154|229:154|193:119|132:122,1,251.999992309571
290,235,191479,1,0,0:0:0:0:
383,34,191633,1,0,0:0:0:0:
391,302,191787,1,0,0:0:0:0:
201,177,191940,1,0,0:0:0:0:
440,163,192094,1,0,0:0:0:0:
248,315,192248,1,0,0:0:0:0:
141,85,192402,5,0,0:0:0:0:
336,235,192556,1,0,0:0:0:0:
115,215,192710,1,0,0:0:0:0:
329,94,192864,2,0,B|391:100|430:138|430:138|357:168|336:237,1,251.999992309571
469,269,193325,1,0,0:0:0:0:
145,326,193479,6,0,B|265:265|265:386|386:326,1,251.999992309571
349,124,193940,2,0,L|327:250,1,125.999996154785
247,23,194248,1,0,0:0:0:0:
86,166,194402,2,0,P|162:169|220:143,1,125.999996154785
38,276,194710,1,0,0:0:0:0:
322,278,194864,6,0,P|262:257|200:263,1,125.999996154785
409,179,195171,1,0,0:0:0:0:
282,23,195325,2,0,L|271:158,1,125.999996154785
159,36,195633,1,0,0:0:0:0:
382,236,195787,2,0,P|403:170|398:110,1,125.999996154785
122,188,196094,6,0,P|188:167|248:172,1,125.999996154785
112,300,196402,1,0,0:0:0:0:
23,128,196556,1,0,0:0:0:0:
238,283,196710,1,0,0:0:0:0:
2,320,196864,1,0,0:0:0:0:
147,112,197017,1,0,0:0:0:0:
339,187,197171,5,0,0:0:0:0:
338,199,197248,1,0,0:0:0:0:
337,211,197325,1,0,0:0:0:0:
336,223,197402,1,0,0:0:0:0:
335,235,197479,1,0,0:0:0:0:
334,247,197556,1,0,0:0:0:0:
333,259,197633,1,0,0:0:0:0:
332,271,197710,1,0,0:0:0:0:
331,283,197787,1,0,0:0:0:0:
330,295,197864,1,0,0:0:0:0:
329,307,197940,5,0,0:0:0:0:
290,274,198017,5,0,0:0:0:0:
239,272,198094,5,0,0:0:0:0:
202,306,198171,5,0,0:0:0:0:
162,337,198248,5,0,0:0:0:0:
111,333,198325,5,0,0:0:0:0:
77,305,198402,5,0,0:0:0:0:
113,258,207940,6,0,L|105:339,1,67.5000025749208
242,237,208248,6,0,P|181:256|60:172,1,215.999993408203
177,43,208710,2,0,B|193:95|193:95|176:149,1,107.999996704102
332,353,209017,2,0,B|315:301|315:301|331:249,1,107.999996704102
433,110,209325,1,0,0:0:0:0:
443,305,209479,5,0,0:0:0:0:
443,305,209556,1,0,0:0:0:0:
443,305,209633,1,0,0:0:0:0:
306,140,209787,1,0,0:0:0:0:
507,201,209940,1,0,0:0:0:0:
304,258,210094,2,0,L|188:238,1,107.999996704102
302,23,210402,2,0,L|283:129,1,107.999996704102
427,351,210710,6,0,P|457:285|406:153,1,215.999993408203
222,310,211171,2,0,P|282:306|332:278,1,107.999996704102
227,57,211479,2,0,P|250:105|252:158,1,107.999996704102
23,224,211787,2,0,L|136:218,1,107.999996704102
422,54,212094,5,0,0:0:0:0:
384,23,212171,1,0,0:0:0:0:
335,15,212248,1,0,0:0:0:0:
288,29,212325,1,0,0:0:0:0:
260,68,212402,1,0,0:0:0:0:
237,111,212479,1,0,0:0:0:0:
190,125,212556,1,0,0:0:0:0:
141,118,212633,1,0,0:0:0:0:
110,79,212710,1,0,0:0:0:0:
345,114,212864,2,0,L|360:238,1,107.999996704102
101,297,213171,6,0,B|158:285|191:241|191:241|197:297|236:337,1,215.999993408203
458,282,213633,1,0,0:0:0:0:
267,185,213787,1,0,0:0:0:0:
348,351,213940,2,0,L|357:233,1,107.999996704102
263,52,214248,1,0,0:0:0:0:
139,178,214402,5,0,0:0:0:0:
139,178,214479,1,0,0:0:0:0:
139,178,214556,2,0,P|202:198|246:194,1,107.999996704102
483,91,214864,2,0,P|429:89|378:107,1,107.999996704102
433,312,215171,2,0,L|445:198,1,107.999996704102
329,367,215479,1,0,0:0:0:0:
298,143,215633,6,0,L|315:260,1,107.999996704102
146,351,215940,1,0,0:0:0:0:
115,329,216017,1,0,0:0:0:0:
97,295,216094,1,0,0:0:0:0:
88,258,216171,1,0,0:0:0:0:
90,220,216248,1,0,0:0:0:0:
105,185,216325,1,0,0:0:0:0:
129,156,216402,1,0,0:0:0:0:
204,249,216556,1,0,0:0:0:0:
11,186,216710,1,0,0:0:0:0:
223,114,216864,6,0,B|332:94|321:164|431:147,1,215.999993408203
461,139,217248,1,0,0:0:0:0:
461,139,217325,1,0,0:0:0:0:
397,16,217479,1,0,0:0:0:0:
265,210,217633,1,0,0:0:0:0:
268,231,217710,1,0,0:0:0:0:
271,252,217787,1,0,0:0:0:0:
274,273,217864,1,0,0:0:0:0:
278,293,217940,1,0,0:0:0:0:
282,314,218017,1,0,0:0:0:0:
285,331,218094,6,0,B|196:318|196:318|104:357,1,180
370,237,218556,1,0,0:0:0:0:
266,119,218710,1,0,0:0:0:0:
266,119,218787,1,0,0:0:0:0:
266,119,218864,2,0,L|258:223,1,90
389,126,219171,2,0,L|382:36,1,90
169,265,219479,6,0,P|227:312|329:290,1,180
108,155,219940,1,0,0:0:0:0:
53,269,220094,2,0,P|54:337|69:378,1,90
259,208,220402,1,0,0:0:0:0:
57,79,220556,6,0,P|107:63|200:141,1,180
199,283,221017,1,0,0:0:0:0:
335,107,221171,1,0,0:0:0:0:
335,107,221248,1,0,0:0:0:0:
335,107,221325,2,0,P|322:172|299:208,1,90
108,155,221633,1,0,0:0:0:0:
239,36,221787,1,0,0:0:0:0:
191,195,221940,6,0,L|5:173,1,180
264,291,222402,2,0,L|376:279,1,90
156,315,222710,1,0,0:0:0:0:
301,192,222864,1,0,0:0:0:0:
13,127,223017,6,0,B|51:182|51:182|191:195,1,207.000003948212
210,50,223479,2,0,P|145:67|110:94,1,103.500001974106
328,242,223787,2,0,L|309:119,1,103.500001974106
225,304,224094,1,0,0:0:0:0:
419,197,224248,1,0,0:0:0:0:
126,254,224402,6,0,P|126:351|140:369,1,103.500001974106
330,358,224710,1,0,0:0:0:0:
162,150,224864,1,0,0:0:0:0:
162,150,224940,1,0,0:0:0:0:
162,150,225017,2,0,L|46:169,1,103.500001974106
200,32,225325,1,0,0:0:0:0:
209,234,225479,6,0,P|283:278|416:256,1,207.000003948212
490,76,225940,1,0,0:0:0:0:
449,68,226017,1,0,0:0:0:0:
409,79,226094,1,0,0:0:0:0:
376,105,226171,1,0,0:0:0:0:
361,143,226248,1,0,0:0:0:0:
464,170,226402,1,0,0:0:0:0:
315,25,226556,1,0,0:0:0:0:
295,195,226710,2,0,L|314:325,1,103.500001974106
177,384,227017,5,0,0:0:0:0:
58,227,227171,1,0,0:0:0:0:
62,185,227248,1,0,0:0:0:0:
67,143,227325,1,0,0:0:0:0:
72,101,227402,1,0,0:0:0:0:
77,59,227479,1,0,0:0:0:0:
267,133,227633,1,0,0:0:0:0:
162,219,227787,1,0,0:0:0:0:
199,40,227940,6,0,P|261:20|375:95,1,198.000006042481
302,246,228402,2,0,B|265:212|265:212|263:152,1,99.0000030212403
457,191,228710,1,0,0:0:0:0:
454,225,228787,1,0,0:0:0:0:
452,259,228864,1,0,0:0:0:0:
450,293,228940,1,0,0:0:0:0:
448,327,229017,1,0,0:0:0:0:
179,217,229171,6,0,B|256:204|256:204|292:221|292:221|382:204,1,198.000006042481
201,311,229633,2,0,L|97:302,1,99.0000030212403
163,78,229940,1,0,0:0:0:0:
199,63,230017,1,0,0:0:0:0:
238,67,230094,1,0,0:0:0:0:
271,87,230171,1,0,0:0:0:0:
294,118,230248,1,0,0:0:0:0:
87,154,230402,6,0,P|56:94|62:47,1,99.0000030212403
187,225,230710,1,0,0:0:0:0:
221,7,230864,2,0,L|205:114,1,99.0000030212403
307,285,231171,1,0,0:0:0:0:
340,154,231325,1,0,0:0:0:0:
340,154,231402,1,0,0:0:0:0:
340,154,231479,1,0,0:0:0:0:
169,233,231633,6,0,L|183:348,1,99.0000030212403
406,274,231940,1,0,0:0:0:0:
373,262,232017,1,0,0:0:0:0:
338,259,232094,1,0,0:0:0:0:
476,200,232248,1,0,0:0:0:0:
248,140,232402,1,0,0:0:0:0:
281,148,232479,1,0,0:0:0:0:
315,148,232556,1,0,0:0:0:0:
348,140,232633,1,0,0:0:0:0:
378,122,232710,1,0,0:0:0:0:
126,51,232864,6,0,P|90:125|127:236,1,198.000006042481
340,169,233325,2,0,P|284:144|239:139,1,99.0000030212403
252,293,233633,1,0,0:0:0:0:
455,181,233787,1,0,0:0:0:0:
455,181,233864,1,0,0:0:0:0:
455,181,233940,1,0,0:0:0:0:
346,110,234094,6,0,L|341:311,1,198.000006042481
467,272,234556,1,0,0:0:0:0:
247,169,234710,1,0,0:0:0:0:
209,155,234787,1,0,0:0:0:0:
169,156,234864,1,0,0:0:0:0:
138,180,234940,1,0,0:0:0:0:
106,204,235017,1,0,0:0:0:0:
66,205,235094,1,0,0:0:0:0:
29,189,235171,1,0,0:0:0:0:
202,251,235325,6,0,B|296:298|296:203|391:251,1,198.000006042481
504,184,235787,1,0,0:0:0:0:
391,22,235940,1,0,0:0:0:0:
391,22,236017,1,0,0:0:0:0:
391,22,236094,2,0,L|384:133,1,99.0000030212403
369,329,236402,1,0,0:0:0:0:
200,236,236556,6,0,P|260:210|305:205,1,99.0000030212403
179,358,236864,1,0,0:0:0:0:
140,351,236940,1,0,0:0:0:0:
100,345,237017,1,0,0:0:0:0:
276,301,237171,1,0,0:0:0:0:
28,192,237325,1,0,0:0:0:0:
65,222,237402,1,0,0:0:0:0:
112,238,237479,1,0,0:0:0:0:
161,239,237556,1,0,0:0:0:0:
207,219,237633,1,0,0:0:0:0:
244,186,237710,1,0,0:0:0:0:
268,143,237787,1,0,0:0:0:0:
