osu file format v14

[General]
AudioFilename: audio.mp3
AudioLeadIn: 0
PreviewTime: 11705
Countdown: 0
SampleSet: Soft
StackLeniency: 0.7
Mode: 0
LetterboxInBreaks: 0
WidescreenStoryboard: 0

[Editor]
DistanceSpacing: 1.3
BeatDivisor: 3
GridSize: 4
TimelineZoom: 1.9

[Metadata]
Title:Jin Jin Jingle Bells
TitleUnicode:ジン ジン ジングルベル
Artist:Twinkle Veil from SUPER*GiRLS
ArtistUnicode:トゥィンクルヴェール from SUPER☆GiRLS
Creator:ShogunMoon
Version:yf's Expert
Source:
Tags:christmas xmas kencho sdafsf beomsan deppyforce akitoshi karia koiyuki Minakami Yuki yf_bmp
BeatmapID:1475510
BeatmapSetID:696602

[Difficulty]
HPDrainRate:5
CircleSize:4.5
OverallDifficulty:6
ApproachRate:9
SliderMultiplier:1.9
SliderTickRate:1

[Events]
//Background and Video events
0,0,"bg1.jpg",0,0
//Break Periods
//Storyboard Layer 0 (Background)
//Storyboard Layer 1 (Fail)
//Storyboard Layer 2 (Pass)
//Storyboard Layer 3 (Foreground)
//Storyboard Sound Samples

[TimingPoints]
9362,312.5,4,2,10,70,1,0
10612,-76.9230769230769,4,2,10,70,0,0
10924,-83.3333333333333,4,2,10,70,0,0
11237,-90.9090909090909,4,2,10,70,0,0
11862,-90.9090909090909,4,2,10,70,0,0
14987,-133.333333333333,4,2,10,70,0,0
15612,-76.9230769230769,4,2,10,70,0,0
15924,-66.6666666666667,4,2,10,70,0,0
16237,-100,4,2,10,70,0,0
16549,-133.333333333333,4,2,10,70,0,0
16862,-90.9090909090909,4,2,10,70,0,0
19987,-133.333333333333,4,2,10,70,0,0
20612,-71.4285714285714,4,2,10,70,0,0
20924,-66.6666666666667,4,2,10,70,0,0
21237,-100,4,2,10,70,0,0
21862,-66.6666666666667,4,2,10,70,0,0
22487,-100,4,2,10,70,0,0
24362,-66.6666666666667,4,2,10,70,0,0
25299,-83.3333333333333,4,2,10,70,0,0
25820,-66.6666666666667,4,2,10,70,0,0
26132,-90.9090909090909,4,2,10,70,0,0
29987,-83.3333333333333,4,2,10,70,0,0
30612,-76.9230769230769,4,2,10,70,0,0
30924,-66.6666666666667,4,2,10,70,0,0
31237,-100,4,2,10,70,0,0
31549,-133.333333333333,4,2,10,70,0,0
31862,-90.9090909090909,4,2,10,70,0,0
34987,-133.333333333333,4,2,10,70,0,0
35612,-90.9090909090909,4,2,10,70,0,0
36862,-66.6666666666667,4,2,10,70,0,0
37487,-83.3333333333333,4,2,10,70,0,0
37799,-100,4,2,10,70,0,0
39362,-66.6666666666667,4,2,10,70,0,0
39987,-83.3333333333333,4,2,10,70,0,0
41862,-111.111111111111,4,2,10,70,0,0
42174,-133.333333333333,4,2,0,70,0,0
42487,-111.111111111111,4,2,0,70,0,0
43737,-133.333333333333,4,2,0,70,0,0
44049,-200,4,2,0,70,0,0
44309,-200,4,2,0,5,0,0
44362,-111.111111111111,4,2,0,70,0,0
47174,-133.333333333333,4,2,0,70,0,0
47487,-111.111111111111,4,2,0,70,0,0
48737,-133.333333333333,4,2,0,70,0,0
49049,-200,4,2,0,70,0,0
49362,-111.111111111111,4,2,0,70,0,0
52799,-111.111111111111,4,2,10,70,0,0
52903,-111.111111111111,4,2,0,70,0,0
59362,-83.3333333333333,4,2,0,70,0,0
60924,-76.9230769230769,4,2,0,70,0,0
61237,-71.4285714285714,4,2,0,70,0,0
61549,-66.6666666666667,4,2,0,70,0,0
61862,-90.9090909090909,4,2,10,70,0,1
62174,-71.4285714285714,4,2,10,70,0,1
63112,-90.9090909090909,4,2,10,70,0,1
63424,-71.4285714285714,4,2,10,70,0,1
64362,-90.9090909090909,4,2,10,70,0,1
64987,-133.333333333333,4,2,10,70,0,1
65507,-90.9090909090909,4,2,10,70,0,1
66237,-100,4,2,10,70,0,1
66549,-133.333333333333,4,2,10,70,0,1
66862,-90.9090909090909,4,2,10,70,0,1
67174,-71.4285714285714,4,2,10,70,0,1
68112,-90.9090909090909,4,2,10,70,0,1
68424,-71.4285714285714,4,2,10,70,0,1
69362,-90.9090909090909,4,2,10,70,0,1
69987,-133.333333333333,4,2,10,70,0,1
70612,-71.4285714285714,4,2,10,70,0,1
71237,-166.666666666667,4,2,10,70,0,1
71549,-83.3333333333333,4,2,10,70,0,1
71862,-66.6666666666667,4,2,10,70,0,1
72487,-133.333333333333,4,2,10,70,0,1
74049,-90.9090909090909,4,2,10,70,0,1
74362,-66.6666666666667,4,2,10,70,0,1
74987,-133.333333333333,4,2,10,70,0,1
75612,-100,4,2,10,70,0,1
76549,-200,4,2,10,70,0,1
76862,-66.6666666666667,4,2,10,70,0,1
77487,-133.333333333333,4,2,10,70,0,1
79049,-100,4,2,10,70,0,1
79362,-66.6666666666667,4,2,10,70,0,1
79987,-90.9090909090909,4,2,10,70,0,1
80507,-83.3333333333333,4,2,10,70,0,1
81237,-133.333333333333,4,2,10,70,0,1
81862,-166.666666666667,4,2,10,70,0,0
89362,-100,4,2,10,70,0,0
91862,-111.111111111111,4,2,10,70,0,0
94362,-125,4,2,10,70,0,0
96862,-420,4,2,10,70,0,0

[Colours]
Combo1 : 254,231,139
Combo2 : 233,44,72
Combo3 : 218,157,129
SliderBorder : 100,150,80
SliderTrackOverride : 50,33,29

[HitObjects]
256,192,9362,12,0,10507,0:0:0:0:
140,216,10612,6,0,P|127:249|220:240,1,164.666659128825,4|0,1:2|1:0,0:0:0:0:
216,100,10924,6,0,P|179:95|132:108,2,75.9999976806641,8|0|0,1:0|1:0|1:0,0:0:0:0:
296,164,11237,6,0,P|316:200|320:236,2,69.6666687927247,8|0|0,1:0|1:0|1:0,0:0:0:0:
216,184,11549,5,8,1:0:0:0:
220,104,11653,1,0,1:0:0:0:
296,80,11757,1,0,1:0:0:0:
352,16,11862,6,0,P|382:73|446:61,1,139.333337585449,6|0,3:2|0:0,0:0:0:0:
314,115,12174,2,0,P|376:152|451:145,1,139.333337585449,10|0,1:0|0:0,0:0:0:0:
403,31,12487,1,2,3:1:0:0:
308,216,12695,1,0,3:2:0:0:
396,240,12799,1,8,1:0:0:0:
272,376,13007,1,0,0:0:0:0:
399,352,13112,6,0,P|368:294|304:306,1,139.333337585449,2|0,3:1|0:0,0:0:0:0:
436,250,13424,2,0,P|374:213|299:220,1,139.333337585449,10|0,1:0|0:0,0:0:0:0:
348,337,13737,1,2,3:1:0:0:
443,152,13945,1,0,3:2:0:0:
456,64,14049,1,8,1:0:0:0:
308,216,14257,1,0,0:0:0:0:
327,344,14362,6,0,P|265:375|197:367,1,139.333337585449,6|0,3:2|0:0,0:0:0:0:
116,256,14674,2,0,P|116:188|188:212,1,139.333337585449,8|0,1:0|0:0,0:0:0:0:
327,344,14987,6,0,P|231:348|163:300,1,142.500005435944,2|8,3:3|1:1,0:0:0:0:
416,300,15507,1,0,3:2:0:0:
327,344,15612,6,0,P|255:332|195:260,1,164.666659128825,2|0,3:1|3:0,0:0:0:0:
272,149,15924,2,0,P|358:129|364:237,1,190.000007247925,10|8,1:0|1:2,0:0:0:0:
225,335,16237,5,2,3:1:0:0:
197,266,16341,2,0,P|224:257|256:266,1,63.3333333333333,8|8,1:0|1:0,0:0:0:0:
284,376,16549,2,0,B|221:348|225:404|170:380,1,118.750004529953,4|0,1:2|0:0,0:0:0:0:
160,368,16862,6,0,P|129:310|65:322,1,139.333337585449,6|0,3:2|0:0,0:0:0:0:
197,266,17174,2,0,P|135:229|60:236,1,139.333337585449,10|0,1:1|0:0,0:0:0:0:
109,353,17487,1,2,3:1:0:0:
204,168,17695,1,0,3:2:0:0:
116,144,17799,1,8,1:0:0:0:
240,8,18007,1,0,0:0:0:0:
113,32,18112,6,0,P|143:89|207:77,1,139.333337585449,2|0,3:1|0:0,0:0:0:0:
76,134,18424,2,0,P|138:171|213:164,1,139.333337585449,10|0,1:1|0:0,0:0:0:0:
164,47,18737,1,2,3:1:0:0:
69,232,18945,1,0,3:2:0:0:
157,256,19049,1,8,1:0:0:0:
24,332,19257,1,0,0:0:0:0:
160,364,19362,6,0,P|228:371|289:340,1,139.333337585449,6|0,3:2|0:0,0:0:0:0:
380,280,19674,2,0,P|380:348|452:324,1,139.333337585449,8|0,1:0|0:0,0:0:0:0:
334,212,19987,6,0,P|292:268|289:338,1,142.500005435944,2|8,3:3|1:0,0:0:0:0:
437,347,20507,1,0,0:0:0:0:
380,280,20612,6,0,B|288:248|300:320|208:286,1,177.33332792155,2|2,3:1|3:1,0:0:0:0:
104,212,20924,2,0,P|110:127|193:142,1,190.000007247925,8|10,1:0|1:1,0:0:0:0:
209,286,21237,6,0,P|180:296|149:285,1,63.3333333333333,8|8,1:0|1:0,0:0:0:0:
104,212,21445,1,0,1:0:0:0:
193,142,21549,2,0,P|214:164|220:195,1,63.3333333333333,4|0,1:2|0:0,0:0:0:0:
209,286,21757,1,8,1:0:0:0:
292,360,21862,6,0,B|264:367|241:435|164:377|202:288|256:336|283:329,1,190.000007247925,6|0,3:2|2:0,0:0:0:0:
444,288,22174,2,0,B|470:280|493:212|571:270|533:359|479:311|452:319,1,190.000007247925,10|0,1:1|2:0,0:0:0:0:
380,372,22487,6,0,L|340:218,1,158.333333333333,2|0,3:1|2:0,0:0:0:0:
336,204,22799,5,8,1:0:0:0:
392,136,23007,5,0,0:0:0:0:
396,132,23112,1,2,3:2:0:0:
356,56,23320,5,0,0:0:0:0:
352,32,23424,1,10,1:2:0:0:
248,16,23632,5,0,3:0:0:0:
228,56,23737,2,0,P|195:70|124:52,1,63.3333333333333,2|0,3:2|0:0,0:0:0:0:
8,60,23945,5,0,0:0:0:0:
27,135,24049,2,0,P|81:166|172:153,1,158.333333333333,14|0,1:2|0:0,0:0:0:0:
208,224,24362,6,0,B|219:205|211:177|211:177|163:165|131:205|131:205|142:228|167:241,1,190.000007247925,2|0,3:1|0:0,0:0:0:0:
240,324,24674,2,0,B|265:337|276:360|276:360|244:400|196:388|196:388|188:360|199:341,1,190.000007247925,10|0,1:0|0:0,0:0:0:0:
292,252,24987,6,0,B|209:319|194:240|112:310,1,190.000007247925,2|0,3:1|2:1,0:0:0:0:
56,356,25299,2,0,P|80:376|156:372,1,75.9999976806641,8|0,1:0|0:0,0:0:0:0:
292,252,25507,6,2,P|325:243|416:253,1,75.9999976806641,2|0,2:1|3:0,0:1:0:0:
436,280,25716,1,0,2:0:0:0:
292,252,25820,6,2,P|243:228|173:224,1,95.0000036239625,2|8,2:1|1:0,0:1:0:0:
120,224,26028,1,0,0:0:0:0:
200,312,26132,1,0,1:0:0:0:
292,252,26237,5,8,1:1:0:0:
288,184,26341,1,8,1:2:0:0:
284,116,26445,1,8,1:2:0:0:
280,48,26549,1,8,1:2:0:0:
296,320,26757,1,8,0:0:0:0:
360,380,26862,6,0,P|428:384|482:342,1,139.333337585449,6|0,3:2|0:0,0:0:0:0:
412,208,27174,2,0,P|365:172|355:245,1,139.333337585449,10|0,1:0|0:0,0:0:0:0:
400,296,27487,1,2,3:1:0:0:
472,92,27695,1,0,3:2:0:0:
480,140,27799,1,4,1:3:0:0:
288,84,28007,1,0,0:0:0:0:
328,0,28112,6,0,P|260:-4|206:38,1,139.333337585449,2|0,3:2|0:0,0:0:0:0:
276,172,28424,2,0,P|322:207|332:134,1,139.333337585449,10|0,1:0|0:0,0:0:0:0:
288,84,28737,1,2,3:2:0:0:
220,244,28945,1,0,3:2:0:0:
203,284,29049,1,10,1:0:0:0:
42,177,29257,1,0,0:0:0:0:
74,261,29362,6,0,P|136:292|204:284,1,139.333337585449,6|0,3:2|0:0,0:0:0:0:
294,210,29674,2,0,P|294:142|222:166,1,139.333337585449,8|0,1:0|0:0,0:0:0:0:
78,266,29987,6,0,P|174:270|242:222,1,151.999995361328,2|0,0:3|0:0,0:0:0:0:
282,154,30299,2,0,P|265:88|202:130,1,151.999995361328,8|0,1:0|3:0,0:0:0:0:
82,270,30612,6,0,P|154:258|214:186,1,164.666659128825,2|0,0:1|3:0,0:0:0:0:
138,74,30924,2,0,P|52:54|46:162,1,190.000007247925,8|0,1:0|3:0,0:0:0:0:
185,260,31237,5,2,3:1:0:0:
213,191,31341,2,0,P|186:182|154:191,1,63.3333333333333,8|8,1:0|1:0,0:0:0:0:
126,301,31549,2,0,B|189:273|185:329|240:305,1,118.750004529953,4|0,1:2|0:0,0:0:0:0:
264,324,31862,6,0,P|260:256|302:202,1,139.333337585449,10|0,1:0|0:0,0:0:0:0:
436,272,32174,2,0,P|471:318|398:328,1,139.333337585449,10|0,1:0|0:0,0:0:0:0:
348,284,32487,1,10,1:0:0:0:
170,325,32695,1,0,3:2:0:0:
126,301,32799,1,10,1:0:0:0:
176,160,33007,1,0,0:0:0:0:
111,100,33112,6,0,P|54:121|88:172,1,139.333337585449,10|0,1:0|0:0,0:0:0:0:
222,242,33424,2,0,P|263:188|259:120,1,139.333337585449,10|0,1:0|0:0,0:0:0:0:
176,160,33737,5,10,1:1:0:0:
296,296,33945,1,0,3:2:0:0:
380,272,34049,1,10,1:0:0:0:
216,336,34257,1,0,0:0:0:0:
364,360,34362,6,0,P|432:367|493:336,1,139.333337585449,6|0,1:2|0:0,0:0:0:0:
448,232,34674,2,0,P|408:287|363:226,1,139.333337585449,8|0,1:0|0:0,0:0:0:0:
311,179,34987,6,0,P|403:165|447:144,1,142.500005435944,0|8,3:3|1:0,0:0:0:0:
407,248,35507,5,0,0:2:0:0:
320,100,35612,2,0,P|360:45|405:106,1,139.333337585449,2|0,3:2|0:1,0:0:0:0:
320,268,35924,2,0,P|265:300|233:246,1,139.333337585449,10|0,1:0|0:1,0:0:0:0:
384,336,36237,5,2,3:1:0:0:
316,372,36341,1,8,1:0:0:0:
240,368,36445,1,8,1:0:0:0:
173,326,36549,2,0,P|153:353|121:343,1,69.6666687927247,4|0,1:2|0:0,0:0:0:0:
124,152,36757,1,8,1:0:0:0:
0,272,36862,6,0,B|28:315|96:291|92:231|92:231|83:210|59:214|59:236,1,190.000007247925,6|0,3:2|2:0,0:0:0:0:
173,326,37174,2,0,B|153:314|138:333|152:351|152:351|202:385|256:338|233:291,1,190.000007247925,10|0,1:0|2:0,0:0:0:0:
204,116,37487,6,0,B|152:119|139:190|193:216|193:216|215:219|224:196|204:185,1,190,2|0,3:2|2:0,0:0:0:0:
192,184,37799,1,8,1:0:0:0:
76,324,38007,5,0,0:0:0:0:
80,328,38112,1,2,3:2:0:0:
173,326,38320,5,0,0:0:0:0:
168,352,38424,1,10,1:2:0:0:
296,208,38632,5,0,3:0:0:0:
304,248,38737,2,0,P|332:268|396:272,1,63.3333333333333,2|0,3:2|2:0,0:0:0:0:
512,160,38945,5,0,0:1:0:0:
448,208,39049,2,0,P|396:200|356:96,1,158.333333333333,14|0,1:2|0:0,0:0:0:0:
340,96,39362,6,0,B|340:76|364:68|376:84|376:84|368:144|316:160|264:128,1,190.000007247925,6|0,1:2|0:0,0:0:0:0:
152,168,39674,2,0,B|134:178|115:161|123:142|123:142|179:119|219:156|217:217,1,190.000007247925,10|0,1:0|0:0,0:0:0:0:
248,284,39987,6,0,P|188:319|108:299,1,151.999995361328,2|0,3:2|0:1,0:0:0:0:
72,232,40299,2,0,L|48:140,1,75.9999976806641,8|0,1:0|0:0,0:0:0:0:
248,284,40507,6,0,P|285:293|321:282,1,75.9999976806641,2|0,1:0|0:0,0:0:0:0:
366,210,40716,1,0,0:0:0:0:
286,346,40820,6,0,P|293:311|320:283,1,75.9999976806641,2|8,1:0|1:1,0:0:0:0:
408,284,41028,1,0,0:0:0:0:
384,384,41132,1,0,1:0:0:0:
286,346,41237,5,8,1:0:0:0:
248,284,41341,1,8,1:2:0:0:
256,208,41445,1,8,1:2:0:0:
312,156,41549,1,8,1:2:0:0:
212,348,41757,1,8,1:2:0:0:
144,320,41862,6,0,L|30:323,1,113.999996520996,6|0,1:3|0:0,0:0:0:0:
32,216,42174,6,0,B|84:248|84:248|132:216,1,118.750004529953,8|0,1:2|0:0,0:0:0:0:
140,200,42487,6,2,L|26:203,1,113.999996520996,4|0,1:2|0:0,0:1:0:0:
80,24,42799,1,8,1:2:0:0:
320,108,43007,6,0,L|504:116,1,170.999994781494,4|0,1:2|0:0,0:0:0:0:
456,204,43424,6,0,P|402:221|352:172,1,113.999996520996,8|0,1:2|1:0,0:0:0:0:
192,216,43737,6,0,P|239:215|276:180,1,95.0000036239625,2|0,1:2|2:0,0:0:0:0:
320,108,44049,6,2,P|312:72|312:20,1,79.1666666666667,8|0,0:0|2:0,0:1:0:0:
324,20,44362,6,0,L|192:32,1,113.999996520996,4|0,1:0|3:0,0:0:0:0:
128,40,44674,1,8,1:2:0:0:
464,24,44882,5,0,3:0:0:0:
408,88,44986,2,0,B|392:168|464:168|420:300,1,170.999994781494,2|8,1:2|1:2,0:0:0:0:
256,360,45507,1,0,0:0:0:0:
308,288,45612,6,0,B|256:264|256:264|204:288,1,113.999996520996,2|0,3:2|0:0,0:0:0:0:
344,368,45924,2,0,L|420:360,1,56.9999982604981,10|0,1:1|3:0,0:0:0:0:
256,352,46132,1,0,3:0:0:0:
111,362,46237,2,0,L|168:368,2,56.9999982604981,2|0|0,1:1|3:0|3:0,0:0:0:0:
256,220,46549,2,0,L|256:132,1,56.9999982604981,8|0,1:0|3:0,0:0:0:0:
300,20,46757,1,0,3:0:0:0:
368,64,46862,6,0,L|482:61,1,113.999996520996,6|0,1:2|0:0,0:0:0:0:
480,168,47174,6,0,B|428:136|428:136|380:168,1,118.750004529953,8|0,1:2|0:0,0:0:0:0:
372,184,47487,6,2,L|486:181,1,113.999996520996,4|0,1:2|0:0,0:1:0:0:
432,360,47799,1,8,1:2:0:0:
192,276,48007,6,0,L|8:268,1,170.999994781494,4|0,1:2|0:0,0:0:0:0:
56,180,48424,6,0,P|110:163|160:212,1,113.999996520996,8|0,1:2|1:0,0:0:0:0:
320,168,48737,6,0,P|273:169|236:204,1,95.0000036239625,2|0,1:2|2:0,0:0:0:0:
192,276,49049,6,2,P|200:312|200:364,1,79.1666666666667,8|0,0:0|2:0,0:1:0:0:
188,364,49362,6,0,L|320:352,1,113.999996520996,4|0,1:0|3:0,0:0:0:0:
384,344,49674,1,8,1:2:0:0:
48,360,49882,5,0,3:0:0:0:
104,296,49986,2,0,B|120:216|48:216|92:84,1,170.999994781494,2|8,1:2|1:2,0:0:0:0:
256,24,50507,1,2,2:0:0:0:
168,16,50612,6,0,L|92:24,1,56.9999982604981,0|0,1:2|3:0,0:0:0:0:
256,32,50820,1,2,0:1:0:0:
344,16,50924,2,0,L|400:21,1,56.9999982604981,8|0,1:1|3:0,0:0:0:0:
256,40,51132,1,2,3:1:0:0:
316,108,51237,6,0,P|328:136|317:160,1,56.9999982604981,0|0,1:0|3:0,0:0:0:0:
256,224,51445,1,2,3:1:0:0:
194,160,51549,2,0,P|184:136|196:108,1,56.9999982604981,8|0,1:1|3:0,0:0:0:0:
256,232,51757,1,0,3:0:0:0:
168,252,51862,6,0,P|102:252|4:344,2,170.999994781494,4|8|0,1:2|1:2|0:0,0:0:0:0:
376,360,52695,1,0,3:0:0:0:
296,372,52799,1,4,1:3:0:0:
492,312,53007,6,0,B|412:328|412:256|280:300,1,170.999994781494,4|0,1:2|1:2,0:0:0:0:
252,232,53424,2,0,P|236:177|243:121,1,113.999996520996,8|0,1:2|3:0,0:0:0:0:
434,274,53737,2,0,P|386:294|322:286,1,113.999996520996,0|0,3:0|3:0,0:0:0:0:
164,256,54049,2,0,L|32:252,1,113.999996520996,8|2,1:2|0:1,0:0:0:0:
36,176,54309,1,2,0:1:0:0:
36,176,54362,6,0,L|17:63,1,113.999996520996,2|0,1:1|3:0,0:0:0:0:
180,147,54674,2,0,B|188:203|188:203|161:259,1,113.999996520996,8|0,1:2|3:0,1:0:0:0:
59,308,54987,2,0,L|44:217,1,56.9999982604981,2|0,1:1|3:0,0:0:0:0:
136,328,55195,1,0,3:0:0:0:
76,384,55299,1,8,1:2:0:0:
332,332,55507,1,0,3:0:0:0:
256,296,55612,6,0,B|256:168,1,113.999996520996,2|0,3:2|3:0,0:0:0:0:
168,252,55924,2,0,L|92:244,1,56.9999982604981,10|0,1:1|3:0,0:0:0:0:
256,304,56132,1,0,3:0:0:0:
344,252,56237,2,0,L|420:244,1,56.9999982604981,2|0,1:1|3:0,0:0:0:0:
256,176,56445,1,0,3:0:0:0:
256,312,56549,2,0,L|256:400,1,56.9999982604981,10|0,1:0|3:0,0:0:0:0:
452,356,56757,1,2,3:1:0:0:
452,356,56809,1,2,3:1:0:0:
452,356,56862,6,0,P|505:291|511:207,2,170.999994781494,4|8|0,1:2|1:2|1:0,0:0:0:0:
384,168,57695,1,0,3:0:0:0:
396,248,57799,1,8,1:2:0:0:
336,52,58007,6,0,B|352:132|280:132|324:264,1,170.999994781494,4|0,1:2|1:2,0:0:0:0:
262,287,58424,2,0,P|207:302|151:295,1,113.999996520996,8|0,1:2|3:0,0:0:0:0:
298,110,58737,2,0,P|318:157|310:222,1,113.999996520996,0|0,3:0|3:0,0:0:0:0:
296,356,59049,2,0,B|360:345|367:393|439:382,1,142.499995651245,8|0,1:2|0:0,0:0:0:0:
448,376,59362,6,0,L|460:220,1,151.999995361328,6|0,1:0|3:0,0:0:0:0:
475,60,59674,1,8,1:1:0:0:
448,376,59987,6,0,L|346:257,1,151.999995361328,6|0,1:0|3:0,0:0:0:0:
243,132,60299,1,8,1:1:0:0:
296,356,60507,1,2,0:1:0:0:
448,376,60612,6,2,L|292:364,1,151.999995361328,6|0,1:0|3:0,0:1:0:0:
132,349,60924,6,2,L|306:335,1,164.666659128825,4|0,1:2|3:0,0:1:0:0:
444,220,61237,6,2,L|261:234,1,177.33332792155,6|0,1:0|3:0,0:1:0:0:
53,117,61549,6,2,L|241:131,1,190.000007247925,4|0,1:2|3:0,0:1:0:0:
364,4,61862,6,0,P|394:61|458:49,1,139.333337585449,6|0,3:2|0:0,0:0:0:0:
448,140,62174,6,0,P|379:139|297:61,1,177.33332792155,10|0,1:0|0:0,0:0:0:0:
415,19,62487,1,2,3:1:0:0:
300,272,62695,5,0,3:2:0:0:
212,272,62799,1,8,1:0:0:0:
256,148,63007,1,0,0:0:0:0:
148,4,63112,6,0,P|118:61|54:49,1,139.333337585449,2|0,3:1|0:0,0:0:0:0:
64,140,63424,6,0,P|133:139|215:61,1,177.33332792155,10|0,1:0|0:0,0:0:0:0:
97,19,63737,1,2,3:1:0:0:
200,256,63945,5,0,3:2:0:0:
312,256,64049,1,8,1:0:0:0:
256,132,64257,1,0,0:0:0:0:
320,344,64362,6,0,P|256:368|192:344,1,139.333337585449,6|0,3:2|0:0,0:0:0:0:
212,188,64674,2,0,P|255:142|300:187,1,139.333337585449,8|0,1:2|0:0,0:0:0:0:
328,344,64987,6,0,L|152:344,1,142.500005435944,2|8,0:3|1:1,0:0:0:0:
164,260,65507,1,0,3:2:0:0:
328,344,65612,6,0,P|400:332|424:236,1,139.333337585449,2|0,3:2|3:1,0:0:0:0:
82,278,65924,2,0,P|117:335|184:343,1,139.333337585449,8|0,1:0|3:1,0:0:0:0:
256,192,66237,5,2,1:2:0:0:
284,123,66341,2,0,P|257:114|225:123,1,63.3333333333333,8|8,1:0|1:0,0:0:0:0:
197,233,66549,2,0,B|260:205|256:261|311:237,1,118.750004529953,4|0,1:2|0:0,0:0:0:0:
324,228,66862,6,0,P|387:215|418:272,1,139.333337585449,6|0,3:2|0:0,0:0:0:0:
328,132,67174,6,0,P|412:136|484:196,1,177.33332792155,10|0,1:1|0:0,0:0:0:0:
484,332,67487,1,2,3:1:0:0:
340,316,67695,5,0,3:2:0:0:
418,273,67799,1,8,1:0:0:0:
256,352,68007,1,0,0:0:0:0:
188,228,68112,6,0,P|125:215|94:272,1,139.333337585449,2|0,3:3|0:0,0:0:0:0:
184,132,68424,6,0,P|100:136|28:196,1,177.33332792155,10|0,1:1|0:0,0:0:0:0:
28,332,68737,1,2,3:1:0:0:
172,316,68945,5,0,3:2:0:0:
94,273,69049,1,8,1:0:0:0:
256,368,69257,1,0,0:0:0:0:
256,272,69362,6,0,L|256:84,1,139.333337585449,6|0,3:2|0:0,0:1:0:0:
212,8,69674,2,0,P|256:53|300:8,1,139.333337585449,8|0,1:0|0:0,0:0:0:0:
328,128,69987,6,0,L|186:128,1,142.500005435944,2|8,0:3|1:0,0:0:0:0:
256,312,70507,1,0,0:0:0:0:
344,220,70612,6,0,B|252:188|264:260|172:226,1,177.33332792155,2|2,0:1|3:1,0:0:0:0:
185,128,70924,2,0,P|254:84|329:129,1,177.33332792155,8|10,1:0|1:1,0:0:0:0:
304,312,71237,6,0,L|209:312,1,94.9999971008302,2|0,3:1|2:0,0:0:0:0:
180,332,71549,6,0,L|332:332,1,151.999995361328,10|2,1:0|0:1,0:0:0:0:
448,184,71862,6,0,L|248:200,1,190.000007247925,4|0,1:2|2:0,0:0:0:0:
64,169,72174,2,0,L|253:184,1,190.000007247925,4|0,1:2|2:0,0:0:0:0:
316,40,72487,6,0,L|192:40,1,118.750004529953,4|0,1:2|2:0,0:0:0:0:
180,40,72799,5,8,1:1:0:0:
96,52,73007,5,0,0:0:0:0:
100,48,73112,1,2,0:0:0:0:
32,112,73320,5,0,0:0:0:0:
16,92,73424,1,10,1:2:0:0:
88,204,73632,5,0,3:0:0:0:
104,168,73737,1,2,3:2:0:0:
69,361,73945,5,0,0:0:0:0:
48,284,74049,2,0,L|196:272,1,139.333337585449,14|0,1:2|2:0,0:0:0:0:
324,274,74362,6,0,P|364:191|321:111,1,190.000007247925,6|0,1:2|2:0,0:0:0:0:
190,111,74674,2,0,P|147:191|188:274,1,190.000007247925,6|0,1:2|2:0,0:0:0:0:
256,192,74987,6,0,L|256:56,1,118.750004529953,6|0,1:2|0:0,0:0:0:0:
256,56,75299,1,8,1:1:0:0:
448,36,75507,5,8,0:0:0:0:
448,36,75559,1,8,0:0:0:0:
448,36,75612,2,0,P|448:76|440:104,1,63.3333333333333,0|0,3:0|0:0,0:0:0:0:
384,160,75820,1,0,3:0:0:0:
256,192,75924,6,0,B|264:264,1,63.3333333333333,8|0,0:2|2:0,0:0:0:0:
344,344,76132,1,0,3:0:0:0:
445,292,76237,5,8,1:2:0:0:
396,241,76341,1,8,1:2:0:0:
328,231,76445,1,8,1:2:0:0:
265,264,76549,6,0,L|180:256,1,79.1666666666667,8|0,3:0|0:0,0:0:0:0:
184,232,76862,6,0,B|98:192|98:192|184:151,1,190.000007247925,6|0,1:2|2:0,0:0:0:0:
327,151,77174,2,0,B|414:192|414:192|328:232,1,190.000007247925,6|0,1:2|2:0,0:0:0:0:
204,56,77487,6,0,B|244:56|244:56|268:77|268:77|314:77,1,118.750004529953,6|0,1:2|2:0,0:0:0:0:
333,77,77799,5,8,1:0:0:0:
416,52,78007,5,0,0:0:0:0:
412,48,78112,1,2,3:2:0:0:
480,112,78320,5,0,0:0:0:0:
496,92,78424,1,10,1:2:0:0:
428,200,78632,5,0,3:0:0:0:
412,164,78737,1,2,3:2:0:0:
426,358,78945,5,0,0:0:0:0:
448,282,79049,2,0,L|300:270,1,126.666666666667,14|0,1:2|2:0,0:0:0:0:
192,272,79362,6,2,B|152:256|172:212|144:192|144:192|172:172|152:128|192:115,1,190.000007247925,2|0,3:3|2:0,0:1:0:0:
322,115,79674,2,2,B|360:128|340:172|368:192|368:192|340:212|360:256|320:272,1,190.000007247925,10|0,1:1|2:0,0:1:0:0:
256,240,79987,6,0,L|256:88,1,139.333337585449,2|2,2:1|0:1,0:0:0:0:
256,24,80299,1,8,2:1:0:0:
320,280,80507,6,2,P|352:296|392:292,1,75.9999976806641,0|2,2:1|3:2,0:1:0:0:
368,192,80716,1,0,2:0:0:0:
192,280,80820,6,2,P|160:296|120:292,1,75.9999976806641,0|10,2:1|2:1,0:1:0:0:
144,192,81029,1,0,2:0:0:0:
256,240,81132,5,0,2:1:0:0:
316,123,81237,2,2,P|258:159|197:128,1,142.500005435944,6|2,1:2|1:2,0:1:0:0:
192,124,81862,6,0,L|184:0,1,113.999996520996,4|0,0:2|0:0,0:0:0:0:
356,36,82382,1,0,3:0:0:0:
356,36,82487,2,0,L|324:49,1,18.999999420166,8|2,2:2|0:0,0:0:0:0:
40,240,83007,5,8,2:0:0:0:
44,248,83112,2,0,P|85:264|140:256,1,75.9999976806641,0|0,2:0|0:0,0:0:0:0:
80,332,83424,2,0,L|140:242,1,75.9999976806641,0|0,3:0|0:0,0:0:0:0:
172,188,83737,2,0,L|164:216,1,18.999999420166,8|2,0:0|0:0,0:0:0:0:
304,340,84049,1,0,0:0:0:0:
440,312,84257,5,8,0:0:0:0:
448,304,84362,2,0,L|460:184,1,113.999996520996,0|0,3:0|0:0,0:0:0:0:
234,378,84882,1,0,3:0:0:0:
234,378,84987,2,0,L|221:346,1,18.999999420166,8|2,2:2|0:0,0:0:0:0:
252,240,85299,1,0,0:0:0:0:
184,28,85507,5,8,2:0:0:0:
192,32,85612,2,0,P|208:73|200:128,1,75.9999976806641,0|8,2:0|0:0,0:0:0:0:
276,68,85924,2,0,L|186:128,1,75.9999976806641,0|0,3:0|0:0,0:0:0:0:
132,160,86237,2,0,L|160:152,1,18.999999420166,8|2,0:0|0:0,0:0:0:0:
332,124,86445,1,8,0:0:0:0:
384,176,86549,2,0,P|424:192|480:180,1,94.9999971008302,0|0,3:0|0:0,0:0:0:0:
488,172,86862,5,4,3:2:0:0:
156,348,87382,1,0,3:0:0:0:
156,348,87487,2,0,L|128:344,1,18.999999420166,8|2,2:2|0:0,0:0:0:0:
256,192,87799,1,0,0:0:0:0:
96,152,88007,5,8,2:0:0:0:
100,160,88112,2,0,P|141:176|196:168,1,75.9999976806641,0|0,2:0|0:0,0:0:0:0:
136,244,88424,2,0,L|196:154,1,75.9999976806641,0|0,3:0|0:0,0:0:0:0:
248,144,88737,5,8,0:0:0:0:
256,192,88841,1,8,0:0:0:0:
264,240,88945,1,8,0:0:0:0:
272,288,89049,1,8,0:0:0:0:
472,352,89257,1,8,3:3:0:0:
500,276,89362,6,0,P|432:280|392:332,1,126.666666666667,6|0,3:2|0:0,0:0:0:0:
404,204,89674,2,0,L|416:56,1,126.666666666667,10|0,1:2|0:0,0:0:0:0:
260,24,89987,2,0,P|332:80|459:40,1,190,2|8,3:2|1:2,0:0:0:0:
436,56,90507,5,8,2:0:0:0:
388,212,90612,2,0,L|260:204,1,126.666666666667,2|0,3:2|0:0,0:0:0:0:
364,132,90924,2,0,P|417:133|465:233,1,126.666666666667,10|8,1:2|0:0,0:0:0:0:
408,336,91237,2,0,B|316:360|312:308|216:324,1,190,10|8,0:0|1:2,0:0:0:0:
40,352,91757,1,8,0:0:0:0:
24,271,91862,6,0,P|79:279|116:321,1,113.999996520996,6|0,3:2|0:0,0:0:0:0:
172,260,92174,2,0,L|176:120,1,113.999996520996,10|0,1:2|0:0,0:0:0:0:
245,99,92487,2,0,P|173:147|85:115,1,170.999994781494,2|10,3:2|1:2,0:0:0:0:
89,111,93007,5,8,2:0:0:0:
248,192,93112,2,0,P|302:182|335:136,1,113.999996520996,2|0,2:0|0:0,0:0:0:0:
324,56,93424,2,0,P|288:13|232:8,1,113.999996520996,10|0,1:2|0:0,0:0:0:0:
245,99,93737,2,0,B|436:84,1,170.999994781494,2|8,3:2|1:2,0:0:0:0:
472,288,94257,1,8,0:0:0:0:
424,356,94362,6,0,P|388:374|300:364,1,101.333333333333,6|0,0:0|0:0,0:0:0:0:
304,264,94674,2,0,P|339:245|428:256,1,101.333333333333,10|0,1:2|0:0,0:0:0:0:
256,332,94987,2,0,B|180:344|177:303|105:322,1,152,2|8,3:2|1:2,0:0:0:0:
327,375,95507,1,0,0:0:0:0:
340,372,95612,6,0,P|352:336|344:256,1,101.333333333333,6|0,0:0|3:0,0:0:0:0:
260,148,95924,2,0,P|255:198|269:246,1,101.333333333333,10|0,1:2|3:0,0:0:0:0:
336,188,96237,5,8,0:0:0:0:
193,206,96341,1,8,0:0:0:0:
270,247,96445,5,8,2:2:0:0:
260,148,96549,1,8,3:3:0:0:
220,333,96862,6,2,B|206:318|182:364|236:382|263:345|248:282|248:282|295:304|366:299|366:299|346:281|324:277|324:277|400:64|291:45|291:45|285:19|285:19|270:42|270:42|160:21|160:248|160:248|133:243|113:253|113:253|165:275|226:278,1,1055.55555555556,6|0,0:0|2:0,0:0:0:0:
224,278,104257,1,0,3:0:0:0:
224,278,104362,1,0,3:0:0:0:
