osu file format v14

[General]
AudioFilename: audio.mp3
AudioLeadIn: 0
PreviewTime: 11705
Countdown: 0
SampleSet: Soft
StackLeniency: 0.5
Mode: 0
LetterboxInBreaks: 0
WidescreenStoryboard: 0

[Editor]
Bookmarks: 104049
DistanceSpacing: 1.6
BeatDivisor: 3
GridSize: 4
TimelineZoom: 1.9

[Metadata]
Title:Jin Jin Jingle Bells
TitleUnicode:ジン ジン ジングルベル
Artist:Twinkle Veil from SUPER*GiRLS
ArtistUnicode:トゥィンクルヴェール from SUPER☆GiRLS
Creator:ShogunMoon
Version:Koiyuki's Expert
Source:
Tags:christmas xmas kencho sdafsf beomsan deppyforce akitoshi karia koiyuki Minakami Yuki yf_bmp
BeatmapID:1477089
BeatmapSetID:696602

[Difficulty]
HPDrainRate:5.7
CircleSize:4
OverallDifficulty:8
ApproachRate:9.2
SliderMultiplier:1.6
SliderTickRate:1

[Events]
//Background and Video events
0,0,"bg1.jpg",0,0
//Break Periods
//Storyboard Layer 0 (Background)
//Storyboard Layer 1 (Fail)
//Storyboard Layer 2 (Pass)
//Storyboard Layer 3 (Foreground)
//Storyboard Sound Samples

[TimingPoints]
9362,312.5,4,2,1,70,1,0
9987,-200,4,2,1,50,0,0
10612,-100,4,2,1,70,0,0
21862,-83.3333333333333,4,2,1,70,0,0
22695,-100,4,2,1,70,0,0
24362,-83.3333333333333,4,2,1,70,0,0
25195,-100,4,2,1,70,0,0
36862,-83.3333333333333,4,2,1,70,0,0
37695,-100,4,2,1,70,0,0
39362,-83.3333333333333,4,2,1,70,0,0
40195,-100,4,2,1,70,0,0
41862,-100,4,2,1,60,0,0
61862,-100,4,2,1,70,0,1
71862,-66.6666666666667,4,2,1,70,0,1
72695,-100,4,2,1,70,0,1
74362,-66.6666666666667,4,2,1,70,0,1
75195,-100,4,2,1,70,0,1
76549,-133.333333333333,4,2,1,70,0,1
76862,-66.6666666666667,4,2,1,70,0,1
77695,-100,4,2,1,70,0,1
81862,-100,4,2,1,50,0,0
96862,-322.58064516129,4,2,1,50,0,0
96966,-322.58064516129,4,2,1,5,0,0
104049,-100,4,2,1,50,0,0

[Colours]
Combo1 : 255,128,255
Combo2 : 233,44,72
Combo3 : 218,157,129
Combo4 : 254,231,139

[HitObjects]
36,308,9987,6,0,B|94:281|104:346|163:319,1,133.333333333333,4|0,0:3|0:0,0:0:0:0:
254,290,10612,6,0,P|202:287|161:319,1,106.666666666667,2|8,0:0|0:0,0:0:0:0:
314,350,10924,2,0,P|366:352|407:320,1,106.666666666667,8|2,0:0|0:0,0:0:0:0:
433,238,11237,5,8,0:0:0:0:
428,195,11341,1,8,0:0:0:0:
423,152,11445,1,8,0:0:0:0:
349,47,11549,5,8,0:0:0:0:
271,81,11653,1,8,0:0:0:0:
340,132,11757,1,8,0:0:0:0:
349,47,11862,6,0,P|297:50|249:27,1,106.666666666667,4|0,0:0|0:0,0:0:0:0:
167,54,12174,2,0,P|114:50|66:74,1,106.666666666667,8|0,0:0|0:0,0:0:0:0:
24,148,12487,1,2,0:0:0:0:
133,330,12695,1,0,0:0:0:0:
50,352,12799,1,8,0:0:0:0:
107,170,13007,1,2,0:0:0:0:
190,191,13112,6,0,L|296:176,1,106.666666666667,2|2,0:0|0:0,0:0:0:0:
443,259,13424,2,0,P|391:267|343:246,1,106.666666666667,8|2,0:0|0:0,0:0:0:0:
441,104,13737,2,0,B|460:158|460:158|443:259,1,160,2|8,0:0|0:0,0:0:0:0:
216,350,14362,5,2,0:0:0:0:
107,170,14570,1,0,0:0:0:0:
86,252,14674,1,8,0:0:0:0:
283,89,14882,1,2,0:0:0:0:
296,176,14987,1,2,0:0:0:0:
86,14,15195,1,0,0:0:0:0:
65,96,15299,1,8,0:0:0:0:
253,250,15507,1,2,0:0:0:0:
296,176,15612,6,0,P|243:168|195:189,1,106.666666666667,2|2,0:0|0:0,0:0:0:0:
323,350,15924,2,0,B|345:303|345:303|338:249,1,106.666666666667,8|2,0:0|0:0,0:0:0:0:
206,36,16237,2,0,B|180:86|180:86|195:189,1,160,2|8,0:0|0:0,0:0:0:0:
323,350,16862,6,0,P|374:358|423:337,1,106.666666666667,2|0,0:0|0:0,0:0:0:0:
491,286,17174,2,0,L|472:162,1,106.666666666667,8|0,0:0|0:0,0:0:0:0:
501,98,17487,1,2,0:0:0:0:
337,248,17695,1,0,0:0:0:0:
296,176,17799,2,0,P|243:168|195:189,1,106.666666666667,8|2,0:0|0:0,0:0:0:0:
66,256,18112,6,0,P|114:277|166:270,1,106.666666666667,2|2,0:0|0:0,0:0:0:0:
105,351,18424,2,0,P|147:319|167:270,1,106.666666666667,8|2,0:0|0:0,0:0:0:0:
195,189,18737,1,2,0:0:0:0:
57,13,18945,1,0,0:0:0:0:
5,81,19049,2,0,L|20:200,1,106.666666666667,8|0,0:0|0:0,0:0:0:0:
66,256,19362,5,2,0:0:0:0:
90,91,19570,1,0,0:0:0:0:
5,81,19674,1,8,0:0:0:0:
250,61,19882,1,2,0:0:0:0:
165,51,19986,1,2,0:0:0:0:
410,31,20195,1,0,0:0:0:0:
325,21,20299,1,8,0:0:0:0:
277,228,20507,1,2,0:0:0:0:
362,238,20612,6,0,L|477:221,1,106.666666666667,2|2,0:0|0:0,0:0:0:0:
382,212,20924,2,0,L|277:228,1,106.666666666667,8|2,0:0|0:0,0:0:0:0:
128,318,21237,2,0,L|233:302,1,106.666666666667,2|8,0:0|0:0,0:0:0:0:
362,238,21549,2,0,P|374:269|378:300,1,53.3333333333333,8|0,0:0|0:0,0:0:0:0:
350,369,21757,1,0,0:0:0:0:
467,222,21862,6,0,B|471:155|471:155|449:109|449:109|457:26,2,191.999994140625,2|8|2,0:0|0:0|0:0,0:0:0:0:
350,369,22695,1,0,0:0:0:0:
377,288,22799,2,0,P|325:287|282:318,1,106.666666666667,8|2,0:0|0:0,0:0:0:0:
207,360,23112,6,0,P|155:361|112:330,1,106.666666666667,2|2,0:0|0:0,0:0:0:0:
70,255,23424,1,8,0:0:0:0:
232,58,23632,1,2,0:0:0:0:
280,128,23737,2,0,L|266:248,1,106.666666666667,2|2,0:0|0:0,0:0:0:0:
207,360,24049,2,0,P|155:361|112:330,1,106.666666666667,8|0,0:0|0:0,0:0:0:0:
282,317,24362,6,0,P|337:284|436:364,2,191.999994140625,2|8|2,0:0|0:0|0:0,0:0:0:0:
70,255,25195,1,0,0:0:0:0:
112,330,25299,2,0,P|146:290|153:238,1,106.666666666667,8|2,0:0|0:0,0:0:0:0:
1,179,25612,6,0,L|110:165,1,106.666666666667,2|2,0:0|0:0,0:0:0:0:
167,106,25924,2,0,L|272:119,1,106.666666666667,8|2,0:0|0:0,0:0:0:0:
339,176,26237,1,8,0:0:0:0:
423,165,26341,1,8,0:0:0:0:
470,93,26445,1,8,0:0:0:0:
447,10,26549,1,8,0:0:0:0:
339,176,26757,1,8,0:0:0:0:
272,119,26862,6,0,P|254:168|264:219,1,106.666666666667,2|0,0:0|0:0,0:0:0:0:
319,286,27174,2,0,L|440:274,1,106.666666666667,8|0,0:0|0:0,0:0:0:0:
506,304,27487,1,2,0:0:0:0:
303,370,27695,1,0,0:0:0:0:
319,286,27799,1,12,0:0:0:0:
470,93,28007,1,2,0:0:0:0:
486,177,28112,6,0,L|379:187,1,106.666666666667,2|2,0:0|0:0,0:0:0:0:
210,163,28424,2,0,P|263:167|308:140,1,106.666666666667,8|2,0:0|0:0,0:0:0:0:
225,9,28737,2,0,B|201:62|201:62|210:163,1,160,2|8,0:0|0:0,0:0:0:0:
303,370,29362,5,2,0:0:0:0:
139,317,29570,1,0,0:0:0:0:
54,330,29674,1,8,0:0:0:0:
255,260,29882,1,2,0:0:0:0:
268,345,29986,1,2,0:0:0:0:
198,144,30195,1,0,0:0:0:0:
283,131,30299,1,8,0:0:0:0:
82,201,30507,1,2,0:0:0:0:
68,116,30612,6,0,P|33:77|27:25,1,106.666666666667,2|2,0:0|0:0,0:0:0:0:
172,159,30924,2,0,P|134:195|82:201,1,106.666666666667,8|2,0:0|0:0,0:0:0:0:
215,55,31237,2,0,B|265:85|257:145|257:145|286:125|292:71,1,160,2|8,0:0|0:0,0:0:0:0:
82,201,31862,6,0,P|33:231|18:285,1,106.666666666667,2|0,0:0|0:0,0:0:0:0:
45,355,32174,2,0,L|160:343,1,106.666666666667,8|0,0:0|0:0,0:0:0:0:
235,362,32487,1,2,0:0:0:0:
172,159,32695,1,0,0:0:0:0:
256,178,32799,2,0,L|371:166,1,106.666666666667,8|2,0:0|0:0,0:0:0:0:
475,58,33112,6,0,P|422:54|377:82,1,106.666666666667,2|2,0:0|0:0,0:0:0:0:
414,235,33424,2,0,P|441:190|443:138,1,106.666666666667,8|2,0:0|0:0,0:0:0:0:
378,81,33737,1,2,0:0:0:0:
434,331,33945,1,0,0:0:0:0:
355,297,34049,2,0,P|302:300|257:328,1,106.666666666667,8|0,0:0|0:0,0:0:0:0:
414,235,34362,5,2,0:0:0:0:
218,150,34570,1,0,0:0:0:0:
229,65,34674,1,8,0:0:0:0:
18,210,34882,1,2,0:0:0:0:
8,125,34987,1,2,0:0:0:0:
249,43,35195,1,0,0:0:0:0:
238,125,35299,1,8,0:0:0:0:
26,99,35507,1,2,0:0:0:0:
37,184,35612,6,0,P|84:160|109:114,1,106.666666666667,2|2,0:0|0:0,0:0:0:0:
18,210,35924,2,0,L|31:315,1,106.666666666667,8|2,0:0|0:0,0:0:0:0:
110,115,36237,2,0,L|96:9,1,106.666666666667,2|8,0:0|0:0,0:0:0:0:
36,183,36549,2,0,P|49:207|56:233,1,53.3333333333333,8|0,0:0|0:0,0:0:0:0:
31,315,36757,1,0,0:0:0:0:
205,230,36862,6,0,L|181:39,2,191.999994140625,2|8|2,0:0|0:0|0:0,0:0:0:0:
31,315,37695,1,0,0:0:0:0:
55,232,37799,2,0,B|52:207|36:182|36:182|58:199|105:203,1,106.666666666667,8|2,0:0|0:0,0:0:0:0:
125,282,38112,6,0,P|83:313|30:314,1,106.666666666667,2|2,0:0|0:0,0:0:0:0:
205,230,38424,2,0,P|257:231|299:262,1,106.666666666667,8|2,0:0|0:0,0:0:0:0:
328,343,38737,1,2,0:0:0:0:
125,282,38945,1,0,0:0:0:0:
205,230,39049,2,0,P|257:231|299:262,1,106.666666666667,8|0,0:0|0:0,0:0:0:0:
328,343,39362,6,0,B|404:360|404:360|519:316,2,191.999994140625,2|8|2,0:0|0:0|0:0,0:0:0:0:
417,149,40195,1,0,0:0:0:0:
487,194,40299,2,0,P|499:142|480:93,1,106.666666666667,8|2,0:0|0:0,0:0:0:0:
321,42,40612,6,0,B|375:52|375:52|422:30,1,106.666666666667,2|0,0:0|0:0,0:0:0:0:
321,42,40924,2,0,B|267:32|267:32|220:54,1,106.666666666667,8|2,0:0|0:0,0:0:0:0:
141,87,41237,1,8,0:0:0:0:
74,31,41341,1,8,0:0:0:0:
128,169,41445,1,8,0:0:0:0:
220,53,41549,1,2,0:0:0:0:
100,267,41862,6,0,P|47:264|2:291,1,106.666666666667,2|0,0:0|0:0,0:0:0:0:
151,335,42174,2,0,P|196:361|249:359,1,106.666666666667,8|0,0:0|0:0,0:0:0:0:
316,306,42487,2,0,L|303:146,1,160,2|8,0:0|0:0,0:0:0:0:
414,17,43007,1,2,0:0:0:0:
487,62,43112,6,0,L|495:168,1,106.666666666667,2|2,0:0|0:0,0:0:0:0:
443,236,43424,2,0,P|391:243|343:222,1,106.666666666667,8|2,0:0|0:0,0:0:0:0:
304,146,43737,2,0,P|251:138|188:236,1,160,2|8,0:0|0:0,0:0:0:0:
186,212,44362,6,0,P|205:269|203:322,1,106.666666666667,2|0,0:0|0:0,0:0:0:0:
25,253,44674,2,0,P|64:208|111:183,1,106.666666666667,8|0,0:0|0:0,0:0:0:0:
141,372,44986,2,0,P|82:359|37:331,1,106.666666666667,2|0,0:0|0:0,0:0:0:0:
25,253,45299,1,8,0:0:0:0:
177,104,45507,1,2,0:0:0:0:
159,20,45612,6,0,L|39:33,1,106.666666666667,2|2,0:0|0:0,0:0:0:0:
70,115,45924,2,0,L|177:104,1,106.666666666667,8|0,0:0|0:0,0:0:0:0:
254,66,46237,1,8,0:0:0:0:
483,179,46445,1,0,0:0:0:0:
405,140,46549,1,8,0:0:0:0:
176,255,46757,1,0,0:0:0:0:
253,217,46862,6,0,P|259:269|235:315,1,106.666666666667,2|0,0:0|0:0,0:0:0:0:
141,350,47174,2,0,P|183:318|236:316,1,106.666666666667,8|0,0:0|0:0,0:0:0:0:
303,368,47487,2,0,L|489:346,1,160,2|8,0:0|0:0,0:0:0:0:
483,179,48007,1,2,0:0:0:0:
406,141,48112,6,0,L|294:154,1,106.666666666667,2|0,0:0|0:0,0:0:0:0:
377,191,48424,2,0,L|482:178,1,106.666666666667,8|2,0:0|0:0,0:0:0:0:
311,248,48737,2,0,B|237:205|235:291|161:246,1,160,0|8,0:0|0:0,0:0:0:0:
161,247,49362,6,0,P|131:203|125:150,1,106.666666666667,2|0,0:0|0:0,0:0:0:0:
249,8,49674,2,0,P|227:55|183:86,1,106.666666666667,8|0,0:0|0:0,3:0:0:0:
0,51,49987,2,0,P|52:46|100:69,1,106.666666666667,8|0,0:0|0:0,0:0:0:0:
124,150,50299,1,8,0:0:0:0:
34,344,50507,1,2,0:0:0:0:
8,262,50612,6,0,L|122:272,1,106.666666666667,2|2,0:0|0:0,0:0:0:0:
197,248,50924,1,8,0:0:0:0:
385,347,51132,1,2,0:0:0:0:
303,370,51236,1,8,0:0:0:0:
413,186,51445,1,0,0:0:0:0:
494,162,51549,2,0,P|514:210|506:269,1,106.666666666667,8|0,0:0|0:0,0:0:0:0:
413,186,51862,6,0,B|391:133|391:133|403:31,2,160,2|8|2,0:0|0:0|0:0,0:0:0:0:
499,65,52695,1,0,0:0:0:0:
499,65,52799,2,0,P|455:35|403:31,1,106.666666666667,8|6,0:0|0:0,0:0:0:0:
322,60,53112,6,0,P|278:89|225:94,1,106.666666666667,2|2,0:0|0:0,0:0:0:0:
147,62,53424,1,8,0:0:0:0:
9,190,53632,1,2,0:0:0:0:
89,222,53737,2,0,L|80:115,1,106.666666666667,2|0,0:0|0:0,0:0:0:0:
147,62,54049,2,0,L|153:-11,2,53.3333333333333,8|0|0,0:0|0:0|0:0,0:0:0:0:
89,222,54362,6,0,L|97:328,1,106.666666666667,2|0,0:0|0:0,0:0:0:0:
9,190,54674,1,8,0:0:0:0:
206,270,54882,1,0,0:0:0:0:
281,229,54987,2,0,L|272:122,1,106.666666666667,2|0,0:0|0:0,0:0:0:0:
279,69,55299,2,0,L|272:122,1,53.3333333333333,8|0,0:0|0:0,0:0:0:0:
349,21,55507,1,2,0:0:0:0:
427,56,55612,6,0,L|412:161,1,106.666666666667,0|0,0:0|0:0,0:0:0:0:
456,234,55924,1,8,0:0:0:0:
296,375,56132,1,2,0:0:0:0:
252,303,56237,2,0,P|202:284|148:290,1,106.666666666667,8|0,0:0|0:0,0:0:0:0:
100,359,56549,1,8,0:0:0:0:
19,332,56653,1,0,0:0:0:0:
19,247,56757,1,0,0:0:0:0:
100,219,56862,6,0,P|124:173|122:120,1,106.666666666667,2|0,0:0|0:0,0:0:0:0:
47,51,57174,2,0,P|93:76|122:121,1,106.666666666667,8|0,0:0|0:0,0:0:0:0:
223,89,57487,2,0,L|122:121,1,106.666666666667,2|0,0:0|0:0,0:0:0:0:
40,146,57799,1,8,0:0:0:0:
245,200,58007,1,2,0:0:0:0:
326,174,58112,6,0,P|351:127|346:74,1,106.666666666667,2|2,0:0|0:0,0:0:0:0:
271,7,58424,2,0,P|299:51|347:75,1,106.666666666667,8|2,0:0|0:0,0:0:0:0:
485,42,58737,2,0,P|409:28|347:75,1,160,2|8,0:0|0:0,3:0:0:0:
26,341,59362,6,0,P|102:355|165:309,1,160,2|8,0:0|0:0,3:0:0:0:
486,41,59987,2,0,L|480:98,1,53.3333333333333,2|0,0:0|0:0,0:0:0:0:
383,130,60195,1,8,0:0:0:0:
383,130,60299,2,0,L|395:17,1,106.666666666667,8|0,0:0|0:0,0:0:0:0:
402,212,60612,5,2,0:0:0:0:
165,308,60820,1,2,0:0:0:0:
246,333,60924,1,8,0:0:0:0:
200,54,61132,1,2,0:0:0:0:
138,112,61236,1,8,0:0:0:0:
402,212,61444,1,2,0:0:0:0:
383,130,61548,1,8,0:0:0:0:
165,308,61757,1,0,0:0:0:0:
245,333,61862,6,0,P|291:305|343:306,1,106.666666666667,2|0,0:0|0:0,0:0:0:0:
441,332,62174,2,0,P|389:333|344:306,1,106.666666666667,8|0,0:0|0:0,0:0:0:0:
320,223,62487,1,2,0:0:0:0:
85,283,62695,1,0,0:0:0:0:
109,366,62799,1,8,0:0:0:0:
237,196,63007,1,2,0:0:0:0:
213,113,63112,6,0,P|167:85|115:86,1,106.666666666667,2|2,0:0|0:0,0:0:0:0:
237,196,63424,2,0,L|355:183,1,106.666666666667,8|2,0:0|0:0,0:0:0:0:
423,215,63737,1,2,0:0:0:0:
485,56,63945,1,0,0:0:0:0:
405,25,64049,2,0,L|298:36,1,106.666666666667,8|0,0:0|0:0,0:0:0:0:
236,196,64362,6,0,P|209:248|213:298,1,106.666666666667,2|0,0:0|0:0,0:0:0:0:
412,352,64674,2,0,P|439:300|435:249,1,106.666666666667,8|0,0:0|0:0,0:0:0:0:
253,370,64987,2,0,L|412:352,1,160,2|8,0:0|0:0,0:0:0:0:
236,196,65507,5,2,0:0:0:0:
151,205,65612,1,2,0:0:0:0:
293,45,65820,5,2,0:0:0:0:
197,34,65924,1,8,0:0:0:0:
364,267,66132,5,2,0:0:0:0:
256,278,66237,1,2,0:0:0:0:
29,137,66445,5,0,0:0:0:0:
114,128,66549,2,0,L|167:122,2,53.3333333333333,8|0|0,0:0|0:0|0:0,0:0:0:0:
29,137,66862,6,0,P|4:191|14:244,1,106.666666666667,2|0,0:0|0:0,0:0:0:0:
50,311,67174,2,0,P|104:336|157:326,1,106.666666666667,8|0,0:0|0:0,0:0:0:0:
229,299,67487,1,2,0:0:0:0:
349,82,67695,1,0,0:0:0:0:
337,167,67799,1,8,0:0:0:0:
463,380,68007,1,2,0:0:0:0:
396,326,68112,6,0,P|343:320|296:344,1,106.666666666667,2|2,0:0|0:0,0:0:0:0:
474,293,68424,2,0,P|504:250|507:197,1,106.666666666667,8|2,0:0|0:0,0:0:0:0:
478,116,68737,1,2,0:0:0:0:
339,17,68945,1,0,0:0:0:0:
284,82,69049,2,0,P|288:135|318:178,1,106.666666666667,8|0,0:0|0:0,0:0:0:0:
507,197,69362,6,0,L|400:206,1,106.666666666667,2|0,0:0|0:0,0:0:0:0:
284,83,69674,2,0,L|391:74,1,106.666666666667,8|0,0:0|0:0,0:0:0:0:
336,262,69987,2,0,L|176:274,1,160,2|8,0:0|0:0,0:0:0:0:
0,88,70508,5,2,0:0:0:0:
21,5,70612,1,2,0:0:0:0:
263,159,70820,5,2,0:0:0:0:
236,55,70924,1,8,0:0:0:0:
31,326,71132,5,2,0:0:0:0:
59,206,71237,1,2,0:0:0:0:
254,24,71445,5,2,0:0:0:0:
275,107,71549,2,0,L|263:162,2,53.3333333333333,8|0|0,0:0|0:0|0:0,0:0:0:0:
242,242,71862,6,0,B|332:226|332:226|387:240|387:240|482:223,2,240.000009155274,2|8|2,0:0|0:0|0:0,0:0:0:0:
418,363,72695,1,0,0:0:0:0:
493,323,72799,2,0,P|500:271|477:224,1,106.666666666667,8|2,0:0|0:0,0:0:0:0:
440,56,73112,6,0,P|416:103|424:156,1,106.666666666667,2|2,0:0|0:0,0:0:0:0:
500,118,73424,1,8,0:0:0:0:
269,7,73632,1,2,0:0:0:0:
187,35,73737,2,0,L|80:28,1,106.666666666667,2|0,0:0|0:0,0:0:0:0:
251,91,74049,2,0,P|303:86|343:52,1,106.666666666667,8|0,0:0|0:0,0:0:0:0:
81,28,74362,6,0,B|23:59|47:130|47:130|107:175|73:248,2,240.000009155274,2|8|2,0:0|0:0|0:0,0:0:0:0:
0,271,75195,1,0,0:0:0:0:
78,237,75299,2,0,P|131:240|174:282,1,106.666666666667,8|2,0:0|0:0,0:0:0:0:
188,358,75612,5,2,0:0:0:0:
439,218,75820,1,2,0:0:0:0:
421,302,75924,1,8,0:0:0:0:
199,118,76132,1,0,0:0:0:0:
217,201,76237,5,8,0:0:0:0:
281,146,76341,1,8,0:0:0:0:
264,62,76445,1,8,0:0:0:0:
183,34,76549,2,0,L|93:50,1,80.0000030517579,2|0,0:0|0:0,0:0:0:0:
25,31,76862,6,0,L|264:62,2,240.000009155274,2|8|2,0:0|0:0|0:0,0:0:0:0:
346,145,77695,1,0,0:0:0:0:
422,105,77799,2,0,P|428:53|409:4,1,106.666666666667,8|2,0:0|0:0,0:0:0:0:
346,145,78112,6,0,P|382:182|434:190,1,106.666666666667,2|0,0:0|0:0,0:0:0:0:
501,138,78424,1,8,0:0:0:0:
260,224,78632,1,2,0:0:0:0:
260,224,78737,2,0,L|250:331,1,106.666666666667,2|0,0:0|0:0,0:0:0:0:
170,360,79049,2,0,P|133:322|81:314,1,106.666666666667,8|0,0:0|0:0,0:0:0:0:
0,343,79362,5,2,0:0:0:0:
512,343,79674,1,8,0:0:0:0:
256,56,79987,2,0,P|207:82|150:74,1,106.666666666667,2|0,0:0|0:0,0:0:0:0:
256,56,80299,2,0,P|305:82|362:74,1,106.666666666667,8|2,0:0|0:0,0:0:0:0:
256,160,80612,5,2,0:0:0:0:
48,110,80820,1,2,0:0:0:0:
84,32,80924,1,8,0:0:0:0:
464,110,81132,1,2,0:0:0:0:
428,32,81236,1,8,0:0:0:0:
256,328,81549,1,8,0:0:0:0:
256,232,81862,5,2,0:0:0:0:
101,297,82382,1,2,0:0:0:0:
101,297,82487,1,8,0:0:0:0:
411,297,83007,1,8,0:0:0:0:
411,297,83112,5,2,0:0:0:0:
467,233,83320,1,8,0:0:0:0:
467,233,83424,1,2,0:0:0:0:
403,177,83632,1,2,0:0:0:0:
403,177,83737,1,8,0:0:0:0:
347,241,84049,1,0,0:0:0:0:
411,297,84257,1,0,0:0:0:0:
411,297,84362,5,2,0:0:0:0:
256,17,84882,1,2,0:0:0:0:
256,17,84987,1,8,0:0:0:0:
101,297,85507,1,8,0:0:0:0:
101,297,85612,5,2,0:0:0:0:
45,233,85820,1,8,0:0:0:0:
45,233,85924,1,2,0:0:0:0:
109,177,86237,1,8,0:0:0:0:
165,241,86445,1,8,0:0:0:0:
165,241,86549,1,0,0:0:0:0:
101,297,86757,1,0,0:0:0:0:
101,297,86862,5,2,0:0:0:0:
411,297,87382,1,0,0:0:0:0:
411,297,87487,1,8,0:0:0:0:
256,17,88007,1,8,0:0:0:0:
256,17,88112,5,2,0:0:0:0:
256,102,88320,1,8,0:0:0:0:
256,102,88424,1,2,0:0:0:0:
256,187,88737,5,8,0:0:0:0:
256,229,88841,1,8,0:0:0:0:
256,314,88945,1,8,0:0:0:0:
256,356,89049,1,2,0:0:0:0:
147,197,89257,1,2,0:0:0:0:
147,197,89362,6,0,P|103:226|50:229,1,106.666666666667,2|0,0:0|0:0,0:0:0:0:
6,156,89674,2,0,L|19:45,1,106.666666666667,8|0,0:0|0:0,0:0:0:0:
190,125,89987,2,0,L|168:305,1,160,2|8,0:0|0:0,0:0:0:0:
365,197,90507,1,2,0:0:0:0:
365,197,90612,6,0,P|408:226|461:229,1,106.666666666667,2|0,0:0|0:0,0:0:0:0:
506,156,90924,2,0,L|493:45,1,106.666666666667,8|0,0:0|0:0,0:0:0:0:
322,125,91237,2,0,L|343:305,1,160,2|8,0:0|0:0,0:0:0:0:
144,366,91757,1,0,0:0:0:0:
64,330,91862,6,0,P|37:286|34:233,1,106.666666666667,2|0,0:0|0:0,0:0:0:0:
175,112,92174,2,0,P|130:141|105:187,1,106.666666666667,8|0,0:0|0:0,0:0:0:0:
15,128,92487,2,0,L|175:113,1,160,2|8,0:0|0:0,0:0:0:0:
368,366,93007,1,2,0:0:0:0:
447,330,93112,6,0,P|474:286|477:233,1,106.666666666667,2|0,0:0|0:0,0:0:0:0:
336,112,93424,2,0,P|381:141|406:187,1,106.666666666667,8|0,0:0|0:0,0:0:0:0:
496,128,93737,2,0,L|337:113,1,160,2|8,0:0|0:0,0:0:0:0:
178,271,94362,6,0,L|72:281,1,106.666666666667,2|0,0:0|0:0,0:0:0:0:
213,350,94674,2,0,L|107:360,1,106.666666666667,8|0,0:0|0:0,0:0:0:0:
298,350,94987,2,0,L|405:360,1,106.666666666667,2|0,0:0|0:0,0:0:0:0:
333,271,95299,2,0,L|440:281,1,106.666666666667,8|2,0:0|0:0,0:0:0:0:
256,99,95612,5,2,0:0:0:0:
213,351,95820,1,0,0:0:0:0:
298,351,95924,1,8,0:0:0:0:
256,99,96237,5,8,0:0:0:0:
181,142,96341,1,8,0:0:0:0:
331,142,96445,1,8,0:0:0:0:
256,13,96549,1,2,0:0:0:0:
256,285,96757,1,2,0:0:0:0:
256,371,96862,6,0,B|166:360|146:287|161:225|224:171|306:214|306:214|379:299|473:265|552:249|596:111|508:-40|347:-10|294:61|291:122|291:122|329:334,1,1140.79995474121,0|0,0:0|0:0,0:0:0:0:
256,371,104153,6,0,L|242:303,2,53.3333333333333,0|0|0,0:0|0:0|0:0,0:0:0:0:
