osu file format v14

[General]
AudioFilename: audio.mp3
AudioLeadIn: 0
PreviewTime: 11705
Countdown: 0
SampleSet: Soft
StackLeniency: 0.5
Mode: 0
LetterboxInBreaks: 0
WidescreenStoryboard: 1

[Editor]
Bookmarks: 9362,11862,16862,21862,26862,31862,36862,41862,46862,51862,56862,61862,66862,71862,76862,81862,86862,91862,96862,104049
DistanceSpacing: 1
BeatDivisor: 6
GridSize: 32
TimelineZoom: 1.9

[Metadata]
Title:Jin Jin Jingle Bells
TitleUnicode:ジン ジン ジングルベル
Artist:Twinkle Veil from SUPER*GiRLS
ArtistUnicode:トゥィンクルヴェール from SUPER☆GiRLS
Creator:ShogunMoon
Version:Kencho's Insane
Source:
Tags:christmas xmas kencho sdafsf beomsan deppyforce akitoshi karia koiyuki Minakami Yuki yf_bmp
BeatmapID:1480665
BeatmapSetID:696602

[Difficulty]
HPDrainRate:5.1
CircleSize:3.4
OverallDifficulty:7.2
ApproachRate:8.3
SliderMultiplier:1.6
SliderTickRate:1

[Events]
//Background and Video events
0,0,"bg.png",0,0
//Break Periods
//Storyboard Layer 0 (Background)
//Storyboard Layer 1 (Fail)
//Storyboard Layer 2 (Pass)
//Storyboard Layer 3 (Foreground)
//Storyboard Sound Samples

[TimingPoints]
9362,312.5,4,2,1,50,1,0
9987,-200,4,2,1,50,0,0
10612,-100,4,2,1,80,0,0
10924,-100,4,2,1,70,0,0
11237,-100,4,2,1,60,0,0
11549,-100,4,2,1,50,0,0
11862,-100,4,2,1,70,0,0
21862,-66.6666666666667,4,2,1,70,0,0
22487,-100,4,2,1,70,0,0
24362,-66.6666666666667,4,2,1,70,0,0
24987,-100,4,2,1,70,0,0
26862,-100,4,2,1,70,0,0
36862,-66.6666666666667,4,2,1,70,0,0
37487,-100,4,2,1,70,0,0
39362,-66.6666666666667,4,2,1,70,0,0
39987,-100,4,2,1,70,0,0
41862,-111.111111111111,4,2,1,60,0,0
56862,-100,4,2,1,60,0,0
59362,-66.6666666666667,4,2,1,60,0,0
59674,-100,4,2,1,60,0,0
59987,-66.6666666666667,4,2,1,60,0,0
60299,-100,4,2,1,60,0,0
60612,-100,4,2,1,60,0,0
61549,-66.6666666666667,4,2,1,60,0,0
61862,-100,4,2,1,70,0,1
71862,-66.6666666666667,4,2,1,70,0,1
72487,-100,4,2,1,70,0,1
74362,-66.6666666666667,4,2,1,70,0,1
74987,-100,4,2,1,70,0,1
76862,-66.6666666666667,4,2,1,70,0,1
77487,-100,4,2,1,70,0,1
79362,-66.6666666666667,4,2,1,70,0,1
79987,-100,4,2,1,70,0,1
81862,-125,4,2,1,50,0,0
89362,-100,4,2,1,50,0,0
96862,-400,4,2,1,50,0,0
96966,-400,4,2,1,5,0,0
104153,-400,4,2,1,50,0,0
104257,-200,4,2,1,50,0,0

[Colours]
Combo1 : 255,128,255
Combo2 : 233,44,72
Combo3 : 218,157,129
Combo4 : 254,231,139

[HitObjects]
238,288,9987,6,0,P|300:272|355:308,1,133.333333333333,4|0,0:3|0:0,0:0:0:0:
288,353,10612,6,0,L|305:248,1,106.666666666667,2|8,0:0|0:0,0:0:0:0:
318,169,10924,5,8,0:0:0:0:
274,139,11028,1,0,0:0:0:0:
227,148,11132,1,2,0:0:0:0:
192,173,11237,5,8,0:0:0:0:
155,179,11341,1,8,0:0:0:0:
124,171,11445,1,8,0:0:0:0:
103,155,11549,5,8,0:0:0:0:
95,135,11653,1,8,0:0:0:0:
96,119,11757,1,8,0:0:0:0:
100,109,11862,5,4,0:0:0:0:
57,344,12174,1,8,0:0:0:0:
100,109,12487,1,2,0:0:0:0:
134,264,12695,1,0,0:0:0:0:
83,248,12799,1,8,0:0:0:0:
218,163,13007,1,2,0:0:0:0:
257,200,13112,6,0,P|281:248|280:299,1,106.666666666667,2|2,0:0|0:0,0:0:0:0:
250,374,13424,2,0,L|143:366,1,106.666666666667,8|2,0:0|0:0,0:0:0:0:
63,360,13737,1,2,0:0:0:0:
122,212,13945,1,0,0:0:0:0:
134,264,14049,1,8,0:0:0:0:
14,158,14257,1,0,0:0:0:0:
26,106,14362,6,0,L|133:114,1,106.666666666667,2|0,0:0|0:0,0:0:0:0:
192,166,14674,2,0,L|299:158,1,106.666666666667,8|2,0:0|0:0,0:0:0:0:
371,123,14987,2,0,P|372:195|432:167,1,160,2|8,0:0|0:0,0:0:0:0:
394,16,15507,1,2,0:0:0:0:
348,44,15612,6,0,P|298:61|246:54,1,106.666666666667,2|2,0:0|0:0,0:0:0:0:
169,32,15924,2,0,L|161:139,1,106.666666666667,8|2,0:0|0:0,0:0:0:0:
154,219,16237,2,0,P|129:214|107:199,2,53.3333333333333,2|0|0,0:0|0:0|0:0,0:0:0:0:
226,185,16549,2,0,P|251:190|273:205,2,53.3333333333333,8|0|0,0:0|0:0|0:0,0:0:0:0:
219,265,16862,5,2,0:0:0:0:
317,47,17174,1,8,0:0:0:0:
219,265,17487,1,2,0:0:0:0:
163,115,17695,1,0,0:0:0:0:
216,108,17799,1,8,0:0:0:0:
82,195,18007,1,2,0:0:0:0:
29,202,18112,6,0,L|15:94,1,106.666666666667,2|2,0:0|0:0,0:0:0:0:
5,17,18424,2,0,P|38:58|90:67,1,106.666666666667,8|2,0:0|0:0,0:0:0:0:
165,38,18737,1,2,0:0:0:0:
184,197,18945,1,0,0:0:0:0:
177,144,19049,1,8,0:0:0:0:
330,188,19257,1,0,0:0:0:0:
323,241,19362,6,0,L|309:349,1,106.666666666667,2|0,0:0|0:0,0:0:0:0:
230,357,19674,2,0,L|244:249,1,106.666666666667,8|2,0:0|0:0,0:0:0:0:
184,197,19987,2,0,P|249:216|243:148,1,160,2|8,0:0|0:0,0:0:0:0:
83,145,20507,1,2,0:0:0:0:
80,198,20612,6,0,L|73:304,1,106.666666666667,2|2,0:0|0:0,0:0:0:0:
137,352,20924,2,0,P|191:367|242:359,1,106.666666666667,8|2,0:0|0:0,0:0:0:0:
308,316,21237,2,0,L|315:210,1,106.666666666667,2|8,0:0|0:0,0:0:0:0:
251,162,21549,2,0,P|197:147|146:155,1,106.666666666667,8|0,0:0|0:0,0:0:0:0:
80,198,21862,6,0,P|141:152|138:73,1,160.000006103516,2|0,0:0|0:0,0:0:0:0:
62,52,22174,2,0,P|72:121|149:155,1,160.000006103516,8|0,0:0|0:0,0:0:0:0:
139,75,22487,5,2,0:0:0:0:
376,117,22799,2,0,L|362:222,1,106.666666666667,8|2,0:0|0:0,0:0:0:0:
354,303,23112,5,2,0:0:0:0:
269,168,23320,1,2,0:0:0:0:
276,221,23424,1,8,0:0:0:0:
361,356,23632,1,2,0:0:0:0:
354,303,23737,2,0,L|249:317,1,106.666666666667,2|2,0:0|0:0,0:0:0:0:
179,357,24049,2,0,P|204:311|192:261,1,106.666666666667,8|0,0:0|0:0,0:0:0:0:
131,207,24362,6,0,P|113:132|150:62,1,160,2|0,0:0|0:0,0:0:0:0:
222,28,24674,2,0,L|379:49,1,160.000006103516,8|0,0:0|0:0,0:0:0:0:
460,60,24987,6,0,P|439:106|390:128,1,106.666666666667,2|0,0:0|0:0,0:0:0:0:
316,97,25299,1,8,0:0:0:0:
404,230,25507,6,0,L|412:177,1,53.3333333333333,2|2,0:0|0:0,0:0:0:0:
279,267,25820,2,0,L|271:214,1,53.3333333333333,2|8,0:0|0:0,0:0:0:0:
351,352,26132,1,2,0:0:0:0:
365,300,26237,5,8,0:0:0:0:
412,275,26341,1,8,0:0:0:0:
464,281,26445,1,8,0:0:0:0:
497,322,26549,2,0,P|445:336|416:299,1,106.666666666667,8|8,0:0|0:0,0:0:0:0:
412,275,26862,5,2,0:0:0:0:
455,40,27174,1,8,0:0:0:0:
412,275,27487,1,2,0:0:0:0:
378,120,27695,1,0,0:0:0:0:
429,136,27799,1,12,0:0:0:0:
294,221,28007,1,2,0:0:0:0:
255,184,28112,6,0,P|231:136|232:85,1,106.666666666667,2|2,0:0|0:0,0:0:0:0:
262,10,28424,2,0,L|369:18,1,106.666666666667,8|2,0:0|0:0,0:0:0:0:
449,24,28737,1,2,0:0:0:0:
390,172,28945,1,0,0:0:0:0:
378,120,29049,1,8,0:0:0:0:
498,226,29257,1,0,0:0:0:0:
486,278,29362,6,0,L|379:270,1,106.666666666667,2|0,0:0|0:0,0:0:0:0:
320,218,29674,2,0,L|213:226,1,106.666666666667,8|2,0:0|0:0,0:0:0:0:
141,261,29987,2,0,P|140:189|80:217,1,160,2|8,0:0|0:0,0:0:0:0:
118,368,30507,1,2,0:0:0:0:
164,340,30612,6,0,P|214:323|266:330,1,106.666666666667,2|2,0:0|0:0,0:0:0:0:
343,352,30924,2,0,L|351:245,1,106.666666666667,8|2,0:0|0:0,0:0:0:0:
358,165,31237,2,0,P|383:170|405:185,2,53.3333333333333,2|0|0,0:0|0:0|0:0,0:0:0:0:
286,199,31549,2,0,P|261:194|239:179,2,53.3333333333333,8|0|0,0:0|0:0|0:0,0:0:0:0:
293,119,31862,5,2,0:0:0:0:
195,337,32174,1,8,0:0:0:0:
293,119,32487,1,2,0:0:0:0:
349,269,32695,1,0,0:0:0:0:
296,276,32799,1,8,0:0:0:0:
430,189,33007,1,2,0:0:0:0:
483,182,33112,6,0,L|497:290,1,106.666666666667,2|2,0:0|0:0,0:0:0:0:
507,367,33424,2,0,P|474:326|422:317,1,106.666666666667,8|2,0:0|0:0,0:0:0:0:
347,346,33737,1,2,0:0:0:0:
328,187,33945,1,0,0:0:0:0:
335,240,34049,1,8,0:0:0:0:
182,196,34257,1,0,0:0:0:0:
189,143,34362,6,0,L|203:35,1,106.666666666667,2|0,0:0|0:0,0:0:0:0:
282,27,34674,2,0,L|268:135,1,106.666666666667,8|2,0:0|0:0,0:0:0:0:
328,187,34987,2,0,P|263:168|269:236,1,160,2|8,0:0|0:0,0:0:0:0:
429,239,35507,1,2,0:0:0:0:
432,186,35612,6,0,L|439:80,1,106.666666666667,2|2,0:0|0:0,0:0:0:0:
375,32,35924,2,0,P|321:17|270:25,1,106.666666666667,8|2,0:0|0:0,0:0:0:0:
204,68,36237,2,0,L|197:174,1,106.666666666667,2|8,0:0|0:0,0:0:0:0:
261,222,36549,2,0,P|315:237|366:229,1,106.666666666667,8|0,0:0|0:0,0:0:0:0:
432,186,36862,6,0,P|371:232|374:311,1,160.000006103516,2|0,0:0|0:0,0:0:0:0:
450,332,37174,2,0,P|440:263|363:229,1,160.000006103516,8|0,0:0|0:0,0:0:0:0:
373,309,37487,5,2,0:0:0:0:
136,267,37799,2,0,L|150:162,1,106.666666666667,8|2,0:0|0:0,0:0:0:0:
158,81,38112,5,2,0:0:0:0:
243,216,38320,1,2,0:0:0:0:
236,163,38424,1,8,0:0:0:0:
151,28,38632,1,2,0:0:0:0:
158,81,38737,2,0,L|263:67,1,106.666666666667,2|0,0:0|0:0,0:0:0:0:
333,27,39049,2,0,P|308:73|320:123,1,106.666666666667,8|0,0:0|0:0,0:0:0:0:
381,177,39362,6,0,P|399:252|362:322,1,160,2|0,0:0|0:0,0:0:0:0:
290,356,39674,2,0,L|133:335,1,160.000006103516,8|0,0:0|0:0,0:0:0:0:
52,324,39987,6,0,P|73:278|122:256,1,106.666666666667,2|0,0:0|0:0,0:0:0:0:
196,287,40299,1,8,0:0:0:0:
108,154,40507,6,0,L|100:207,1,53.3333333333333,2|2,0:0|0:0,0:0:0:0:
233,117,40820,2,0,L|241:170,1,53.3333333333333,0|8,0:0|0:0,0:0:0:0:
161,32,41132,1,2,0:0:0:0:
147,84,41237,5,8,0:0:0:0:
100,109,41341,1,8,0:0:0:0:
48,103,41445,1,8,0:0:0:0:
15,62,41549,2,0,P|67:48|96:85,1,106.666666666667,2|0,0:0|0:0,0:0:0:0:
100,109,41862,5,2,0:0:0:0:
83,324,42174,1,8,0:0:0:0:
197,140,42487,1,2,0:0:0:0:
220,354,42799,1,8,0:0:0:0:
329,260,43007,6,0,P|399:251|453:295,1,143.999995605469,2|2,0:0|0:0,0:0:0:0:
465,342,43424,2,0,L|491:249,1,95.9999970703126,8|2,0:0|0:0,0:0:0:0:
504,203,43737,1,2,0:0:0:0:
364,367,44049,1,8,0:0:0:0:
306,158,44362,6,0,L|280:65,1,95.9999970703126,2|0,0:0|0:0,0:0:0:0:
238,88,44674,2,0,P|191:94|147:78,1,95.9999970703126,8|0,0:0|0:0,0:0:0:0:
108,47,44987,1,2,0:0:0:0:
32,249,45299,2,0,L|24:153,1,95.9999970703126,8|2,0:0|0:0,0:0:0:0:
21,105,45612,5,2,0:0:0:0:
117,211,45820,1,2,0:0:0:0:
121,163,45924,1,8,0:0:0:0:
187,35,46132,1,0,0:0:0:0:
191,83,46237,2,0,L|287:75,1,95.9999970703126,8|0,0:0|0:0,0:0:0:0:
322,107,46549,2,0,L|418:99,1,95.9999970703126,8|0,0:0|0:0,0:0:0:0:
454,131,46862,5,2,0:0:0:0:
264,233,47174,1,8,0:0:0:0:
472,174,47487,1,2,0:0:0:0:
257,187,47799,1,8,0:0:0:0:
344,302,48007,6,0,L|356:159,1,143.999995605469,2|0,0:0|0:0,0:0:0:0:
318,129,48424,2,0,L|310:33,1,95.9999970703126,8|2,0:0|0:0,0:0:0:0:
345,0,48737,1,0,0:0:0:0:
472,174,49049,1,8,0:0:0:0:
268,246,49362,6,0,P|219:250|177:229,1,95.9999970703126,2|0,0:0|0:0,0:0:0:0:
140,200,49674,2,0,P|91:196|49:217,1,95.9999970703126,8|0,0:0|0:0,0:0:0:0:
18,253,49987,1,8,0:0:0:0:
208,355,50299,2,0,L|304:347,1,95.9999970703126,8|2,0:0|0:0,0:0:0:0:
352,343,50612,5,2,0:0:0:0:
441,230,50820,1,2,0:0:0:0:
437,182,50924,1,8,0:0:0:0:
294,199,51132,1,2,0:0:0:0:
298,151,51237,2,0,L|202:159,1,95.9999970703126,8|0,0:0|0:0,0:0:0:0:
165,189,51549,2,0,L|69:181,1,95.9999970703126,8|0,0:0|0:0,0:0:0:0:
41,142,51862,5,2,0:0:0:0:
172,313,52174,1,8,0:0:0:0:
124,102,52487,1,2,0:0:0:0:
81,313,52799,1,8,0:0:0:0:
196,227,53007,6,0,P|247:265|255:346,1,143.999995605469,6|2,0:0|0:0,0:0:0:0:
235,384,53424,2,0,L|331:376,1,95.9999970703126,8|2,0:0|0:0,0:0:0:0:
379,372,53737,1,2,0:0:0:0:
172,313,54049,1,8,0:0:0:0:
322,157,54362,6,0,P|329:110|315:65,1,95.9999970703126,2|0,0:0|0:0,0:0:0:0:
275,37,54674,2,0,L|179:45,1,95.9999970703126,8|0,0:0|0:0,0:0:0:0:
131,49,54987,1,2,0:0:0:0:
16,223,55299,2,0,L|8:127,1,95.9999970703126,8|2,0:0|0:0,0:0:0:0:
5,79,55612,5,0,0:0:0:0:
133,145,55820,1,0,0:0:0:0:
92,171,55924,1,8,0:0:0:0:
87,27,56132,1,2,0:0:0:0:
131,49,56237,2,0,P|178:56|223:42,1,95.9999970703126,8|0,0:0|0:0,0:0:0:0:
261,12,56549,2,0,P|307:-3|353:5,1,95.9999970703126,8|0,0:0|0:0,0:0:0:0:
401,30,56862,5,2,0:0:0:0:
201,162,57174,1,8,0:0:0:0:
440,144,57487,1,2,0:0:0:0:
224,41,57799,1,8,0:0:0:0:
322,167,58007,6,0,B|330:220|330:220|314:271|314:271|322:324,1,160,2|2,0:0|0:0,0:0:0:0:
254,368,58424,2,0,P|201:375|151:358,1,106.666666666667,8|2,0:0|0:0,0:0:0:0:
90,306,58737,1,2,0:0:0:0:
102,67,59049,1,8,0:0:0:0:
260,247,59362,6,0,P|335:267|403:227,1,160.000006103516,2|0,0:0|0:0,0:0:0:0:
433,184,59674,2,0,L|426:291,1,106.666666666667,8|0,0:0|0:0,0:0:0:0:
322,167,59987,6,0,P|247:147|179:187,1,160.000006103516,2|8,0:0|0:0,0:0:0:0:
149,230,60299,2,0,L|156:123,1,106.666666666667,8|0,0:0|0:0,0:0:0:0:
161,43,60612,5,2,0:0:0:0:
361,159,60820,5,2,0:0:0:0:
322,167,60924,1,8,0:0:0:0:
96,220,61132,5,2,0:0:0:0:
149,230,61237,1,8,0:0:0:0:
366,310,61445,5,2,0:0:0:0:
288,326,61549,2,0,P|248:270|314:250,1,160.000006103516,8|0,0:0|0:0,0:0:0:0:
366,310,61862,5,2,0:0:0:0:
131,360,62174,1,8,0:0:0:0:
366,310,62487,1,2,0:0:0:0:
231,223,62695,1,0,0:0:0:0:
220,275,62799,1,8,0:0:0:0:
349,192,63007,1,2,0:0:0:0:
338,140,63112,6,0,L|316:36,1,106.666666666667,2|2,0:0|0:0,0:0:0:0:
245,72,63424,2,0,P|193:80|149:52,1,106.666666666667,8|2,0:0|0:0,0:0:0:0:
211,0,63737,1,2,0:0:0:0:
204,160,63945,1,0,0:0:0:0:
152,149,64049,1,8,0:0:0:0:
312,155,64257,1,0,0:0:0:0:
301,207,64362,6,0,L|279:311,1,106.666666666667,2|0,0:0|0:0,0:0:0:0:
210,352,64674,2,0,P|165:323|114:332,1,106.666666666667,8|0,0:0|0:0,0:0:0:0:
42,366,64987,2,0,P|85:298|72:222,1,160,2|8,0:0|0:0,0:0:0:0:
3,79,65507,1,2,0:0:0:0:
44,114,65612,6,0,L|149:102,1,106.666666666667,2|2,0:0|0:0,0:0:0:0:
202,41,65924,2,0,P|254:32|302:52,1,106.666666666667,8|2,0:0|0:0,0:0:0:0:
376,84,66237,2,0,P|383:58|380:32,2,53.3333333333333,2|0|0,0:0|0:0|0:0,0:0:0:0:
312,132,66549,2,0,L|318:185,2,53.3333333333333,8|0|0,0:0|0:0|0:0,0:0:0:0:
302,52,66862,5,2,0:0:0:0:
115,201,67174,1,8,0:0:0:0:
302,52,67487,1,2,0:0:0:0:
150,102,67695,1,0,0:0:0:0:
144,49,67799,1,8,0:0:0:0:
267,151,68007,1,2,0:0:0:0:
273,204,68112,6,0,L|378:192,1,106.666666666667,2|2,0:0|0:0,0:0:0:0:
458,182,68424,2,0,P|411:161|391:113,1,106.666666666667,8|2,0:0|0:0,0:0:0:0:
400,32,68737,1,2,0:0:0:0:
263,114,68945,1,0,0:0:0:0:
210,108,69049,1,8,0:0:0:0:
313,229,69257,1,0,0:0:0:0:
260,235,69362,6,0,L|155:247,1,106.666666666667,2|0,0:0|0:0,0:0:0:0:
97,304,69674,2,0,P|106:252|86:204,1,106.666666666667,8|0,0:0|0:0,0:0:0:0:
12,171,69987,2,0,P|26:238|86:203,1,160,2|8,0:0|0:0,0:0:0:0:
114,46,70507,1,2,0:0:0:0:
155,81,70612,6,0,L|260:69,1,106.666666666667,2|2,0:0|0:0,0:0:0:0:
325,21,70924,2,0,L|430:33,1,106.666666666667,8|2,0:0|0:0,0:0:0:0:
480,97,71237,1,2,0:0:0:0:
411,326,71549,1,8,0:0:0:0:
331,188,71757,1,0,0:0:0:0:
304,142,71862,6,0,P|231:117|170:164,1,160.000006103516,2|0,0:0|0:0,0:0:0:0:
141,238,72174,2,0,P|166:165|119:104,1,160.000006103516,8|0,0:0|0:0,0:0:0:0:
87,178,72487,5,2,0:0:0:0:
248,356,72799,2,0,L|353:340,1,106.666666666667,8|2,0:0|0:0,0:0:0:0:
433,328,73112,5,2,0:0:0:0:
332,204,73320,1,2,0:0:0:0:
324,257,73424,1,8,0:0:0:0:
458,157,73632,1,2,0:0:0:0:
450,104,73737,2,0,P|424:58|374:42,1,106.666666666667,2|0,0:0|0:0,0:0:0:0:
300,71,74049,2,0,L|195:55,1,106.666666666667,8|0,0:0|0:0,0:0:0:0:
115,43,74362,6,0,P|162:105|136:177,1,160.000006103516,2|0,0:0|0:0,0:0:0:0:
75,227,74674,2,0,P|50:300|97:361,1,160.000006103516,8|0,0:0|0:0,0:0:0:0:
129,287,74987,5,2,0:0:0:0:
353,369,75299,2,0,L|458:353,1,106.666666666667,8|2,0:0|0:0,0:0:0:0:
491,279,75612,5,2,0:0:0:0:
403,145,75820,1,2,0:0:0:0:
395,198,75924,1,8,0:0:0:0:
256,120,76132,1,0,0:0:0:0:
261,173,76237,5,8,0:0:0:0:
241,222,76341,1,8,0:0:0:0:
195,249,76445,1,8,0:0:0:0:
141,248,76549,2,0,P|166:295|157:345,1,106.666666666667,2|0,0:0|0:0,0:0:0:0:
86,307,76862,6,0,L|244:283,1,160.000006103516,2|0,0:0|0:0,0:0:0:0:
306,335,77174,2,0,L|464:311,1,160.000006103516,8|0,0:0|0:0,0:0:0:0:
508,243,77487,5,2,0:0:0:0:
374,43,77799,2,0,P|328:69|312:119,1,106.666666666667,8|2,0:0|0:0,0:0:0:0:
320,198,78112,5,2,0:0:0:0:
175,133,78320,1,0,0:0:0:0:
219,102,78424,1,8,0:0:0:0:
233,261,78632,1,2,0:0:0:0:
184,239,78737,2,0,P|132:238|93:273,1,106.666666666667,2|0,0:0|0:0,0:0:0:0:
40,334,79049,2,0,L|24:229,1,106.666666666667,8|0,0:0|0:0,0:0:0:0:
12,149,79362,6,0,P|74:196|146:170,1,160.000006103516,2|0,0:0|0:0,0:0:0:0:
196,109,79674,2,0,P|269:84|330:131,1,160.000006103516,8|0,0:0|0:0,0:0:0:0:
369,201,79987,6,0,L|474:185,1,106.666666666667,2|0,0:0|0:0,0:0:0:0:
487,106,80299,1,8,0:0:0:0:
461,264,80507,6,0,L|453:317,1,53.3333333333333,2|2,0:0|0:0,0:0:0:0:
295,341,80820,2,0,L|303:288,1,53.3333333333333,2|8,0:0|0:0,0:0:0:0:
145,313,81132,1,2,0:0:0:0:
137,366,81237,1,8,0:0:0:0:
173,129,81549,1,8,0:0:0:0:
283,287,81862,6,0,P|370:313|362:223,1,213.333333333333,2|2,0:0|0:0,0:0:0:0:
330,194,82487,2,0,B|261:189|261:189|195:226|195:226|127:222,1,213.333333333333,8|8,0:0|0:0,0:0:0:0:
83,219,83112,6,0,L|88:134,1,85.3333333333333,2|8,0:0|0:0,0:0:0:0:
119,104,83424,2,0,L|114:19,1,85.3333333333333,2|2,0:0|0:0,0:0:0:0:
157,21,83737,2,0,L|242:26,1,85.3333333333333,8|0,0:0|0:0,0:0:0:0:
272,57,84049,2,0,L|357:52,1,85.3333333333333,0|0,0:0|0:0,0:0:0:0:
400,50,84362,6,0,P|374:137|464:129,1,213.333333333333,2|2,0:0|0:0,0:0:0:0:
495,99,84987,2,0,L|482:311,1,213.333333333333,8|8,0:0|0:0,0:0:0:0:
480,355,85612,6,0,L|395:350,1,85.3333333333333,2|8,0:0|0:0,0:0:0:0:
365,319,85924,2,0,L|280:324,1,85.3333333333333,2|0,0:0|0:0,0:0:0:0:
247,352,86237,2,0,L|162:347,1,85.3333333333333,8|8,0:0|0:0,0:0:0:0:
132,316,86549,2,0,L|47:321,1,85.3333333333333,0|0,0:0|0:0,0:0:0:0:
13,348,86862,6,0,B|8:279|8:279|45:213|45:213|41:145,1,213.333333333333,2|0,0:0|0:0,0:0:0:0:
18,106,87487,2,0,P|109:151|200:98,1,213.333333333333,8|8,0:0|0:0,0:0:0:0:
208,57,88112,6,0,L|293:62,1,85.3333333333333,2|8,0:0|0:0,0:0:0:0:
323,93,88424,2,0,L|408:88,1,85.3333333333333,2|0,0:0|0:0,0:0:0:0:
441,60,88737,5,8,0:0:0:0:
432,101,88841,1,8,0:0:0:0:
446,141,88945,1,8,0:0:0:0:
470,176,89049,2,0,P|479:217|465:258,1,85.3333333333333,2|2,0:0|0:0,0:0:0:0:
398,212,89362,5,2,0:0:0:0:
160,184,89674,1,8,0:0:0:0:
395,131,89987,1,2,0:0:0:0:
191,258,90299,1,8,0:0:0:0:
254,111,90507,1,2,0:0:0:0:
297,143,90612,6,0,P|348:154|395:132,1,106.666666666667,2|0,0:0|0:0,0:0:0:0:
449,72,90924,2,0,L|461:177,1,106.666666666667,8|0,0:0|0:0,0:0:0:0:
470,258,91237,1,2,0:0:0:0:
337,58,91549,1,8,0:0:0:0:
274,290,91862,5,2,0:0:0:0:
135,94,92174,1,8,0:0:0:0:
163,333,92487,1,2,0:0:0:0:
254,111,92799,1,8,0:0:0:0:
133,215,93007,1,2,0:0:0:0:
186,210,93112,6,0,L|291:198,1,106.666666666667,2|0,0:0|0:0,0:0:0:0:
332,233,93424,2,0,L|437:221,1,106.666666666667,8|0,0:0|0:0,0:0:0:0:
510,257,93737,1,2,0:0:0:0:
272,285,94049,1,8,0:0:0:0:
366,64,94362,5,2,0:0:0:0:
394,302,94674,1,8,0:0:0:0:
403,61,94987,1,2,0:0:0:0:
357,296,95299,1,8,0:0:0:0:
252,176,95507,1,2,0:0:0:0:
209,144,95612,6,0,P|158:133|111:155,1,106.666666666667,2|0,0:0|0:0,0:0:0:0:
57,215,95924,2,0,L|45:110,1,106.666666666667,8|0,0:0|0:0,0:0:0:0:
36,29,96237,5,8,0:0:0:0:
86,48,96341,1,8,0:0:0:0:
139,42,96445,1,8,0:0:0:0:
183,12,96549,2,0,L|195:117,1,106.666666666667,2|2,0:0|0:0,0:0:0:0:
205,198,96862,6,0,B|283:202|345:164|345:164|412:125|487:129|487:129|457:183|468:242|468:242|395:221|345:164|345:164|298:107|224:86|224:86|234:148|205:198|205:198|161:239|104:236,1,933.333333333333,0|2,0:0|0:0,0:0:0:0:
77,235,104257,6,0,L|70:261,1,26.6666666666667,2|2,0:0|0:0,0:0:0:0:
