osu file format v14

[General]
AudioFilename: audio.mp3
AudioLeadIn: 0
PreviewTime: 11705
Countdown: 0
SampleSet: Soft
StackLeniency: 0.5
Mode: 0
LetterboxInBreaks: 0
WidescreenStoryboard: 0

[Editor]
Bookmarks: 96966,104362
DistanceSpacing: 1.5
BeatDivisor: 3
GridSize: 32
TimelineZoom: 1.9

[Metadata]
Title:Jin Jin Jingle Bells
TitleUnicode:ジン ジン ジングルベル
Artist:Twinkle Veil from SUPER*GiRLS
ArtistUnicode:トゥィンクルヴェール from SUPER☆GiRLS
Creator:ShogunMoon
Version:Karia's Expert
Source:
Tags:christmas xmas kencho sdafsf beomsan deppyforce akitoshi karia koiyuki Minakami Yuki yf_bmp
BeatmapID:1475508
BeatmapSetID:696602

[Difficulty]
HPDrainRate:5.7
CircleSize:4.5
OverallDifficulty:8
ApproachRate:9
SliderMultiplier:1.7
SliderTickRate:1

[Events]
//Background and Video events
0,0,"bg1.jpg",0,0
//Break Periods
//Storyboard Layer 0 (Background)
//Storyboard Layer 1 (Fail)
//Storyboard Layer 2 (Pass)
//Storyboard Layer 3 (Foreground)
//Storyboard Sound Samples

[TimingPoints]
9362,312.5,4,2,1,50,1,0
9987,-200,4,2,1,50,0,0
10507,-200,4,2,1,5,0,0
10612,-100,4,2,1,60,0,0
11862,-100,4,2,1,60,0,1
11966,-100,4,2,1,60,0,0
59362,-100,4,2,1,65,0,0
61132,-100,4,2,1,68,0,0
61445,-100,4,2,1,71,0,0
61549,-83.3333333333333,4,2,1,71,0,0
61862,-100,4,2,1,75,0,1
81862,-133.333333333333,4,2,1,60,0,0
88737,-76.9230769230769,4,2,1,60,0,0
89049,-133.333333333333,4,2,1,60,0,0
89362,-100,4,2,1,70,0,0

[Colours]
Combo1 : 254,231,139
Combo2 : 233,44,72
Combo3 : 218,157,129
SliderBorder : 100,150,80
SliderTrackOverride : 50,33,29

[HitObjects]
123,111,9987,6,0,P|131:55|101:96,1,141.666666666667,4|0,0:3|0:0,0:0:0:0:
74,183,10612,6,0,B|126:204|126:204|198:172,1,113.333333333333,2|8,0:0|0:0,0:0:0:0:
282,178,10924,2,0,B|230:157|230:157|158:189,1,113.333333333333,8|2,0:0|0:0,0:0:0:0:
208,337,11237,2,0,P|237:342|276:327,1,56.6666666666667,8|8,0:0|0:0,0:0:0:0:
331,296,11445,1,8,0:0:0:0:
362,224,11549,2,0,P|364:199|369:155,2,56.6666666666667,8|8|8,0:0|0:0|0:0,0:0:0:0:
463,102,11862,6,0,P|420:69|351:90,1,113.333333333333,4|0,0:0|0:0,0:0:0:0:
256,17,12174,2,0,P|264:75|272:140,1,113.333333333333,8|0,0:0|0:0,0:0:0:0:
184,213,12487,2,0,P|131:232|80:190,1,113.333333333333,2|0,0:0|0:0,0:0:0:0:
64,121,12799,1,8,0:0:0:0:
16,287,13007,5,2,0:0:0:0:
99,271,13112,1,2,0:0:0:0:
202,129,13320,1,2,0:0:0:0:
184,213,13424,1,8,0:0:0:0:
25,122,13632,1,2,0:0:0:0:
104,154,13737,2,0,B|124:122|124:122|114:33,1,113.333333333333,2|0,0:0|0:0,0:0:0:0:
224,0,14049,2,0,B|204:32|204:32|214:121,1,113.333333333333,8|0,0:0|0:0,0:0:0:0:
292,213,14362,6,0,P|375:245|428:181,1,170,2|8,0:0|0:0,0:0:0:0:
502,357,14882,1,2,0:0:0:0:
502,357,14987,2,0,P|446:349|377:337,1,113.333333333333,2|0,0:0|0:0,0:0:0:0:
311,369,15299,1,8,0:0:0:0:
237,204,15507,5,2,0:0:0:0:
217,286,15612,1,2,0:0:0:0:
78,384,15820,1,2,0:0:0:0:
99,302,15925,1,8,0:0:0:0:
24,149,16132,1,2,0:0:0:0:
4,231,16237,2,0,P|63:221|126:210,1,113.333333333333,2|0,0:0|0:0,0:0:0:0:
195,123,16549,2,0,P|224:179|176:242,1,113.333333333333,8|0,0:0|0:0,0:0:0:0:
134,59,16862,6,0,P|190:29|253:77,1,113.333333333333,2|0,0:0|0:0,0:0:0:0:
302,142,17174,2,0,P|354:157|401:128,1,113.333333333333,8|0,0:0|0:0,0:0:0:0:
490,47,17487,2,0,P|485:103|480:160,1,113.333333333333,2|0,0:0|0:0,0:0:0:0:
471,245,17799,1,8,0:0:0:0:
302,219,18007,5,2,0:0:0:0:
322,302,18112,1,2,0:0:0:0:
153,278,18320,1,2,0:0:0:0:
200,349,18424,1,8,0:0:0:0:
32,323,18632,1,2,0:0:0:0:
100,373,18737,2,0,P|105:324|113:250,1,113.333333333333,2|0,0:0|0:0,0:0:0:0:
38,167,19049,2,0,L|32:223|26:279,1,113.333333333333,8|0,0:0|0:0,0:0:0:0:
124,148,19362,6,0,P|194:95|272:143,1,170,2|8,0:0|0:0,0:0:0:0:
266,304,19882,1,2,0:0:0:0:
266,304,19987,2,0,P|326:293|383:286,1,113.333333333333,2|0,0:0|0:0,0:0:0:0:
462,298,20299,1,8,0:0:0:0:
330,190,20507,5,2,0:0:0:0:
401,144,20612,1,2,0:0:0:0:
232,173,20820,1,2,0:0:0:0:
256,92,20924,1,8,0:0:0:0:
137,210,21132,1,2,0:0:0:0:
103,132,21237,1,2,0:0:0:0:
77,300,21445,1,8,0:0:0:0:
0,262,21549,2,0,P|6:318|12:395,1,113.333333333333,8|0,0:0|0:0,0:0:0:0:
43,185,21862,6,0,P|98:151|157:177,1,113.333333333333,2|0,0:0|0:0,0:0:0:0:
186,52,22174,2,0,P|229:100|213:162,1,113.333333333333,8|0,0:0|0:0,0:0:0:0:
332,200,22487,2,0,P|276:167|200:233,1,170,2|8,0:0|0:0,0:0:0:0:
323,342,23007,5,2,0:0:0:0:
323,342,23112,2,0,B|358:362|358:362|451:341,1,113.333333333333,2|2,0:0|0:0,0:0:0:0:
483,281,23424,1,8,0:0:0:0:
332,200,23632,1,2,0:0:0:0:
396,257,23737,2,0,B|420:224|420:224|410:129,1,113.333333333333,2|2,0:0|0:0,0:0:0:0:
501,72,24049,2,0,P|449:36|389:65,1,113.333333333333,8|0,0:0|0:0,0:0:0:0:
249,13,24362,6,0,P|227:72|271:122,1,113.333333333333,2|0,0:0|0:0,0:0:0:0:
332,200,24674,2,0,P|274:193|212:186,1,113.333333333333,8|0,0:0|0:0,0:0:0:0:
187,302,24987,2,0,P|266:293|367:282,1,170,2|8,0:0|0:0,0:0:0:0:
130,215,25507,5,2,0:0:0:0:
130,215,25612,2,0,B|106:180|106:180|122:84,1,113.333333333333,2|2,0:0|0:0,0:0:0:0:
27,33,25924,2,0,B|62:9|62:9|158:29,1,113.333333333333,8|2,0:0|0:0,0:0:0:0:
192,83,26237,1,8,0:0:0:0:
269,118,26341,1,8,0:0:0:0:
347,85,26445,1,8,0:0:0:0:
409,27,26549,2,0,P|430:90|398:153,1,113.333333333333,8|8,0:0|0:0,0:0:0:0:
348,277,26862,6,0,P|319:231|350:166,1,113.333333333333,2|0,0:0|0:0,0:0:0:0:
441,232,27174,2,0,P|434:292|428:351,1,113.333333333333,8|0,0:0|0:0,0:0:0:0:
311,357,27487,2,0,P|252:360|213:317,1,113.333333333333,2|0,0:0|0:0,0:0:0:0:
190,243,27799,1,12,0:0:0:0:
56,348,28007,5,2,0:0:0:0:
142,335,28112,1,2,0:0:0:0:
287,246,28320,1,2,0:0:0:0:
201,233,28424,1,8,0:0:0:0:
54,145,28632,1,2,0:0:0:0:
140,132,28737,2,0,P|130:193|121:256,1,113.333333333333,2|0,0:0|0:0,0:0:0:0:
54,145,29049,2,0,P|45:88|36:33,1,113.333333333333,8|0,0:0|0:0,0:0:0:0:
140,132,29362,6,0,B|189:124|208:82|208:82|221:131|297:144,1,170,2|8,0:0|0:0,0:0:0:0:
439,93,29882,1,2,0:0:0:0:
439,93,29987,2,0,P|393:65|323:92,1,113.333333333333,2|0,0:0|0:0,0:0:0:0:
277,137,30299,1,8,0:0:0:0:
121,48,30507,5,2,0:0:0:0:
140,132,30612,1,2,0:0:0:0:
284,223,30820,1,2,0:0:0:0:
201,197,30924,1,8,0:0:0:0:
51,280,31132,1,2,0:0:0:0:
115,221,31237,2,0,B|137:250|137:250|127:349,1,113.333333333333,2|0,0:0|0:0,0:0:0:0:
237,375,31549,2,0,B|215:346|215:346|225:247,1,113.333333333333,8|0,0:0|0:0,0:0:0:0:
140,132,31862,6,0,P|188:100|254:133,1,113.333333333333,2|0,0:0|0:0,0:0:0:0:
316,24,32174,2,0,P|338:74|315:123,1,113.333333333333,8|0,0:0|0:0,0:0:0:0:
226,204,32487,2,0,P|300:195|365:189,1,113.333333333333,2|0,0:0|0:0,0:0:0:0:
424,183,32799,1,8,0:0:0:0:
496,350,33007,5,2,0:0:0:0:
412,341,33112,1,2,0:0:0:0:
255,276,33320,1,2,0:0:0:0:
339,267,33424,1,8,0:0:0:0:
191,353,33632,1,2,0:0:0:0:
107,344,33737,2,0,P|77:302|105:238,1,113.333333333333,2|0,0:0|0:0,0:0:0:0:
185,170,34049,2,0,P|175:230|167:285,1,113.333333333333,8|0,0:0|0:0,0:0:0:0:
73,175,34362,6,0,P|65:93|54:6,1,170,2|8,0:0|0:0,0:0:0:0:
217,92,34882,1,2,0:0:0:0:
217,92,34987,2,0,P|259:53|332:76,1,113.333333333333,2|0,0:0|0:0,0:0:0:0:
377,111,35299,1,8,0:0:0:0:
474,265,35507,5,2,0:0:0:0:
490,180,35612,1,2,0:0:0:0:
376,307,35820,1,2,0:0:0:0:
392,222,35924,1,8,0:0:0:0:
278,349,36132,1,2,0:0:0:0:
294,264,36237,2,0,P|248:233|175:274,1,113.333333333333,2|8,0:0|0:0,0:0:0:0:
313,167,36549,1,8,0:0:0:0:
52,324,36862,6,0,P|22:279|35:226,1,113.333333333333,2|0,0:0|0:0,0:0:0:0:
110,131,37174,2,0,P|116:187|124:258,1,113.333333333333,8|0,0:0|0:0,0:0:0:0:
202,335,37487,2,0,P|261:285|360:346,1,170,2|8,0:0|0:0,0:0:0:0:
507,242,38007,5,2,0:0:0:0:
507,242,38112,2,0,P|464:277|399:245,1,113.333333333333,2|2,0:0|0:0,0:0:0:0:
347,210,38424,1,8,0:0:0:0:
463,86,38632,1,2,0:0:0:0:
402,147,38737,2,0,P|393:85|386:28,1,113.333333333333,2|0,0:0|0:0,0:0:0:0:
314,127,39049,2,0,P|258:146|200:97,1,113.333333333333,8|0,0:0|0:0,0:0:0:0:
139,28,39362,6,0,P|86:12|40:43,1,113.333333333333,2|0,0:0|0:0,0:0:0:0:
0,155,39674,2,0,P|55:146|112:139,1,113.333333333333,8|0,0:0|0:0,0:0:0:0:
208,210,39987,2,0,P|251:280|188:356,1,170,2|8,0:0|0:0,0:0:0:0:
386,378,40507,5,2,0:0:0:0:
386,378,40612,2,0,P|363:325|393:268,1,113.333333333333,2|0,0:0|0:0,0:0:0:0:
490,213,40924,2,0,B|462:186|462:186|361:200,1,113.333333333333,8|2,0:0|0:0,0:0:0:0:
314,237,41237,1,8,0:0:0:0:
230,224,41341,1,8,0:0:0:0:
145,212,41445,1,8,0:0:0:0:
60,200,41549,2,0,P|34:153|64:87,1,113.333333333333,2|0,0:0|0:0,0:0:0:0:
168,9,41862,6,0,P|162:70|149:202,1,170,2|8,0:0|0:0,0:0:0:0:
373,53,42487,2,0,P|322:25|260:48,1,113.333333333333,2|0,0:0|0:0,0:0:0:0:
271,38,42799,1,8,0:0:0:0:
366,179,43007,5,2,0:0:0:0:
366,179,43112,2,0,P|430:172|490:167,1,113.333333333333,2|2,0:0|0:0,0:0:0:0:
507,247,43424,2,0,P|450:251|394:258,1,113.333333333333,8|2,0:0|0:0,0:0:0:0:
323,306,43737,2,0,P|266:255|172:302,1,170,2|8,0:0|0:0,0:0:0:0:
63,55,44362,6,0,P|97:100|67:167,1,113.333333333333,2|0,0:0|0:0,0:0:0:0:
15,201,44674,2,0,L|5:137,2,56.6666666666667,8|0|0,0:0|0:0|0:0,0:0:0:0:
78,260,44987,2,0,P|141:246|201:241,1,113.333333333333,2|0,0:0|0:0,0:0:0:0:
233,169,45299,2,0,P|296:177|355:193,1,113.333333333333,8|2,0:0|0:0,0:0:0:0:
399,255,45612,5,2,0:0:0:0:
487,111,45820,1,2,0:0:0:0:
422,165,45924,2,0,B|401:138|401:138|409:50,1,113.333333333333,8|0,0:0|0:0,0:0:0:0:
422,165,46237,2,0,B|443:192|443:192|435:280,1,113.333333333333,8|0,0:0|0:0,0:0:0:0:
488,359,46549,2,0,P|426:348|365:337,1,113.333333333333,8|0,0:0|0:0,0:0:0:0:
310,225,46862,6,0,P|260:276|167:240,1,170,2|8,0:0|0:0,0:0:0:0:
3,60,47487,2,0,P|13:127|20:171,1,113.333333333333,2|0,0:0|0:0,0:0:0:0:
20,171,47799,1,8,0:0:0:0:
149,63,48007,5,2,0:0:0:0:
149,63,48112,2,0,P|139:118|131:174,1,113.333333333333,2|0,0:0|0:0,0:0:0:0:
72,237,48424,2,0,P|81:292|93:347,1,113.333333333333,8|2,0:0|0:0,0:0:0:0:
177,362,48737,2,0,P|229:309|188:212,1,170,0|8,0:0|0:0,0:0:0:0:
444,339,49362,6,0,P|381:346|316:355,1,113.333333333333,2|0,0:0|0:0,0:0:0:0:
303,274,49674,2,0,P|366:267|431:258,1,113.333333333333,8|0,0:0|0:0,0:0:0:0:
303,274,49987,2,0,P|276:233|292:171,1,113.333333333333,8|0,0:0|0:0,0:0:0:0:
356,120,50299,1,8,0:0:0:0:
194,175,50507,5,2,0:0:0:0:
242,105,50612,2,0,B|212:82|212:82|130:98,1,113.333333333333,2|2,0:0|0:0,0:0:0:0:
45,180,50924,2,0,P|19:143|48:65,1,113.333333333333,8|2,0:0|0:0,0:0:0:0:
122,182,51237,2,0,P|113:241|105:296,1,113.333333333333,8|0,0:0|0:0,0:0:0:0:
23,380,51549,2,0,P|91:371|161:364,1,113.333333333333,8|0,0:0|0:0,0:0:0:0:
317,332,51862,6,0,P|266:280|158:343,1,170,2|8,0:0|0:0,0:0:0:0:
395,162,52487,2,0,P|387:226|381:285,1,113.333333333333,2|0,0:0|0:0,0:0:0:0:
381,274,52799,1,8,0:0:0:0:
250,167,53007,5,6,0:0:0:0:
250,167,53112,2,0,P|199:147|138:172,1,113.333333333333,2|2,0:0|0:0,0:0:0:0:
90,230,53424,2,0,P|61:183|75:118,1,113.333333333333,8|2,0:0|0:0,0:0:0:0:
146,89,53737,2,0,B|182:120|182:120|172:271,1,170,2|8,0:0|0:0,0:0:0:0:
395,115,54362,6,0,P|352:84|271:120,1,113.333333333333,2|0,0:0|0:0,0:0:0:0:
276,176,54674,2,0,P|319:207|400:171,1,113.333333333333,8|0,0:0|0:0,0:0:0:0:
456,170,54987,2,0,P|462:227|469:292,1,113.333333333333,2|0,0:0|0:0,0:0:0:0:
504,358,55299,2,0,P|447:352|380:346,1,113.333333333333,8|2,0:0|0:0,0:0:0:0:
305,352,55612,1,0,0:0:0:0:
276,176,55820,5,0,0:0:0:0:
343,229,55924,2,0,P|362:171|335:117,1,113.333333333333,8|2,0:0|0:0,0:0:0:0:
343,229,56237,2,0,L|400:222|457:215,1,113.333333333333,8|0,0:0|0:0,0:0:0:0:
382,302,56549,2,0,L|439:295|496:288,1,113.333333333333,8|0,0:0|0:0,0:0:0:0:
474,130,56862,6,0,P|413:137|289:154,1,170,2|8,0:0|0:0,0:0:0:0:
70,243,57487,2,0,L|198:258,1,113.333333333333,2|0,0:0|0:0,0:0:0:0:
182,256,57799,1,8,0:0:0:0:
52,147,58007,5,2,0:0:0:0:
52,147,58112,2,0,P|25:104|50:47,1,113.333333333333,2|2,0:0|0:0,0:0:0:0:
123,11,58424,2,0,P|181:17|247:24,1,113.333333333333,8|2,0:0|0:0,0:0:0:0:
290,89,58737,2,0,B|258:126|258:126|130:113,1,170,2|8,0:0|0:0,0:0:0:0:
379,22,59362,6,0,P|385:83|392:166,1,113.333333333333,2|0,0:0|0:0,0:0:0:0:
479,111,59674,2,0,P|469:171|458:254,1,113.333333333333,8|0,0:0|0:0,0:0:0:0:
385,271,59987,1,2,0:0:0:0:
290,89,60195,1,8,0:0:0:0:
334,168,60299,2,0,P|285:180|217:144,1,113.333333333333,8|0,0:0|0:0,0:0:0:0:
203,69,60612,1,2,0:0:0:0:
18,267,60820,5,2,0:0:0:0:
3,179,60924,1,8,0:0:0:0:
88,263,61132,5,2,0:0:0:0:
70,156,61237,1,8,0:0:0:0:
157,257,61445,5,2,0:0:0:0:
136,133,61549,2,0,B|185:144|185:144|216:128|216:128|287:140,1,135.99999584961,8|0,0:0|0:0,0:0:0:0:
357,57,61862,6,0,P|343:122|330:184,1,113.333333333333,2|0,0:0|0:0,0:0:0:0:
277,310,62174,2,0,P|247:268|276:195,1,113.333333333333,8|0,0:0|0:0,0:0:0:0:
433,240,62487,2,0,P|377:245|313:251,1,113.333333333333,2|0,0:0|0:0,0:0:0:0:
259,210,62799,1,8,0:0:0:0:
85,319,63007,5,2,0:0:0:0:
62,229,63112,1,2,0:0:0:0:
247,289,63320,1,2,0:0:0:0:
157,266,63424,1,8,0:0:0:0:
253,102,63632,1,2,0:0:0:0:
230,192,63737,2,0,P|289:183|365:175,1,113.333333333333,2|0,0:0|0:0,0:0:0:0:
448,81,64049,2,0,P|389:90|313:98,1,113.333333333333,8|0,0:0|0:0,0:0:0:0:
417,259,64362,6,0,P|441:217|420:160,1,113.333333333333,2|0,0:0|0:0,0:0:0:0:
321,269,64674,2,0,P|329:325|336:381,1,113.333333333333,8|0,0:0|0:0,0:0:0:0:
358,197,64987,2,0,P|301:150|210:200,1,170,2|8,0:0|0:0,0:0:0:0:
68,321,65507,5,2,0:0:0:0:
49,233,65612,1,2,0:0:0:0:
155,100,65820,1,2,0:0:0:0:
136,188,65924,1,8,0:0:0:0:
281,281,66132,1,2,0:0:0:0:
192,266,66237,2,0,B|165:288|165:288|176:368,1,113.333333333333,2|0,0:0|0:0,0:0:0:0:
281,281,66549,2,0,B|308:259|308:259|297:179,1,113.333333333333,8|0,0:0|0:0,0:0:0:0:
405,34,66862,6,0,P|396:95|386:155,1,113.333333333333,2|0,0:0|0:0,0:0:0:0:
318,49,67174,2,0,P|275:18|209:39,1,113.333333333333,8|0,0:0|0:0,0:0:0:0:
129,126,67487,2,0,P|193:116|248:109,1,113.333333333333,2|0,0:0|0:0,0:0:0:0:
311,162,67799,1,8,0:0:0:0:
110,214,68007,5,2,0:0:0:0:
129,126,68112,1,2,0:0:0:0:
29,288,68320,1,2,0:0:0:0:
10,200,68424,1,8,0:0:0:0:
184,282,68632,1,2,0:0:0:0:
203,194,68737,2,0,P|150:202|89:213,1,113.333333333333,2|0,0:0|0:0,0:0:0:0:
184,282,69049,2,0,P|236:273|298:263,1,113.333333333333,8|0,0:0|0:0,0:0:0:0:
411,171,69362,6,0,P|402:231|394:301,1,113.333333333333,2|0,0:0|0:0,0:0:0:0:
311,162,69674,2,0,P|289:98|306:56,1,113.333333333333,8|0,0:0|0:0,0:0:0:0:
479,143,69987,2,0,P|406:150|298:163,1,170,2|8,0:0|0:0,0:0:0:0:
140,26,70507,5,2,0:0:0:0:
230,44,70612,1,2,0:0:0:0:
73,134,70820,1,2,0:0:0:0:
162,112,70924,1,8,0:0:0:0:
57,260,71132,1,2,0:0:0:0:
129,202,71237,1,2,0:0:0:0:
95,380,71445,1,2,0:0:0:0:
136,297,71549,2,0,B|149:272|149:272|45:285,1,113.333333333333,8|0,0:0|0:0,0:0:0:0:
220,357,71862,6,0,B|236:335|236:335|221:237,1,113.333333333333,2|0,0:0|0:0,0:0:0:0:
173,95,72174,2,0,P|142:154|180:207,1,113.333333333333,8|0,0:0|0:0,0:0:0:0:
359,183,72487,2,0,B|312:169|299:124|299:124|281:165|218:172,1,170,2|8,0:0|0:0,0:0:0:0:
18,47,73007,5,2,0:0:0:0:
18,47,73112,2,0,P|65:11|117:35,1,113.333333333333,2|2,0:0|0:0,0:0:0:0:
173,95,73424,1,8,0:0:0:0:
367,37,73632,1,2,0:0:0:0:
311,109,73737,2,0,B|286:79|286:79|297:-2,1,113.333333333333,2|0,0:0|0:0,0:0:0:0:
401,123,74049,2,0,B|426:153|426:153|415:234,1,113.333333333333,8|0,0:0|0:0,0:0:0:0:
295,330,74362,6,0,P|355:323|413:317,1,113.333333333333,2|0,0:0|0:0,0:0:0:0:
269,251,74674,2,0,P|209:244|151:238,1,113.333333333333,8|0,0:0|0:0,0:0:0:0:
58,369,74987,2,0,P|8:317|56:230,1,170,2|8,0:0|0:0,0:0:0:0:
107,71,75507,5,2,0:0:0:0:
107,71,75612,2,0,P|128:128|99:176,1,113.333333333333,2|2,0:0|0:0,0:0:0:0:
43,36,75924,2,0,P|111:23|172:13,1,113.333333333333,8|0,0:0|0:0,0:0:0:0:
226,74,76237,1,8,0:0:0:0:
299,20,76341,1,8,0:0:0:0:
373,71,76445,1,8,0:0:0:0:
457,36,76549,2,0,P|448:100|439:158,1,113.333333333333,2|0,0:0|0:0,0:0:0:0:
339,256,76862,6,0,P|330:192|321:134,1,113.333333333333,2|0,0:0|0:0,0:0:0:0:
405,313,77174,2,0,P|362:344|285:320,1,113.333333333333,8|0,0:0|0:0,0:0:0:0:
109,277,77487,2,0,B|144:270|161:251|161:251|193:267|193:267|238:249|282:288,1,170,2|8,0:0|0:0,0:0:0:0:
457,134,78007,5,2,0:0:0:0:
457,134,78112,2,0,P|479:83|455:34,1,113.333333333333,2|0,0:0|0:0,0:0:0:0:
369,8,78424,1,8,0:0:0:0:
260,177,78632,1,2,0:0:0:0:
332,121,78737,2,0,B|307:95|307:95|215:107,1,113.333333333333,2|0,0:0|0:0,0:0:0:0:
133,207,79049,2,0,P|105:165|134:101,1,113.333333333333,8|0,0:0|0:0,0:0:0:0:
207,244,79362,6,0,P|198:308|190:371,1,113.333333333333,2|0,0:0|0:0,0:0:0:0:
28,304,79674,2,0,P|94:274|125:293,1,113.333333333333,8|0,0:0|0:0,0:0:0:0:
301,264,79987,2,0,P|247:278|202:228,1,113.333333333333,2|0,0:0|0:0,0:0:0:0:
192,153,80299,1,8,0:0:0:0:
430,227,80507,5,2,0:0:0:0:
430,227,80612,2,0,P|437:170|443:110,1,113.333333333333,2|2,0:0|0:0,0:0:0:0:
342,16,80924,2,0,P|349:73|355:133,1,113.333333333333,8|2,0:0|0:0,0:0:0:0:
454,27,81237,5,8,0:0:0:0:
465,32,81549,1,8,0:0:0:0:
476,37,81862,1,2,0:0:0:0:
487,143,82382,5,2,0:0:0:0:
487,143,82487,2,0,P|441:110|355:151,1,127.500004863739,8|0,0:0|0:0,0:0:0:0:
316,187,83007,1,8,0:0:0:0:
316,187,83112,1,2,0:0:0:0:
240,146,83320,1,8,0:0:0:0:
240,146,83424,1,2,0:0:0:0:
166,187,83632,1,2,0:0:0:0:
166,187,83737,2,0,P|132:138|160:77,1,127.500004863739,8|0,0:0|0:0,0:0:0:0:
238,20,84257,6,0,L|232:57,1,21.2500008106232
232,59,84362,1,2,0:0:0:0:
133,18,84882,5,2,0:0:0:0:
133,18,84987,2,0,P|141:78|152:158,1,127.500004863739,8|0,0:0|0:0,0:0:0:0:
212,206,85507,1,8,0:0:0:0:
212,206,85612,1,2,0:0:0:0:
155,266,85820,1,8,0:0:0:0:
155,266,85924,1,2,0:0:0:0:
196,340,86132,5,2,0:0:0:0:
196,340,86237,2,0,L|248:336,1,42.5000016212464,8|0,0:0|0:0,0:0:0:0:
307,333,86445,2,0,L|255:337,1,42.5000016212464,8|0,0:0|0:0,0:0:0:0:
418,324,86862,6,0,P|446:270|421:210,1,127.500004863739,2|0,0:0|0:0,0:0:0:0:
350,60,87487,2,0,P|345:126|336:200,1,127.500004863739,8|0,0:0|0:0,0:0:0:0:
271,237,88007,1,8,0:0:0:0:
271,237,88112,1,2,0:0:0:0:
206,184,88320,1,8,0:0:0:0:
206,184,88424,2,0,P|169:168|110:190,1,85.0000032424928,2|0,0:0|0:0,0:0:0:0:
51,220,88737,6,0,B|37:186|37:186|52:133,2,73.6666632944744,8|8|8,0:0|0:0|0:0,0:0:0:0:
139,261,89049,6,0,L|133:312,2,42.5000016212464,2|2|2,0:0|0:0|0:0,0:0:0:0:
206,184,89362,6,0,P|248:157|321:171,1,113.333333333333,2|0,0:0|0:0,0:0:0:0:
388,219,89674,2,0,B|409:191|409:191|397:104,1,113.333333333333,8|0,0:0|0:0,0:0:0:0:
448,30,89987,2,0,B|475:51|475:51|486:138,1,113.333333333333,2|0,0:0|0:0,0:0:0:0:
495,214,90299,1,8,0:0:0:0:
358,348,90507,5,2,0:0:0:0:
358,348,90612,2,0,P|313:316|249:338,1,113.333333333333,2|0,0:0|0:0,0:0:0:0:
182,272,90924,2,0,P|137:304|73:282,1,113.333333333333,8|0,0:0|0:0,0:0:0:0:
18,363,91237,2,0,P|9:278|1:192,1,170,2|8,0:0|0:0,0:0:0:0:
89,32,91862,6,0,P|65:83|99:143,1,113.333333333333,2|0,0:0|0:0,0:0:0:0:
159,196,92174,2,8,P|236:180|285:174,1,113.333333333333,8|0,0:0|0:0,0:0:0:0:
334,102,92487,2,8,P|257:86|208:80,1,113.333333333333,2|0,0:0|0:0,0:0:0:0:
137,83,92799,1,8,0:0:0:0:
319,16,93007,5,2,0:0:0:0:
319,16,93112,2,0,L|445:6,1,113.333333333333,2|0,0:0|0:0,0:0:0:0:
491,83,93424,2,0,P|510:135|491:187,1,113.333333333333,8|0,0:0|0:0,0:0:0:0:
424,257,93737,2,0,P|414:183|400:76,1,170,2|8,0:0|0:0,0:0:0:0:
242,211,94362,6,0,P|251:151|260:80,1,113.333333333333,2|0,0:0|0:0,0:0:0:0:
187,34,94674,2,0,P|178:94|169:165,1,113.333333333333,8|0,0:0|0:0,0:0:0:0:
108,219,94987,2,0,P|64:194|2:214,1,113.333333333333,2|0,0:0|0:0,0:0:0:0:
51,282,95299,1,8,0:0:0:0:
242,212,95507,5,2,0:0:0:0:
242,212,95612,2,0,P|216:264|247:322,1,113.333333333333,2|0,0:0|0:0,0:0:0:0:
311,370,95924,2,0,P|372:364|432:360,1,113.333333333333,8|0,0:0|0:0,0:0:0:0:
496,296,96237,2,0,B|504:270|504:270|493:232,1,56.6666666666667,8|8,0:0|0:0,0:0:0:0:
431,187,96445,1,8,0:0:0:0:
365,240,96549,2,0,L|373:302,2,56.6666666666667,2|2|2,0:0|0:0|0:0,0:0:0:0:
350,128,96862,5,0,0:0:0:0:
256,192,96966,12,2,104362,0:0:0:0:
