osu file format v14

[General]
AudioFilename: audio.mp3
AudioLeadIn: 0
PreviewTime: 11705
Countdown: 0
SampleSet: Soft
StackLeniency: 0.7
Mode: 0
LetterboxInBreaks: 0
WidescreenStoryboard: 0

[Editor]
DistanceSpacing: 1.2
BeatDivisor: 3
GridSize: 4
TimelineZoom: 1.9

[Metadata]
Title:Jin Jin Jingle Bells
TitleUnicode:ジン ジン ジングルベル
Artist:Twinkle Veil from SUPER*GiRLS
ArtistUnicode:トゥィンクルヴェール from SUPER☆GiRLS
Creator:ShogunMoon
Version:Hard
Source:
Tags:christmas xmas kencho sdafsf beomsan deppyforce akitoshi karia koiyuki Minakami Yuki yf_bmp
BeatmapID:1475507
BeatmapSetID:696602

[Difficulty]
HPDrainRate:5
CircleSize:3.7
OverallDifficulty:6
ApproachRate:8
SliderMultiplier:1.4
SliderTickRate:1

[Events]
//Background and Video events
0,0,"bg.png",0,0
//Break Periods
//Storyboard Layer 0 (Background)
//Storyboard Layer 1 (Fail)
//Storyboard Layer 2 (Pass)
//Storyboard Layer 3 (Foreground)
//Storyboard Sound Samples

[TimingPoints]
9362,312.5,4,2,1,70,1,0
11862,-100,4,2,1,70,0,1
11966,-100,4,2,1,70,0,0
41862,-125,4,2,1,70,0,0
59362,-111.111111111111,4,2,1,70,0,0
60612,-100,4,2,1,70,0,0
61862,-90.9090909090909,4,2,1,70,0,1
81862,-142.857142857143,4,2,1,70,0,0
89362,-100,4,2,1,70,0,0
104362,-100,4,2,1,20,0,0

[Colours]
Combo1 : 254,231,139
Combo2 : 233,44,72
Combo3 : 218,157,129
SliderBorder : 100,150,80
SliderTrackOverride : 50,33,29

[HitObjects]
40,43,9987,5,4,0:3:0:0:
40,43,10612,6,0,P|47:83|62:143,1,93.3333333333333,2|8,0:0|0:0,0:0:0:0:
88,181,10924,2,0,L|133:172,3,46.6666666666667,8|0|2|8,0:0|0:0|0:0|0:0,0:0:0:0:
183,146,11341,2,0,L|232:155,3,46.6666666666667,8|8|8|8,0:0|0:0|0:0|0:0,0:0:0:0:
282,170,11757,1,8,0:0:0:0:
282,170,11862,6,0,P|306:214|300:261,1,93.3333333333333,4|0,0:0|0:0,0:0:0:0:
286,309,12174,2,0,P|343:304|383:335,1,93.3333333333333,8|0,0:0|0:0,0:0:0:0:
428,326,12487,2,0,L|449:220,1,93.3333333333333,2|0,0:0|0:0,0:0:0:0:
476,187,12799,1,8,0:0:0:0:
459,81,13007,1,0,0:0:0:0:
459,81,13112,6,0,P|411:104|385:133,1,93.3333333333333,2|2,0:0|0:0,0:0:0:0:
334,158,13424,2,0,P|286:135|259:98,1,93.3333333333333,8|2,0:0|0:0,0:0:0:0:
220,67,13736,2,0,P|215:104|188:157,1,93.3333333333333,2|0,0:0|0:0,0:0:0:0:
141,180,14049,2,0,P|145:219|172:266,1,93.3333333333333,8|0,0:0|0:0,0:0:0:0:
177,321,14362,6,0,P|126:321|81:336,1,93.3333333333333,2|0,0:0|0:0,0:0:0:0:
33,317,14674,2,0,L|39:221,1,93.3333333333333,8|2,0:0|0:0,0:0:0:0:
43,167,14987,2,0,P|67:113|144:80,1,140,2|8,0:0|0:0,0:0:0:0:
246,106,15507,1,2,0:0:0:0:
246,106,15612,6,0,B|297:117|295:88|353:106,1,93.3333333333333,2|2,0:0|0:0,0:0:0:0:
389,123,15924,2,0,L|399:229,1,93.3333333333333,8|2,0:0|0:0,0:0:0:0:
423,265,16237,1,2,0:0:0:0:
392,343,16393,1,0,0:0:0:0:
392,343,16471,1,0,0:0:0:0:
392,343,16549,2,0,P|354:335|303:330,1,70,8|0,0:0|0:0,0:0:0:0:
230,298,16862,6,0,P|234:254|245:202,1,93.3333333333333,2|0,0:0|0:0,0:0:0:0:
272,157,17174,2,0,P|227:172|169:169,1,93.3333333333333,8|0,0:0|0:0,0:0:0:0:
132,143,17487,2,0,P|97:113|53:96,1,93.3333333333333,2|0,0:0|0:0,0:0:0:0:
6,126,17799,1,8,0:0:0:0:
44,237,18007,1,0,0:0:0:0:
44,237,18112,6,0,P|94:238|139:271,1,93.3333333333333,2|2,0:0|0:0,0:0:0:0:
161,306,18424,2,0,L|260:298,1,93.3333333333333,8|2,0:0|0:0,0:0:0:0:
309,290,18737,2,0,L|403:299,1,93.3333333333333,2|0,0:0|0:0,0:0:0:0:
457,297,19049,2,0,P|466:252|446:196,1,93.3333333333333,8|0,0:0|0:0,0:0:0:0:
411,169,19362,6,0,L|313:178,1,93.3333333333333,2|0,0:0|0:0,0:0:0:0:
270,206,19674,2,0,L|165:197,1,93.3333333333333,8|2,0:0|0:0,0:0:0:0:
127,170,19987,2,0,P|86:115|12:101,1,140,2|8,0:0|0:0,0:0:0:0:
30,211,20507,1,2,0:0:0:0:
30,211,20612,6,0,L|39:321,1,93.3333333333333,2|2,0:0|0:0,0:0:0:0:
70,349,20924,2,0,P|122:335|171:343,1,93.3333333333333,8|2,0:0|0:0,0:0:0:0:
216,349,21237,1,2,0:0:0:0:
320,309,21445,1,8,0:0:0:0:
320,309,21549,2,0,P|371:297|431:316,1,93.3333333333333,8|0,0:0|0:0,0:0:0:0:
414,248,21862,6,0,B|398:79,1,140,2|8,0:0|0:0,0:0:0:0:
257,17,22487,2,0,L|246:176,1,140,2|8,0:0|0:0,0:0:0:0:
170,238,23007,1,2,0:0:0:0:
170,238,23112,2,0,P|118:227|76:232,1,93.3333333333333,2|2,0:0|0:0,0:0:0:0:
29,258,23424,1,8,0:0:0:0:
90,356,23632,1,2,0:0:0:0:
90,356,23737,2,0,L|196:350,1,93.3333333333333,2|2,0:0|0:0,0:0:0:0:
235,371,24049,1,8,0:0:0:0:
376,280,24362,6,0,L|261:269,1,93.3333333333333,2|0,0:0|0:0,0:0:0:0:
229,253,24674,1,8,0:0:0:0:
242,85,24987,2,0,P|287:41|383:50,1,140,2|8,0:0|0:0,0:0:0:0:
440,117,25507,2,0,L|426:271,1,140,2|2,0:0|0:0,0:0:0:0:
379,285,25924,2,0,P|333:267|286:274,1,93.3333333333333,8|2,0:0|0:0,0:0:0:0:
244,305,26237,2,0,L|188:296,3,46.6666666666667,8|8|8|8,0:0|0:0|0:0|0:0,0:0:0:0:
103,237,26757,1,8,0:0:0:0:
103,237,26862,6,0,P|99:191|84:132,1,93.3333333333333,2|0,0:0|0:0,0:0:0:0:
57,98,27174,2,0,P|106:108|159:89,1,93.3333333333333,8|0,0:0|0:0,0:0:0:0:
195,68,27487,2,0,L|302:75,1,93.3333333333333,2|0,0:0|0:0,0:0:0:0:
343,82,27799,1,12,0:0:0:0:
431,149,28007,1,0,0:0:0:0:
431,149,28112,6,0,P|446:191|449:249,1,93.3333333333333,2|2,0:0|0:0,0:0:0:0:
433,293,28424,2,0,L|326:283,1,93.3333333333333,8|2,0:0|0:0,0:0:0:0:
290,310,28737,2,0,L|192:318,1,93.3333333333333,2|0,0:0|0:0,0:0:0:0:
150,349,29049,2,0,L|52:341,1,93.3333333333333,8|0,0:0|0:0,0:0:0:0:
16,302,29362,6,0,P|9:261|29:205,1,93.3333333333333,2|0,0:0|0:0,0:0:0:0:
68,178,29674,2,0,L|163:172,1,93.3333333333333,8|2,0:0|0:0,0:0:0:0:
217,168,29987,2,0,P|226:103|286:54,1,140,2|8,0:0|0:0,0:0:0:0:
390,74,30507,1,2,0:0:0:0:
390,74,30612,6,0,P|402:115|413:186,1,93.3333333333333,2|2,0:0|0:0,0:0:0:0:
418,220,30924,2,0,P|371:204|308:224,1,93.3333333333333,8|2,0:0|0:0,0:0:0:0:
286,249,31237,1,2,0:0:0:0:
249,324,31393,1,0,0:0:0:0:
249,324,31471,1,0,0:0:0:0:
249,324,31549,2,0,P|210:321|172:326,1,70,8|0,0:0|0:0,0:0:0:0:
83,344,31862,6,0,P|47:322|-3:302,1,93.3333333333333,2|0,0:0|0:0,0:0:0:0:
6,247,32174,2,0,P|16:196|34:149,1,93.3333333333333,8|0,0:0|0:0,0:0:0:0:
82,136,32487,2,0,L|177:144,1,93.3333333333333,2|0,0:0|0:0,0:0:0:0:
230,137,32799,1,8,0:0:0:0:
327,191,33007,1,0,0:0:0:0:
327,191,33112,6,0,P|355:244|373:310,1,93.3333333333333,2|2,0:0|0:0,0:0:0:0:
395,323,33424,2,0,P|408:278|433:230,1,93.3333333333333,8|2,0:0|0:0,0:0:0:0:
483,224,33737,2,0,P|472:176|452:129,1,93.3333333333333,2|0,0:0|0:0,0:0:0:0:
430,85,34049,2,0,P|387:97|334:81,1,93.3333333333333,8|0,0:0|0:0,0:0:0:0:
293,55,34362,6,0,P|248:44|202:57,1,93.3333333333333,2|0,0:0|0:0,0:0:0:0:
158,89,34674,2,0,P|106:98|56:88,1,93.3333333333333,8|2,0:0|0:0,0:0:0:0:
18,62,34987,2,0,L|25:227,1,140,2|8,0:0|0:0,0:0:0:0:
45,311,35507,1,2,0:0:0:0:
45,311,35612,6,0,P|98:302|143:323,1,93.3333333333333,2|2,0:0|0:0,0:0:0:0:
175,353,35924,2,0,P|219:363|273:349,1,93.3333333333333,8|2,0:0|0:0,0:0:0:0:
316,330,36237,1,2,0:0:0:0:
416,280,36445,1,8,0:0:0:0:
416,280,36549,2,0,L|407:166,1,93.3333333333333,8|0,0:0|0:0,0:0:0:0:
397,131,36862,6,0,P|344:87|258:110,1,140,2|8,0:0|0:0,0:0:0:0:
116,145,37487,2,0,B|88:218|137:216|99:304,1,140,2|8,0:0|0:0,0:0:0:0:
201,341,38007,1,2,0:0:0:0:
201,341,38112,2,0,L|303:334,1,93.3333333333333,2|2,0:0|0:0,0:0:0:0:
347,349,38424,1,8,0:0:0:0:
370,239,38632,1,2,0:0:0:0:
370,239,38737,2,0,L|259:230,1,93.3333333333333,2|0,0:0|0:0,0:0:0:0:
235,193,39049,1,8,0:0:0:0:
71,151,39362,6,0,P|67:101|92:48,1,93.3333333333333,6|0,0:0|0:0,0:0:0:0:
128,29,39674,1,8,0:0:0:0:
287,81,39987,2,0,P|351:94|428:46,1,140,2|8,0:0|0:0,0:0:0:0:
484,149,40507,2,0,L|470:303,1,140,2|0,0:0|0:0,0:0:0:0:
436,332,40924,2,0,P|390:314|343:321,1,93.3333333333333,8|2,0:0|0:0,0:0:0:0:
298,347,41237,2,0,L|242:338,3,46.6666666666667,8|8|8|2,0:0|0:0|0:0|0:0,0:0:0:0:
135,272,41862,6,0,P|115:228|47:207,1,112,2|8,0:0|0:0,0:0:0:0:
12,91,42487,2,0,P|63:102|122:71,1,112,2|8,0:0|0:0,0:0:0:0:
187,37,43007,2,0,L|311:46,1,112,2|2,0:0|0:0,0:0:0:0:
339,51,43424,1,8,0:0:0:0:
411,151,43737,1,2,0:0:0:0:
367,266,44049,1,8,0:0:0:0:
266,337,44362,6,0,L|181:325,1,74.6666666666667,2|0,0:0|0:0,0:0:0:0:
153,340,44674,1,8,0:0:0:0:
84,294,44882,1,0,0:0:0:0:
84,294,44987,2,0,P|71:248|86:177,1,112,2|8,0:0|0:0,0:0:0:0:
147,136,45507,2,0,L|281:125,1,112,2|2,0:0|0:0,0:0:0:0:
282,93,45924,1,8,0:0:0:0:
396,46,46237,1,8,0:0:0:0:
501,109,46549,1,8,0:0:0:0:
458,224,46862,6,0,P|446:275|439:347,1,112,2|8,0:0|0:0,0:0:0:0:
318,356,47487,2,0,L|208:332,1,112,2|8,0:0|0:0,0:0:0:0:
152,273,48007,2,0,P|205:285|268:267,1,112,2|0,0:0|0:0,0:0:0:0:
297,254,48424,2,0,L|288:165,1,74.6666666666667,8|2,0:0|0:0,0:0:0:0:
325,159,48737,2,0,L|336:41,1,112,0|8,0:0|0:0,0:0:0:0:
214,22,49362,6,0,P|170:50|93:53,1,112,2|8,0:0|0:0,0:0:0:0:
48,109,49882,1,0,0:0:0:0:
48,109,49987,2,0,L|56:231,1,112,8|8,0:0|0:0,0:0:0:0:
71,301,50507,1,2,0:0:0:0:
71,301,50612,2,0,P|109:289|164:289,1,74.6666666666667,2|2,0:0|0:0,0:0:0:0:
173,314,50924,2,0,P|208:319|264:308,1,74.6666666666667,8|2,0:0|0:0,0:0:0:0:
282,293,51237,2,0,P|322:285|370:298,1,74.6666666666667,8|0,0:0|0:0,0:0:0:0:
387,316,51549,1,8,0:0:0:0:
486,242,51862,6,0,P|492:188|515:113,1,112,2|8,0:0|0:0,0:0:0:0:
402,67,52487,2,0,P|346:81|277:62,1,112,2|8,0:0|0:0,0:0:0:0:
218,38,53007,2,0,L|212:166,1,112,6|2,0:0|0:0,0:0:0:0:
211,191,53424,1,8,0:0:0:0:
88,206,53737,1,2,0:0:0:0:
84,328,54049,1,8,0:0:0:0:
203,360,54362,6,0,L|281:351,1,74.6666666666667,2|0,0:0|0:0,0:0:0:0:
315,365,54674,1,8,0:0:0:0:
382,318,54882,1,0,0:0:0:0:
382,318,54987,2,0,P|393:263|377:202,1,112,2|8,0:0|0:0,0:0:0:0:
320,153,55507,2,0,L|204:141,1,112,2|0,0:0|0:0,0:0:0:0:
169,154,55924,1,8,0:0:0:0:
159,31,56237,1,8,0:0:0:0:
281,19,56549,1,8,0:0:0:0:
382,89,56862,6,0,P|437:107|500:85,1,112,2|8,0:0|0:0,0:0:0:0:
505,215,57487,2,0,P|489:262|476:341,1,112,2|8,0:0|0:0,0:0:0:0:
395,325,58007,2,0,L|280:334,1,112,2|2,0:0|0:0,0:0:0:0:
256,365,58424,2,0,L|167:358,1,74.6666666666667,8|2,0:0|0:0,0:0:0:0:
150,331,58737,2,0,P|145:277|124:217,1,112,2|8,0:0|0:0,0:0:0:0:
109,84,59362,6,0,P|148:74|212:78,1,83.9999974365235,2|0,0:0|0:0,0:0:0:0:
236,83,59674,1,8,0:0:0:0:
356,151,59987,2,0,L|349:245,1,83.9999974365235,2|8,0:0|0:0,0:0:0:0:
334,278,60299,1,8,0:0:0:0:
184,315,60612,6,0,L|177:206,1,93.3333333333333,2|2,0:0|0:0,0:0:0:0:
195,168,60924,1,8,0:0:0:0:
162,68,61132,1,2,0:0:0:0:
162,68,61237,2,0,P|116:52|64:65,1,93.3333333333333,8|2,0:0|0:0,0:0:0:0:
22,81,61549,2,0,L|28:188,1,93.3333333333333,8|0,0:0|0:0,0:0:0:0:
54,230,61862,6,0,L|43:355,1,102.666669799805,6|0,0:0|0:0,0:0:0:0:
91,372,62174,2,0,P|141:353|204:357,1,102.666669799805,8|0,0:0|0:0,0:0:0:0:
249,368,62487,2,0,P|299:372|357:352,1,102.666669799805,2|0,0:0|0:0,0:0:0:0:
404,330,62799,1,8,0:0:0:0:
468,225,63007,1,0,0:0:0:0:
468,225,63112,6,0,P|461:176|423:121,1,102.666669799805,2|2,0:0|0:0,0:0:0:0:
405,76,63424,2,0,L|289:68,1,102.666669799805,8|2,0:0|0:0,0:0:0:0:
250,103,63737,2,0,P|238:155|230:222,1,102.666669799805,2|0,0:0|0:0,0:0:0:0:
184,243,64049,2,0,P|197:297|207:370,1,102.666669799805,8|0,0:0|0:0,0:0:0:0:
149,372,64362,6,0,P|91:360|31:369,1,102.666669799805,2|0,0:0|0:0,0:0:0:0:
8,317,64674,2,0,P|16:268|40:198,1,102.666669799805,8|0,0:0|0:0,0:0:0:0:
81,179,64987,2,0,B|78:127|78:127|100:83|100:83|96:15,1,154.000004699707,2|8,0:0|0:0,0:0:0:0:
219,37,65507,1,2,0:0:0:0:
219,37,65612,6,0,L|213:147,1,102.666669799805,2|2,0:0|0:0,0:0:0:0:
240,194,65924,2,0,P|289:181|344:198,1,102.666669799805,8|2,0:0|0:0,0:0:0:0:
391,225,66237,1,2,0:0:0:0:
369,314,66393,1,0,0:0:0:0:
369,314,66471,1,0,0:0:0:0:
369,314,66549,2,0,P|328:320|281:313,1,77.0000023498536,8|0,0:0|0:0,0:0:0:0:
193,274,66862,6,0,P|145:263|87:277,1,102.666669799805,2|0,0:0|0:0,0:0:0:0:
45,312,67174,2,0,P|53:266|41:213,1,102.666669799805,8|0,0:0|0:0,0:0:0:0:
21,152,67487,2,0,P|68:128|133:133,1,102.666669799805,2|0,0:0|0:0,0:0:0:0:
176,144,67799,1,8,0:0:0:0:
300,119,68007,1,0,0:0:0:0:
300,119,68112,6,0,P|349:131|409:115,1,102.666669799805,2|2,0:0|0:0,0:0:0:0:
460,111,68424,2,0,L|451:233,1,102.666669799805,8|2,0:0|0:0,0:0:0:0:
426,269,68737,2,0,L|433:382,1,102.666669799805,2|0,0:0|0:0,0:0:0:0:
370,372,69049,2,0,P|323:355|260:359,1,102.666669799805,8|0,0:0|0:0,0:0:0:0:
209,363,69362,6,0,P|200:315|221:259,1,102.666669799805,2|0,0:0|0:0,0:0:0:0:
263,225,69674,2,0,L|254:121,1,102.666669799805,8|0,0:0|0:0,0:0:0:0:
277,65,69987,2,0,P|341:23|418:52,1,154.000004699707,2|8,0:0|0:0,0:0:0:0:
499,129,70507,1,2,0:0:0:0:
499,129,70612,6,0,L|491:235,1,102.666669799805,2|2,0:0|0:0,0:0:0:0:
465,287,70924,2,0,P|414:273|361:290,1,102.666669799805,8|2,0:0|0:0,0:0:0:0:
312,316,71237,1,2,0:0:0:0:
129,287,71549,2,0,L|119:169,1,102.666669799805,8|8,0:0|0:0,0:0:0:0:
121,122,71862,6,0,P|195:96|266:157,1,154.000004699707,2|8,0:0|0:0,0:0:0:0:
416,222,72487,2,0,L|435:37,1,154.000004699707,2|8,0:0|0:0,0:0:0:0:
314,31,73007,1,2,0:0:0:0:
314,31,73112,2,0,P|257:27|201:55,1,102.666669799805,2|2,0:0|0:0,0:0:0:0:
175,90,73424,1,8,0:0:0:0:
85,174,73632,1,2,0:0:0:0:
85,174,73737,2,0,L|94:298,1,102.666669799805,2|0,0:0|0:0,0:0:0:0:
123,329,74049,1,8,0:0:0:0:
305,358,74362,6,0,L|313:256,1,102.666669799805,2|0,0:0|0:0,0:0:0:0:
286,200,74674,1,8,0:0:0:0:
404,57,74987,2,0,P|478:72|513:142,1,154.000004699707,2|8,0:0|0:0,0:0:0:0:
463,253,75507,1,2,0:0:0:0:
463,253,75612,2,0,B|382:281|394:227|305:258,1,154.000004699707,2|8,0:0|0:0,0:0:0:0:
208,321,76132,1,0,0:0:0:0:
208,321,76237,2,0,L|117:309,3,51.3333348999024,8|8|8|2,0:0|0:0|0:0|0:0,0:0:0:0:
30,179,76862,6,0,P|33:108|114:62,1,154.000004699707,2|8,0:0|0:0,0:0:0:0:
279,90,77487,2,0,P|301:157|315:246,1,154.000004699707,2|8,0:0|0:0,0:0:0:0:
265,352,78007,1,2,0:0:0:0:
265,352,78112,2,0,P|314:341|376:359,1,102.666669799805,2|0,0:0|0:0,0:0:0:0:
422,371,78424,1,8,0:0:0:0:
493,270,78632,1,2,0:0:0:0:
493,270,78737,2,0,L|485:139,1,102.666669799805,2|0,0:0|0:0,0:0:0:0:
511,111,79049,1,8,0:0:0:0:
335,53,79362,6,0,P|282:37|213:54,1,102.666669799805,2|0,0:0|0:0,0:0:0:0:
182,73,79674,1,8,0:0:0:0:
240,248,79987,1,2,0:0:0:0:
354,202,80195,2,0,P|301:251|315:359,1,154.000004699707,0|2,0:0|0:0,0:0:0:0:
252,372,80612,2,0,P|207:356|145:369,1,102.666669799805,2|2,0:0|0:0,0:0:0:0:
93,375,80924,1,8,0:0:0:0:
24,272,81132,1,2,0:0:0:0:
24,272,81237,2,0,L|38:106,1,154.000004699707,8|8,0:0|0:0,0:0:0:0:
142,46,81862,6,0,B|244:20|233:77|341:50,1,195.999994018555,2|8,0:0|0:0,0:0:0:0:
461,39,82799,1,0,0:0:0:0:
508,121,83007,1,8,0:0:0:0:
508,121,83112,2,0,L|500:234,1,97.9999970092775,2|2,0:0|0:0,0:0:0:0:
402,300,83737,2,0,L|396:197,1,97.9999970092775,8|0,0:0|0:0,0:0:0:0:
282,145,84362,6,0,P|225:152|192:194,1,97.9999970092775,2|0,0:0|0:0,0:0:0:0:
161,301,84987,1,8,0:0:0:0:
34,285,85299,1,0,0:0:0:0:
10,203,85507,1,8,0:0:0:0:
10,203,85612,2,0,P|59:204|111:253,1,97.9999970092775,2|2,0:0|0:0,0:0:0:0:
184,324,86237,2,0,L|262:318,1,65.3333313395183,8|8,0:0|0:0,0:0:0:0:
288,315,86549,1,0,0:0:0:0:
347,202,86862,6,0,L|231:193,1,97.9999970092775,2|0,0:0|0:0,0:0:0:0:
140,127,87487,1,8,0:0:0:0:
215,24,87799,1,0,0:0:0:0:
286,69,88007,1,8,0:0:0:0:
286,69,88112,6,0,P|319:73|357:68,1,65.3333313395183,2|8,0:0|0:0,0:0:0:0:
391,59,88424,2,0,L|402:148,1,65.3333313395183,2|0,0:0|0:0,0:0:0:0:
412,164,88737,2,0,L|457:167,3,32.6666656697591,8|8|8|2,0:0|0:0|0:0|0:0,0:0:0:0:
373,318,89362,5,2,0:0:0:0:
211,362,89674,1,8,0:0:0:0:
88,246,89987,2,0,L|231:231,1,140,2|8,0:0|0:0,0:0:0:0:
307,153,90507,1,2,0:0:0:0:
307,153,90612,2,0,P|321:87|283:13,1,140,2|8,0:0|0:0,0:0:0:0:
124,24,91237,2,0,P|95:86|108:155,1,140,2|8,0:0|0:0,0:0:0:0:
172,310,91862,5,2,0:0:0:0:
303,206,92174,1,8,0:0:0:0:
402,341,92487,2,0,B|324:326|334:363|254:352,1,140,2|8,0:0|0:0,0:0:0:0:
172,310,93007,1,2,0:0:0:0:
172,310,93112,2,0,P|157:249|125:172,1,140,2|8,0:0|0:0,0:0:0:0:
272,90,93737,2,0,P|245:154|227:222,1,140,2|8,0:0|0:0,0:0:0:0:
380,293,94362,5,2,0:0:0:0:
465,148,94674,1,8,0:0:0:0:
335,40,94987,2,0,L|190:31,1,140,2|8,0:0|0:0,0:0:0:0:
174,141,95507,1,2,0:0:0:0:
174,141,95612,2,0,L|314:150,1,140,2|8,0:0|0:0,0:0:0:0:
457,238,96237,2,0,P|451:265|447:308,3,46.6666666666667,8|8|8|2,0:0|0:0|0:0|0:0,0:0:0:0:
297,357,96862,5,0,0:0:0:0:
256,192,96966,12,2,104362,0:0:0:0:
