osu file format v14

[General]
AudioFilename: audio.mp3
AudioLeadIn: 0
PreviewTime: 11705
Countdown: 0
SampleSet: Soft
StackLeniency: 0.7
Mode: 0
LetterboxInBreaks: 0
WidescreenStoryboard: 1

[Editor]
Bookmarks: 41862,61862,81862
DistanceSpacing: 1
BeatDivisor: 3
GridSize: 8
TimelineZoom: 1.9

[Metadata]
Title:Jin Jin Jingle Bells
TitleUnicode:ジン ジン ジングルベル
Artist:Twinkle Veil from SUPER*GiRLS
ArtistUnicode:トゥィンクルヴェール from SUPER☆GiRLS
Creator:ShogunMoon
Version:Beom's Insane
Source:
Tags:christmas xmas kencho sdafsf beomsan deppyforce akitoshi karia koiyuki Minakami Yuki yf_bmp
BeatmapID:1475505
BeatmapSetID:696602

[Difficulty]
HPDrainRate:6
CircleSize:4
OverallDifficulty:7
ApproachRate:9
SliderMultiplier:1.6
SliderTickRate:1

[Events]
//Background and Video events
0,0,"bg1.jpg",0,0
//Break Periods
//Storyboard Layer 0 (Background)
//Storyboard Layer 1 (Fail)
//Storyboard Layer 2 (Pass)
//Storyboard Layer 3 (Foreground)
//Storyboard Sound Samples

[TimingPoints]
9362,312.5,4,2,1,70,1,0
41862,-111.111111111111,4,2,1,70,0,0
60612,-100,4,2,1,70,0,0
61237,-83.3333333333333,4,2,1,70,0,0
61862,-100,4,2,1,70,0,1
74987,-76.9230769230769,4,2,1,70,0,1
75299,-100,4,2,1,70,0,1
81862,-200,4,2,1,70,0,0
89362,-83.3333333333333,4,2,1,70,0,0

[Colours]
Combo1 : 254,231,139
Combo2 : 233,44,72
Combo3 : 218,157,129
SliderBorder : 100,150,80
SliderTrackOverride : 50,33,29

[HitObjects]
356,132,11862,6,0,P|299:138|266:175,1,106.666666666667,2|0,0:0|0:0,0:0:0:0:
226,354,12174,2,0,P|249:301|233:254,1,106.666666666667,8|0,0:0|0:0,0:0:0:0:
186,190,12487,5,2,0:0:0:0:
30,138,12695,1,2,0:0:0:0:
85,77,12799,2,0,L|191:107,1,106.666666666667,8|0,0:0|0:0,0:0:0:0:
157,265,13112,6,0,P|116:231|109:177,1,106.666666666667,2|0,0:0|0:0,0:0:0:0:
259,161,13424,2,0,P|262:217|232:257,1,106.666666666667,8|0,0:0|0:0,0:0:0:0:
204,325,13737,5,2,0:0:0:0:
368,347,13945,1,2,0:0:0:0:
327,275,14049,2,0,L|436:258,1,106.666666666667,8|0,0:0|0:0,0:0:0:0:
475,187,14362,6,0,P|498:147|486:81,1,106.666666666667,2|0,0:0|0:0,0:0:0:0:
426,38,14674,1,8,0:0:0:0:
272,96,14882,1,0,0:0:0:0:
347,130,14987,5,2,0:0:0:0:
195,146,15195,1,2,0:0:0:0:
187,64,15300,5,8,0:0:0:0:
277,193,15507,1,0,0:0:0:0:
209,240,15612,6,0,L|99:227,1,106.666666666667,2|2,0:0|0:0,0:0:0:0:
85,307,15924,2,0,L|195:320,1,106.666666666667,8|2,0:0|0:0,0:0:0:0:
263,358,16237,6,0,P|314:364|359:333,1,106.666666666667,2|2,0:0|0:0,0:0:0:0:
435,308,16549,2,0,P|384:296|352:251,1,106.666666666667,8|2,0:0|0:0,0:0:0:0:
271,110,16862,6,0,P|321:121|353:166,1,106.666666666667,2|0,0:0|0:0,0:0:0:0:
202,155,17174,2,0,P|187:105|209:55,1,106.666666666667,8|0,0:0|0:0,0:0:0:0:
275,193,17487,5,2,0:0:0:0:
111,183,17695,1,2,0:0:0:0:
113,264,17799,2,0,L|1:258,1,106.666666666667,8|0,0:0|0:0,0:0:0:0:
202,155,18112,6,0,P|187:105|209:55,1,106.666666666667,2|0,0:0|0:0,0:0:0:0:
275,193,18424,2,0,P|239:230|185:236,1,106.666666666667,8|0,0:0|0:0,0:0:0:0:
177,318,18737,5,2,0:0:0:0:
337,351,18945,1,2,0:0:0:0:
316,271,19049,2,0,L|428:277,1,106.666666666667,8|0,0:0|0:0,0:0:0:0:
466,206,19362,6,0,P|430:170|423:114,1,106.666666666667,2|0,0:0|0:0,0:0:0:0:
465,46,19674,1,8,0:0:0:0:
309,97,19882,1,0,0:0:0:0:
226,86,19987,5,2,0:0:0:0:
72,28,20195,1,2,0:0:0:0:
104,106,20300,5,8,0:0:0:0:
129,267,20507,1,0,0:0:0:0:
181,201,20612,6,0,P|130:183|69:207,1,106.666666666667,2|2,0:0|0:0,0:0:0:0:
78,335,20924,2,0,P|129:353|190:329,1,106.666666666667,8|2,0:0|0:0,0:0:0:0:
229,273,21237,6,0,L|338:275,1,106.666666666667,2|2,0:0|0:0,0:0:0:0:
407,313,21549,1,8,0:0:0:0:
348,159,21757,1,2,0:0:0:0:
425,186,21862,6,0,P|424:131|392:90,1,106.666666666667,2|0,0:0|0:0,0:0:0:0:
206,83,22174,2,0,L|313:85,1,106.666666666667,8|0,0:0|0:0,0:0:0:0:
359,16,22487,1,2,0:0:0:0:
193,198,22799,1,8,0:0:0:0:
31,170,23007,1,2,0:0:0:0:
102,127,23112,6,0,L|122:247,1,106.666666666667,2|2,0:0|0:0,0:0:0:0:
282,267,23424,2,0,L|262:147,1,106.666666666667,8|2,0:0|0:0,0:0:0:0:
193,198,23737,1,2,0:0:0:0:
219,359,23945,1,2,0:0:0:0:
300,349,24049,2,0,B|425:358|424:358,1,106.666666666667,8|0,0:0|0:0,0:0:0:0:
467,301,24362,6,0,P|483:253|466:198,1,106.666666666667,2|0,0:0|0:0,0:0:0:0:
320,84,24674,2,0,P|353:121|409:134,1,106.666666666667,8|0,0:0|0:0,0:0:0:0:
487,120,24987,1,2,0:0:0:0:
369,233,25195,1,2,0:0:0:0:
292,203,25299,2,0,B|167:194|168:194,1,106.666666666667,8|2,0:0|0:0,0:0:0:0:
300,287,25612,6,0,B|175:278|176:278,1,106.666666666667,2|2,0:0|0:0,0:0:0:0:
286,119,25924,2,0,B|161:110|162:110,1,106.666666666667,8|2,0:0|0:0,0:0:0:0:
111,157,26237,2,0,P|83:163|59:170,2,53.3333333333333,8|8|8,0:0|0:0|0:0,0:0:0:0:
111,157,26549,2,0,P|98:111|123:53,1,106.666666666667,8|8,0:0|0:0,0:0:0:0:
185,195,26862,6,0,B|167:194|292:203,1,106.666666666667,2|0,0:0|0:0,0:0:0:0:
463,264,27174,2,0,B|481:265|356:256,1,106.666666666667,8|0,0:0|0:0,0:0:0:0:
365,173,27487,1,2,0:0:0:0:
251,54,27695,1,2,0:0:0:0:
325,89,27799,2,0,B|306:87|431:96,1,106.666666666667,8|0,0:0|0:0,0:0:0:0:
287,202,28112,6,0,B|305:203|180:194,1,106.666666666667,2|0,0:0|0:0,0:0:0:0:
9,133,28424,2,0,B|-9:131|115:140,1,106.666666666667,8|0,0:0|0:0,0:0:0:0:
107,224,28737,1,2,0:0:0:0:
221,343,28945,1,2,0:0:0:0:
147,308,29049,2,0,B|165:309|40:300,1,106.666666666667,8|0,0:0|0:0,0:0:0:0:
185,194,29362,6,0,P|197:143|239:108,1,106.666666666667,2|0,0:0|0:0,0:0:0:0:
255,29,29674,1,8,0:0:0:0:
401,117,29882,1,0,0:0:0:0:
478,89,29987,5,2,0:0:0:0:
388,226,30195,1,2,0:0:0:0:
374,306,30300,5,8,0:0:0:0:
298,161,30507,1,2,0:0:0:0:
236,108,30612,6,0,B|254:107|129:116,1,106.666666666667,2|2,0:0|0:0,0:0:0:0:
121,198,30924,2,0,B|103:199|228:190,1,106.666666666667,8|2,0:0|0:0,0:0:0:0:
51,245,31237,6,0,P|39:195|60:144,1,106.666666666667,2|2,0:0|0:0,0:0:0:0:
124,278,31549,2,0,P|136:328|115:379,1,106.666666666667,8|2,0:0|0:0,0:0:0:0:
121,198,31862,6,0,B|103:199|228:190,1,106.666666666667,2|0,0:0|0:0,0:0:0:0:
393,129,32174,2,0,B|411:128|286:137,1,106.666666666667,8|0,0:0|0:0,0:0:0:0:
301,218,32487,1,2,0:0:0:0:
185,334,32695,1,2,0:0:0:0:
260,302,32799,2,0,B|241:304|366:295,1,106.666666666667,8|0,0:0|0:0,0:0:0:0:
393,129,33112,6,0,B|411:128|286:137,1,106.666666666667,2|0,0:0|0:0,0:0:0:0:
121,198,33424,2,0,B|103:199|228:190,1,106.666666666667,8|0,0:0|0:0,0:0:0:0:
213,109,33737,1,2,0:0:0:0:
364,46,33945,1,2,0:0:0:0:
284,24,34049,2,0,B|303:22|178:31,1,106.666666666667,8|0,0:0|0:0,0:0:0:0:
102,8,34362,6,0,P|97:64|62:101,1,106.666666666667,2|0,0:0|0:0,0:0:0:0:
38,177,34674,1,8,0:0:0:0:
165,272,34882,1,0,0:0:0:0:
193,349,34987,5,2,0:0:0:0:
210,186,35195,1,2,0:0:0:0:
263,124,35300,5,8,0:0:0:0:
112,188,35507,1,2,0:0:0:0:
38,177,35612,6,0,L|29:64,1,106.666666666667,2|2,0:0|0:0,0:0:0:0:
103,81,35924,2,0,L|112:194,1,106.666666666667,8|2,0:0|0:0,0:0:0:0:
63,255,36237,5,8,0:0:0:0:
245,284,36445,1,2,0:0:0:0:
193,349,36549,1,8,0:0:0:0:
193,349,36862,6,0,P|166:303|176:241,1,106.666666666667,2|0,0:0|0:0,0:0:0:0:
319,252,37174,2,0,P|323:304|296:349,1,106.666666666667,8|0,0:0|0:0,0:0:0:0:
244,191,37487,1,2,0:0:0:0:
479,120,37799,1,8,0:0:0:0:
344,25,38007,1,2,0:0:0:0:
365,104,38112,6,0,L|256:94,1,106.666666666667,2|2,0:0|0:0,0:0:0:0:
73,38,38424,2,0,L|182:48,1,106.666666666667,8|2,0:0|0:0,0:0:0:0:
185,130,38737,1,2,0:0:0:0:
54,229,38945,1,2,0:0:0:0:
123,272,39049,2,0,P|133:216|109:171,1,106.666666666667,8|0,0:0|0:0,0:0:0:0:
53,314,39362,6,0,P|96:350|147:352,1,106.666666666667,2|0,0:0|0:0,0:0:0:0:
282,235,39674,2,0,P|232:251|203:295,1,106.666666666667,8|0,0:0|0:0,0:0:0:0:
226,374,39987,1,2,0:0:0:0:
389,378,40195,5,2,0:0:0:0:
362,300,40299,2,0,L|369:193,1,106.666666666667,8|2,0:0|0:0,0:0:0:0:
441,314,40612,6,0,L|448:207,1,106.666666666667,2|2,0:0|0:0,0:0:0:0:
283,292,40924,2,0,L|290:185,1,106.666666666667,8|2,0:0|0:0,0:0:0:0:
336,116,41237,6,0,L|392:112,2,53.3333333333333,8|8|8,0:0|0:0|0:0,0:0:0:0:
336,116,41549,2,0,P|285:102|235:122,1,106.666666666667,8|2,0:0|0:0,0:0:0:0:
171,70,41862,6,0,L|65:84,1,95.9999970703126,2|0,0:0|0:0,0:0:0:0:
69,160,42174,2,0,L|175:146,1,95.9999970703126,8|0,0:0|0:0,0:0:0:0:
224,199,42487,2,0,P|240:244|231:296,1,95.9999970703126,2|0,0:0|0:0,0:0:0:0:
177,346,42799,1,8,0:0:0:0:
351,353,43007,1,2,0:0:0:0:
351,353,43112,6,0,L|249:368,1,95.9999970703126,2|2,0:0|0:0,0:0:0:0:
233,290,43424,2,0,L|335:275,1,95.9999970703126,8|2,0:0|0:0,0:0:0:0:
405,288,43737,2,0,P|408:237|440:197,1,95.9999970703126,2|2,0:0|0:0,0:0:0:0:
509,222,44049,1,8,0:0:0:0:
359,60,44362,6,0,P|313:43|268:55,1,95.9999970703126,2|0,0:0|0:0,0:0:0:0:
202,97,44674,2,0,P|156:108|111:91,1,95.9999970703126,8|0,0:0|0:0,0:0:0:0:
64,27,44987,2,0,L|77:178,1,143.999995605469,2|8,0:0|0:0,0:0:0:0:
13,314,45507,6,0,P|63:273|143:288,1,143.999995605469,2|2,0:0|0:0,0:0:0:0:
197,335,45924,2,0,P|240:341|288:319,1,95.9999970703126,8|2,0:0|0:0,0:0:0:0:
457,369,46237,2,0,P|414:348|367:354,1,95.9999970703126,8|2,0:0|0:0,0:0:0:0:
352,276,46549,2,0,L|367:166,1,95.9999970703126,8|2,0:0|0:0,0:0:0:0:
313,120,46862,6,0,P|289:94|225:87,1,95.9999970703126,2|0,0:0|0:0,0:0:0:0:
153,70,47174,2,0,L|165:165,1,95.9999970703126,8|0,0:0|0:0,0:0:0:0:
136,238,47487,2,0,P|112:264|48:271,1,95.9999970703126,2|0,0:0|0:0,0:0:0:0:
72,196,47799,1,8,0:0:0:0:
189,307,48007,1,2,0:0:0:0:
189,307,48112,6,0,P|236:310|270:341,1,95.9999970703126,2|2,0:0|0:0,0:0:0:0:
349,347,48424,2,0,L|456:334,1,95.9999970703126,8|2,0:0|0:0,0:0:0:0:
439,256,48737,2,0,L|332:269,1,95.9999970703126,2|2,0:0|0:0,0:0:0:0:
296,205,49049,1,8,0:0:0:0:
489,68,49362,6,0,P|443:85|398:73,1,95.9999970703126,2|0,0:0|0:0,0:0:0:0:
332,31,49674,2,0,P|286:19|241:36,1,95.9999970703126,8|0,0:0|0:0,0:0:0:0:
194,100,49987,2,0,B|128:74|117:117|52:96,1,143.999995605469,2|8,0:0|0:0,0:0:0:0:
156,214,50507,1,2,0:0:0:0:
79,192,50612,6,0,L|66:289,1,95.9999970703126,2|2,0:0|0:0,0:0:0:0:
36,359,50924,2,0,P|77:337|131:342,1,95.9999970703126,8|2,0:0|0:0,0:0:0:0:
193,379,51237,1,8,0:0:0:0:
320,286,51445,1,2,0:0:0:0:
282,355,51549,2,0,P|253:328|247:261,1,95.9999970703126,8|2,0:0|0:0,0:0:0:0:
374,62,51862,6,0,L|480:72,1,95.9999970703126,2|0,0:0|0:0,0:0:0:0:
478,147,52174,2,0,L|371:136,1,95.9999970703126,8|0,0:0|0:0,0:0:0:0:
324,192,52487,2,0,P|309:237|320:289,1,95.9999970703126,2|0,0:0|0:0,0:0:0:0:
377,337,52799,1,12,0:0:0:0:
203,350,53007,1,2,0:0:0:0:
203,350,53112,6,0,L|305:361,1,95.9999970703126,2|2,0:0|0:0,0:0:0:0:
319,283,53425,2,0,L|216:271,1,95.9999970703126,8|2,0:0|0:0,0:0:0:0:
146,287,53737,2,0,P|141:236|107:197,1,95.9999970703126,2|2,0:0|0:0,0:0:0:0:
38,181,54049,1,8,0:0:0:0:
247,71,54362,6,0,B|321:92|299:128|373:149,1,143.999995605469,2|8,0:0|0:0,0:0:0:0:
481,40,54882,1,2,0:0:0:0:
444,110,54987,2,0,L|445:260,1,143.999995605469,2|8,0:0|0:0,0:0:0:0:
314,341,55507,1,2,0:0:0:0:
373,288,55612,6,0,P|333:262|287:265,1,95.9999970703126,2|2,0:0|0:0,0:0:0:0:
237,326,55924,2,0,P|189:329|150:303,1,95.9999970703126,8|2,0:0|0:0,0:0:0:0:
70,298,56237,2,0,L|84:189,1,95.9999970703126,8|2,0:0|0:0,0:0:0:0:
148,34,56549,2,0,L|134:143,1,95.9999970703126,8|2,0:0|0:0,0:0:0:0:
56,124,56862,6,0,L|70:15,1,95.9999970703126,2|0,0:0|0:0,0:0:0:0:
162,208,57174,2,0,L|148:317,1,95.9999970703126,8|0,0:0|0:0,0:0:0:0:
213,351,57487,2,0,P|245:319|295:312,1,95.9999970703126,2|0,0:0|0:0,0:0:0:0:
351,259,57799,1,8,0:0:0:0:
480,347,58007,1,2,0:0:0:0:
480,347,58112,6,0,L|462:213,1,95.9999970703126,2|2,0:0|0:0,0:0:0:0:
424,185,58424,2,0,L|442:51,1,95.9999970703126,8|2,0:0|0:0,0:0:0:0:
368,49,58737,2,0,P|321:55|287:88,1,95.9999970703126,2|2,0:0|0:0,0:0:0:0:
223,41,59049,1,8,0:0:0:0:
119,253,59362,5,2,0:0:0:0:
349,204,59674,1,8,0:0:0:0:
216,119,59882,1,2,0:0:0:0:
301,269,59987,5,2,0:0:0:0:
334,283,60091,1,2,0:0:0:0:
370,282,60195,1,2,0:0:0:0:
402,266,60299,2,0,P|392:320|390:372,1,95.9999970703126,8|2,0:0|0:0,0:0:0:0:
431,179,60612,6,0,P|400:133|341:115,1,106.666666666667,8|0,0:0|0:0,0:0:0:0:
333,35,60924,2,0,P|282:49|219:60,1,106.666666666667,8|0,0:0|0:0,0:0:0:0:
60,100,61237,6,0,B|133:97|112:140|186:137,1,127.99999609375,8|2,0:0|0:0,0:0:0:0:
253,266,61549,2,0,P|254:202|271:141,1,127.99999609375,8|0,0:0|0:0,0:0:0:0:
317,321,61862,6,0,P|270:351|213:342,1,106.666666666667,2|0,0:0|0:0,0:0:0:0:
399,348,62174,2,0,P|451:344|494:373,1,106.666666666667,12|0,0:0|0:0,0:0:0:0:
382,263,62487,1,2,0:0:0:0:
449,119,62695,1,2,0:0:0:0:
372,149,62799,2,0,L|351:42,1,106.666666666667,8|0,0:0|0:0,0:0:0:0:
276,79,63112,6,0,P|223:75|180:104,1,106.666666666667,2|0,0:0|0:0,0:0:0:0:
3,52,63424,2,0,P|46:81|98:77,1,106.666666666667,8|0,0:0|0:0,0:0:0:0:
116,162,63737,1,2,0:0:0:0:
43,303,63945,1,2,0:0:0:0:
114,261,64049,2,0,L|224:254,1,106.666666666667,8|0,0:0|0:0,0:0:0:0:
381,305,64362,6,0,P|332:288|303:232,1,106.666666666667,2|0,0:0|0:0,0:0:0:0:
333,116,64674,1,8,0:0:0:0:
240,340,64882,1,0,0:0:0:0:
220,254,64987,5,2,0:0:0:0:
94,147,65195,1,0,0:0:0:0:
178,172,65300,5,8,0:0:0:0:
333,116,65507,1,2,0:0:0:0:
269,176,65612,6,0,P|248:136|256:76,1,106.666666666667,2|2,0:0|0:0,0:0:0:0:
397,56,65924,2,0,P|418:96|410:156,1,106.666666666667,8|2,0:0|0:0,0:0:0:0:
485,226,66237,6,0,P|432:239|379:258,1,106.666666666667,2|2,0:0|0:0,0:0:0:0:
357,334,66549,1,8,0:0:0:0:
205,272,66757,1,2,0:0:0:0:
153,207,66862,6,0,P|123:254|132:311,1,106.666666666667,2|0,0:0|0:0,0:0:0:0:
126,125,67174,2,0,P|130:73|101:30,1,106.666666666667,8|0,0:0|0:0,0:0:0:0:
211,142,67487,1,2,0:0:0:0:
355,75,67695,1,2,0:0:0:0:
325,152,67799,2,0,L|432:173,1,106.666666666667,8|0,0:0|0:0,0:0:0:0:
235,46,68112,6,0,P|239:99|210:142,1,106.666666666667,2|0,0:0|0:0,0:0:0:0:
262,319,68424,2,0,P|233:276|237:224,1,106.666666666667,8|0,0:0|0:0,0:0:0:0:
152,206,68737,1,2,0:0:0:0:
311,253,68945,1,2,0:0:0:0:
343,328,69049,2,0,L|450:349,1,106.666666666667,8|0,0:0|0:0,0:0:0:0:
262,319,69362,6,0,P|214:314|164:341,1,106.666666666667,2|0,0:0|0:0,0:0:0:0:
58,274,69674,1,8,0:0:0:0:
132,127,69882,1,0,0:0:0:0:
152,206,69987,5,2,0:0:0:0:
256,80,70195,1,0,0:0:0:0:
255,161,70300,5,8,0:0:0:0:
380,127,70507,1,2,0:0:0:0:
360,206,70612,6,0,L|467:227,1,106.666666666667,2|2,0:0|0:0,0:0:0:0:
465,308,70924,2,0,L|358:287,1,106.666666666667,8|2,0:0|0:0,0:0:0:0:
251,360,71237,1,8,0:0:0:0:
108,109,71549,5,8,0:0:0:0:
13,267,71757,1,8,0:0:0:0:
89,227,71862,6,0,P|53:188|-5:181,1,106.666666666667,2|0,0:0|0:0,0:0:0:0:
84,314,72174,2,0,P|135:302|170:255,1,106.666666666667,8|0,0:0|0:0,0:0:0:0:
251,360,72487,1,2,0:0:0:0:
345,122,72799,2,0,L|365:251,1,106.666666666667,8|2,0:0|0:0,0:0:0:0:
408,359,73112,6,0,P|374:318|323:307,1,106.666666666667,2|2,0:0|0:0,0:0:0:0:
84,314,73424,2,0,P|135:302|170:255,1,106.666666666667,8|2,0:0|0:0,0:0:0:0:
244,221,73737,1,2,0:0:0:0:
158,48,73945,1,2,0:0:0:0:
139,131,74049,2,0,L|251:135,1,106.666666666667,8|0,0:0|0:0,0:0:0:0:
310,277,74362,6,0,P|328:227|316:176,1,106.666666666667,2|0,0:0|0:0,0:0:0:0:
159,231,74674,2,0,P|180:279|225:306,1,106.666666666667,8|0,0:0|0:0,0:0:0:0:
446,120,74987,6,0,B|400:130|358:107|358:107|380:121|391:147,1,138.666660319011,2|2,0:0|0:0,0:0:0:0:
445,206,75299,1,8,0:0:0:0:
414,38,75507,1,2,0:0:0:0:
414,38,75612,6,0,P|366:17|312:29,1,106.666666666667,2|0,0:0|0:0,0:0:0:0:
241,72,75924,2,0,P|193:93|139:81,1,106.666666666667,8|0,0:0|0:0,0:0:0:0:
48,19,76237,1,8,0:0:0:0:
51,72,76341,1,8,0:0:0:0:
54,125,76445,1,8,0:0:0:0:
57,178,76549,2,0,P|35:226|16:281,1,106.666666666667,8|2,0:0|0:0,0:0:0:0:
197,299,76862,6,0,P|141:302|98:269,1,106.666666666667,2|0,0:0|0:0,0:0:0:0:
250,231,77174,6,0,P|280:277|273:331,1,106.666666666667,8|0,0:0|0:0,0:0:0:0:
167,219,77487,1,2,0:0:0:0:
380,62,77799,2,0,L|260:71,1,106.666666666667,8|2,0:0|0:0,0:0:0:0:
250,231,78112,6,0,P|280:277|273:331,1,106.666666666667,2|2,0:0|0:0,0:0:0:0:
167,219,78424,6,0,P|189:173|242:148,1,106.666666666667,8|2,0:0|0:0,0:0:0:0:
318,177,78737,1,2,0:0:0:0:
197,299,78945,1,2,0:0:0:0:
212,382,79049,2,0,L|92:373,1,106.666666666667,8|0,0:0|0:0,0:0:0:0:
275,326,79362,6,0,L|395:317,1,106.666666666667,2|0,0:0|0:0,0:0:0:0:
442,258,79674,2,0,P|464:212|453:150,1,106.666666666667,8|0,0:0|0:0,0:0:0:0:
354,67,79987,5,2,0:0:0:0:
214,164,80195,1,2,0:0:0:0:
130,145,80299,5,8,0:0:0:0:
197,299,80507,1,2,0:0:0:0:
112,282,80612,6,0,L|2:300,1,106.666666666667,2|2,0:0|0:0,0:0:0:0:
275,263,80924,2,0,L|385:281,1,106.666666666667,8|2,0:0|0:0,0:0:0:0:
449,62,81237,2,0,P|408:49|304:104,1,160,8|2,0:0|0:0,0:0:0:0:
53,179,81862,6,0,P|97:181|128:204,1,80,2|0,0:0|0:0,0:0:0:0:
154,275,82382,1,0,0:0:0:0:
154,275,82487,1,8,0:0:0:0:
68,358,82799,2,0,L|138:365,1,53.3333333333333
159,375,83112,6,0,L|212:369,1,53.3333333333333,2|2,0:0|0:0,0:0:0:0:
251,373,83424,1,2,0:0:0:0:
309,318,83632,1,0,0:0:0:0:
309,318,83737,2,0,P|321:294|344:270,1,53.3333333333333,8|0,0:0|0:0,0:0:0:0:
374,257,84049,2,0,L|438:264,1,53.3333333333333,2|2,0:0|0:0,0:0:0:0:
466,272,84362,6,0,L|449:176,1,80,2|0,0:0|0:0,0:0:0:0:
397,135,84882,1,0,0:0:0:0:
397,135,84986,2,0,P|375:147|344:150,1,53.3333333333333,8|0,0:0|0:0,0:0:0:0:
307,158,85299,2,0,L|252:153,1,53.3333333333333,0|2,0:0|0:0,0:0:0:0:
219,174,85612,5,0,0:0:0:0:
140,160,85820,1,2,0:0:0:0:
140,160,85924,2,0,L|128:254,1,80,2|8,0:0|0:0,0:0:0:0:
64,285,86445,1,0,0:0:0:0:
64,285,86549,1,2,0:0:0:0:
72,105,86862,6,0,P|93:87|148:73,1,80,2|2,0:0|0:0,0:0:0:0:
210,31,87382,1,0,0:0:0:0:
210,31,87487,2,0,P|246:40|288:45,1,80,8|2,0:0|0:0,0:0:0:0:
342,104,88007,1,2,0:0:0:0:
342,104,88112,6,0,L|397:95,1,53.3333333333333,2|2,0:0|0:0,0:0:0:0:
433,102,88424,1,2,0:0:0:0:
483,251,88737,5,8,0:0:0:0:
443,252,88841,1,8,0:0:0:0:
408,272,88945,1,8,0:0:0:0:
398,291,89049,2,0,L|389:354,1,53.3333333333333,8|8,0:0|0:0,0:0:0:0:
398,363,89362,6,0,L|268:372,1,127.99999609375,2|0,0:0|0:0,0:0:0:0:
174,371,89674,2,0,P|199:333|186:247,1,127.99999609375,8|0,0:0|0:0,0:0:0:0:
106,301,89987,2,0,P|93:239|122:183,1,127.99999609375,2|2,0:0|0:0,0:0:0:0:
215,160,90299,2,0,L|345:151,1,127.99999609375,8|2,0:0|0:0,0:0:0:0:
367,57,90612,6,0,L|237:66,1,127.99999609375,2|0,0:0|0:0,0:0:0:0:
276,249,90924,2,0,L|406:240,1,127.99999609375,8|0,0:0|0:0,0:0:0:0:
201,151,91237,2,0,L|71:160,1,127.99999609375,2|2,0:0|0:0,0:0:0:0:
2,95,91549,1,8,0:0:0:0:
80,269,91757,1,2,0:0:0:0:
12,337,91862,6,0,P|69:364|131:348,1,127.99999609375,2|0,0:0|0:0,0:0:0:0:
222,371,92174,2,0,P|279:344|341:360,1,127.99999609375,8|0,0:0|0:0,0:0:0:0:
434,342,92487,2,0,L|411:208,1,127.99999609375,2|2,0:0|0:0,0:0:0:0:
354,139,92799,2,0,L|377:5,1,127.99999609375,8|2,0:0|0:0,0:0:0:0:
339,359,93112,6,0,L|317:232,1,127.99999609375,2|0,0:0|0:0,0:0:0:0:
441,133,93424,2,0,L|462:6,1,127.99999609375,8|0,0:0|0:0,0:0:0:0:
267,140,93737,2,0,L|288:13,1,127.99999609375,2|2,0:0|0:0,0:0:0:0:
200,51,94049,1,8,0:0:0:0:
16,108,94257,1,2,0:0:0:0:
88,43,94362,6,0,P|112:102|98:162,1,127.99999609375,2|0,0:0|0:0,0:0:0:0:
171,224,94674,2,0,P|147:282|161:343,1,127.99999609375,8|0,0:0|0:0,0:0:0:0:
350,343,94987,6,0,P|364:282|341:224,1,127.99999609375,2|2,0:0|0:0,0:0:0:0:
414,162,95299,2,0,P|400:101|424:43,1,127.99999609375,8|2,0:0|0:0,0:0:0:0:
256,128,95612,6,0,L|256:256,1,127.99999609375,2|0,0:0|0:0,0:0:0:0:
312,64,95924,2,0,P|254:42|192:72,1,127.99999609375,8|0,0:0|0:0,0:0:0:0:
200,320,96237,5,2,0:0:0:0:
237,339,96341,1,2,0:0:0:0:
279,338,96445,1,2,0:0:0:0:
315,316,96549,2,0,L|446:323,1,127.99999609375,2|2,0:0|0:0,0:0:0:0:
256,192,96862,5,4,1:0:0:0:
256,192,96966,12,0,104362,0:0:0:0:
