osu file format v14

[General]
AudioFilename: audio.mp3
AudioLeadIn: 0
PreviewTime: 11705
Countdown: 0
SampleSet: Soft
StackLeniency: 0.5
Mode: 0
LetterboxInBreaks: 0
WidescreenStoryboard: 1

[Editor]
Bookmarks: 16133
DistanceSpacing: 1.3
BeatDivisor: 3
GridSize: 16
TimelineZoom: 1.9

[Metadata]
Title:Jin Jin Jingle Bells
TitleUnicode:ジン ジン ジングルベル
Artist:Twinkle Veil from SUPER*GiRLS
ArtistUnicode:トゥィンクルヴェール from SUPER☆GiRLS
Creator:ShogunMoon
Version:sdafsf's Insane
Source:
Tags:christmas xmas kencho sdafsf beomsan deppyforce akitoshi karia koiyuki Minakami Yuki yf_bmp
BeatmapID:1479553
BeatmapSetID:696602

[Difficulty]
HPDrainRate:5
CircleSize:4.2
OverallDifficulty:7
ApproachRate:9
SliderMultiplier:1.6
SliderTickRate:1

[Events]
//Background and Video events
0,0,"bg.png",0,0
//Break Periods
//Storyboard Layer 0 (Background)
//Storyboard Layer 1 (Fail)
//Storyboard Layer 2 (Pass)
//Storyboard Layer 3 (Foreground)
//Storyboard Sound Samples

[TimingPoints]
9362,312.5,4,2,1,70,1,0
9362,-166.666666666667,4,2,1,70,0,0
9987,-100,4,2,1,70,0,0
10612,-83.3333333333333,4,2,1,70,0,0
11862,-66.6666666666667,4,2,1,70,0,0
41550,-83.3333333333333,4,2,1,70,0,0
59362,-66.6666666666667,4,2,1,70,0,0
60612,-100,4,2,1,70,0,0
60925,-90.9090909090909,4,2,1,70,0,0
61237,-83.3333333333333,4,2,1,70,0,0
61550,-76.9230769230769,4,2,1,70,0,0
61862,-66.6666666666667,4,2,1,70,0,1
81862,-133.333333333333,4,2,1,70,0,0
89362,-83.3333333333333,4,2,1,70,0,0

[Colours]
Combo1 : 254,231,139
Combo2 : 233,44,72
Combo3 : 218,157,129
SliderBorder : 100,150,80
SliderTrackOverride : 50,33,29

[HitObjects]
117,107,9362,5,0,0:0:0:0:
146,228,9518,2,0,P|154:162|120:113,1,119.999996337891,0|0,0:0|0:0,0:0:0:0:
65,280,9987,6,0,P|79:232|141:252,1,120,4|0,0:3|0:0,0:0:0:0:
214,384,10299,2,0,L|210:261,1,120,0|0,0:0|0:0,0:0:0:0:
322,118,10612,6,0,P|362:121|408:102,1,63.9999980468751,2|0,0:0|0:0,0:0:0:0:
490,46,10820,1,8,0:0:0:0:
471,28,10925,2,0,P|416:44|400:108,1,127.99999609375,8|2,0:0|0:0,0:0:0:0:
457,183,11237,1,8,0:0:0:0:
465,200,11341,1,8,0:0:0:0:
441,237,11445,5,8,0:0:0:0:
455,268,11549,1,8,0:0:0:0:
453,311,11653,1,8,0:0:0:0:
427,346,11757,1,8,0:0:0:0:
377,358,11862,6,0,P|311:327|261:403,1,160.000006103516,4|0,0:0|0:0,0:0:0:0:
92,273,12174,2,0,P|156:250|206:324,1,160.000006103516,8|0,0:0|0:0,0:0:0:0:
130,350,12487,1,2,0:0:0:0:
29,182,12695,1,0,0:0:0:0:
15,229,12799,1,8,0:0:0:0:
156,144,13007,1,2,0:0:0:0:
116,80,13112,6,0,P|181:55|229:129,1,160.000006103516,2|2,0:0|0:0,0:0:0:0:
376,192,13424,2,0,P|307:168|261:236,1,160.000006103516,8|2,0:0|0:0,0:0:0:0:
340,271,13737,1,2,0:0:0:0:
464,145,13945,1,0,0:0:0:0:
459,199,14049,1,8,0:0:0:0:
326,75,14258,1,0,0:0:0:0:
298,154,14362,6,0,P|366:117|323:74,1,160.000006103516,2|0,0:0|0:0,0:0:0:0:
270,12,14675,2,0,P|268:89|326:73,1,160.000006103516,8|0,0:0|0:0,0:0:0:0:
407,58,14987,2,0,P|341:18|326:75,1,160.000006103516,2|0,0:0|0:0,0:0:0:0:
298,154,15300,1,8,0:0:0:0:
298,154,15612,6,0,L|302:245,1,80.0000030517579,2|0,0:0|0:0,0:0:0:0:
387,346,15820,2,0,L|396:169,1,160.000006103516,2|0,0:0|0:0,0:0:0:0:
308,55,16133,1,2,0:0:0:0:
282,85,16237,2,0,L|288:173,1,80.0000030517579,2|0,0:0|0:0,0:0:0:0:
484,165,16445,1,0,0:0:0:0:
500,121,16550,2,0,P|424:78|362:127,1,160.000006103516,8|0,0:0|0:0,0:0:0:0:
145,284,16862,6,0,P|209:261|256:329,1,160.000006103516,2|0,0:0|0:0,0:0:0:0:
428,211,17174,2,0,P|364:188|319:261,1,160.000006103516,8|0,0:0|0:0,0:0:0:0:
400,294,17487,1,2,0:0:0:0:
504,153,17695,1,0,0:0:0:0:
511,203,17799,1,8,0:0:0:0:
367,121,18007,1,2,0:0:0:0:
407,56,18112,6,0,P|343:33|296:106,1,160.000006103516,2|2,0:0|0:0,0:0:0:0:
152,175,18424,2,0,P|216:152|262:229,1,160.000006103516,8|2,0:0|0:0,0:0:0:0:
182,260,18737,1,2,0:0:0:0:
64,128,18945,1,0,0:0:0:0:
57,178,19049,1,8,0:0:0:0:
226,75,19258,1,0,0:0:0:0:
289,159,19362,6,0,P|217:147|226:75,1,160.000006103516,2|0,0:0|0:0,0:0:0:0:
281,7,19675,2,0,P|306:55|239:83,1,160.000006103516,8|0,0:0|0:0,0:0:0:0:
124,88,19987,2,0,P|169:31|226:75,1,160.000006103516,2|0,0:0|0:0,0:0:0:0:
289,159,20300,1,8,0:0:0:0:
289,159,20612,6,0,L|282:249,1,80.0000030517579,2|0,0:0|0:0,0:0:0:0:
200,362,20820,2,0,L|191:191,1,160.000006103516,2|0,0:0|0:0,0:0:0:0:
248,56,21133,1,2,0:0:0:0:
269,80,21237,2,0,L|261:178,1,80.0000030517579,2|0,0:0|0:0,0:0:0:0:
132,58,21445,1,8,0:0:0:0:
108,86,21550,2,0,L|113:171,1,80.0000030517579,8|0,0:0|0:0,0:0:0:0:
0,270,21758,1,0,0:0:0:0:
58,340,21862,6,0,P|84:297|45:185,1,160.000006103516,2|0,0:0|0:0,0:0:0:0:
201,201,22175,2,0,P|171:272|202:344,1,160.000006103516,8|0,0:0|0:0,0:0:0:0:
395,283,22487,2,0,P|329:245|246:292,1,160.000006103516,2|0,0:0|0:0,0:0:0:0:
122,375,22800,5,8,0:0:0:0:
15,211,23008,1,2,0:0:0:0:
8,262,23112,1,2,0:0:0:0:
131,113,23320,1,2,0:0:0:0:
141,163,23424,1,8,0:0:0:0:
37,34,23633,6,0,P|117:64|190:17,1,160.000006103516,2|0,0:0|0:0,0:0:0:0:
257,108,23945,1,2,0:0:0:0:
221,144,24050,2,0,P|295:169|376:119,1,160.000006103516,8|0,0:0|0:0,0:0:0:0:
478,15,24362,6,0,P|448:79|501:163,1,160.000006103516,2|0,0:0|0:0,0:0:0:0:
366,281,24675,2,0,P|392:207|364:134,1,160.000006103516,8|0,0:0|0:0,0:0:0:0:
460,17,24987,2,0,P|437:79|487:170,1,160.000006103516,2|0,0:0|0:0,0:0:0:0:
475,246,25300,5,8,0:0:0:0:
273,281,25508,2,0,B|304:306|304:306|437:316,1,160.000006103516,2|0,0:0|0:0,0:0:0:0:
512,376,25820,2,0,B|481:351|481:351|361:345,1,160.000006103516,2|0,0:0|0:0,0:0:0:0:
261,354,26133,1,2,0:0:0:0:
184,370,26237,5,8,0:0:0:0:
197,324,26341,1,8,0:0:0:0:
190,278,26445,1,8,0:0:0:0:
157,245,26550,1,8,0:0:0:0:
95,337,26758,1,8,0:0:0:0:
52,265,26862,6,0,P|116:242|166:315,1,160.000006103516,2|0,0:0|0:0,0:0:0:0:
347,178,27174,2,0,P|283:155|242:234,1,160.000006103516,8|0,0:0|0:0,0:0:0:0:
320,266,27487,1,2,0:0:0:0:
446,154,27695,1,0,0:0:0:0:
451,205,27799,1,12,0:0:0:0:
300,121,28007,1,2,0:0:0:0:
338,53,28112,6,0,P|274:30|224:97,1,160.000006103516,2|2,0:0|0:0,0:0:0:0:
102,170,28424,2,0,P|166:147|214:217,1,160.000006103516,8|2,0:0|0:0,0:0:0:0:
139,244,28737,1,2,0:0:0:0:
315,162,28945,1,0,0:0:0:0:
328,208,29049,1,8,0:0:0:0:
423,109,29258,1,0,0:0:0:0:
488,196,29362,6,0,P|416:181|425:108,1,160.000006103516,2|0,0:0|0:0,0:0:0:0:
465,13,29675,2,0,P|491:80|424:108,1,160.000006103516,8|0,0:0|0:0,0:0:0:0:
320,117,29987,2,0,P|369:63|427:108,1,160.000006103516,2|0,0:0|0:0,0:0:0:0:
488,196,30300,1,8,0:0:0:0:
488,196,30612,6,0,L|484:289,1,80.0000030517579,2|0,0:0|0:0,0:0:0:0:
392,371,30820,2,0,L|381:192,1,160.000006103516,2|0,0:0|0:0,0:0:0:0:
440,85,31133,1,2,0:0:0:0:
466,106,31237,2,0,L|461:200,1,80.0000030517579,2|0,0:0|0:0,0:0:0:0:
281,186,31445,1,0,0:0:0:0:
260,146,31550,2,0,P|336:103|397:160,1,160.000006103516,8|0,0:0|0:0,0:0:0:0:
339,317,31862,6,0,P|275:294|226:366,1,160.000006103516,2|0,0:0|0:0,0:0:0:0:
69,231,32174,2,0,P|133:208|183:278,1,160.000006103516,8|0,0:0|0:0,0:0:0:0:
106,318,32487,1,2,0:0:0:0:
19,136,32695,1,0,0:0:0:0:
7,192,32799,1,8,0:0:0:0:
144,115,33007,1,2,0:0:0:0:
106,42,33112,6,0,P|170:19|218:87,1,160.000006103516,2|2,0:0|0:0,0:0:0:0:
356,154,33424,2,0,P|292:131|252:207,1,160.000006103516,8|2,0:0|0:0,0:0:0:0:
328,240,33737,1,2,0:0:0:0:
439,137,33945,1,0,0:0:0:0:
448,191,34049,1,8,0:0:0:0:
300,75,34258,1,0,0:0:0:0:
272,154,34362,6,0,P|340:117|297:74,1,160.000006103516,2|0,0:0|0:0,0:0:0:0:
243,12,34675,2,0,P|241:89|299:73,1,160.000006103516,8|0,0:0|0:0,0:0:0:0:
379,57,34987,2,0,P|313:17|298:74,1,160.000006103516,2|0,0:0|0:0,0:0:0:0:
272,154,35300,1,8,0:0:0:0:
272,154,35612,6,0,L|277:245,1,80.0000030517579,2|0,0:0|0:0,0:0:0:0:
355,358,35820,2,0,L|364:187,1,160.000006103516,2|0,0:0|0:0,0:0:0:0:
305,49,36133,1,2,0:0:0:0:
290,73,36237,2,0,L|295:162,1,80.0000030517579,2|0,0:0|0:0,0:0:0:0:
439,233,36445,1,8,0:0:0:0:
472,212,36549,2,0,L|485:48,1,160.000006103516,8|0,0:0|0:0,0:0:0:0:
225,196,36862,6,0,P|294:232|362:197,1,160.000006103516,2|0,0:0|0:0,0:0:0:0:
372,335,37175,2,0,P|303:308|215:345,1,160.000006103516,8|0,0:0|0:0,0:0:0:0:
462,342,37487,2,0,P|493:275|447:198,1,160.000006103516,2|0,0:0|0:0,0:0:0:0:
225,196,37800,5,8,0:0:0:0:
95,90,38008,1,2,0:0:0:0:
44,104,38112,1,2,0:0:0:0:
100,269,38320,1,2,0:0:0:0:
49,255,38424,1,8,0:0:0:0:
225,196,38633,2,0,P|258:276|200:349,1,160.000006103516,2|0,0:0|0:0,0:0:0:0:
142,178,38945,1,0,0:0:0:0:
161,137,39050,2,0,P|238:112|307:172,1,160.000006103516,8|0,0:0|0:0,0:0:0:0:
476,365,39362,6,0,P|447:292|481:222,1,160.000006103516,2|0,0:0|0:0,0:0:0:0:
360,79,39675,2,0,P|394:155|351:234,1,160.000006103516,8|0,0:0|0:0,0:0:0:0:
457,366,39987,2,0,P|428:293|462:223,1,160.000006103516,2|0,0:0|0:0,0:0:0:0:
360,79,40300,5,8,0:0:0:0:
110,150,40508,2,0,B|141:167|141:167|268:172,1,160.000006103516,2|0,0:0|0:0,0:0:0:0:
341,223,40820,2,0,B|310:206|310:206|178:200,1,160.000006103516,0|0,0:0|0:0,0:0:0:0:
74,222,41133,1,2,0:0:0:0:
59,297,41237,5,8,0:0:0:0:
105,284,41341,1,8,0:0:0:0:
151,291,41445,1,8,0:0:0:0:
184,324,41550,5,2,0:0:0:0:
305,300,41758,1,0,0:0:0:0:
336,333,41862,2,0,P|388:354|461:323,1,127.99999609375,2|0,0:0|0:0,0:0:0:0:
488,267,42175,2,0,L|477:132,1,127.99999609375,8|0,0:0|0:0,0:0:0:0:
291,117,42487,2,0,P|349:140|426:105,1,127.99999609375,2|0,0:0|0:0,0:0:0:0:
459,54,42800,5,8,0:0:0:0:
322,3,43008,2,0,L|190:12,1,127.99999609375,2|0,0:0|0:0,0:0:0:0:
114,55,43320,1,2,0:0:0:0:
114,55,43425,2,0,P|94:107|125:178,1,127.99999609375,8|2,0:0|0:0,0:0:0:0:
187,212,43737,2,0,L|173:358,1,127.99999609375,2|0,0:0|0:0,0:0:0:0:
57,337,44050,6,0,L|45:201,1,127.99999609375,8|0,0:0|0:0,0:0:0:0:
36,110,44362,1,2,0:0:0:0:
146,37,44570,1,0,0:0:0:0:
150,62,44675,1,8,0:0:0:0:
230,139,44883,1,0,0:0:0:0:
234,114,44987,2,0,P|284:93|372:136,1,127.99999609375,2|0,0:0|0:0,0:0:0:0:
391,177,45300,5,8,0:0:0:0:
300,248,45508,2,0,L|309:384,1,127.99999609375,2|0,0:0|0:0,0:0:0:0:
400,370,45820,1,2,0:0:0:0:
400,370,45925,2,0,P|447:384|537:351,1,127.99999609375,8|0,0:0|0:0,0:0:0:0:
509,258,46237,2,0,P|462:244|373:279,1,127.99999609375,8|0,0:0|0:0,0:0:0:0:
308,375,46550,5,8,0:0:0:0:
114,330,46862,2,0,P|97:276|118:205,1,127.99999609375,2|0,0:0|0:0,0:0:0:0:
202,172,47175,2,0,P|222:118|194:41,1,127.99999609375,8|0,0:0|0:0,0:0:0:0:
19,92,47487,2,0,B|54:112|54:112|165:112,1,127.99999609375,2|0,0:0|0:0,0:0:0:0:
203,52,47800,5,8,0:0:0:0:
306,138,48008,2,0,L|296:288,1,127.99999609375,2|0,0:0|0:0,0:0:0:0:
394,312,48320,1,0,0:0:0:0:
394,312,48425,2,0,L|460:308,1,63.9999980468751,8|0,0:0|0:0,0:0:0:0:
512,214,48633,1,2,0:0:0:0:
512,214,48738,2,0,L|381:200,1,127.99999609375,0|0,0:0|0:0,0:0:0:0:
297,265,49050,6,0,P|312:333|281:395,1,127.99999609375,8|0,0:0|0:0,0:0:0:0:
203,383,49362,2,0,L|68:373,1,127.99999609375,2|0,0:0|0:0,0:0:0:0:
14,304,49675,1,8,0:0:0:0:
91,207,49883,1,0,0:0:0:0:
91,207,49987,2,0,P|111:138|83:81,1,127.99999609375,8|0,0:0|0:0,0:0:0:0:
36,32,50300,5,8,0:0:0:0:
180,99,50508,2,0,P|240:115|315:78,1,127.99999609375,2|0,0:0|0:0,0:0:0:0:
369,18,50820,1,2,0:0:0:0:
374,48,50925,1,8,0:0:0:0:
468,101,51133,1,2,0:0:0:0:
463,131,51238,1,8,0:0:0:0:
415,340,51550,6,0,P|438:277|408:217,1,127.99999609375,8|0,0:0|0:0,0:0:0:0:
281,344,51862,2,0,L|152:333,1,127.99999609375,2|0,0:0|0:0,0:0:0:0:
93,273,52175,2,0,P|75:210|101:147,1,127.99999609375,8|0,0:0|0:0,0:0:0:0:
177,106,52487,2,0,P|196:52|161:-17,1,127.99999609375,2|0,0:0|0:0,0:0:0:0:
62,35,52800,5,8,0:0:0:0:
177,106,53008,2,0,L|311:113,1,127.99999609375,6|0,0:0|0:0,0:0:0:0:
375,175,53320,1,2,0:0:0:0:
375,175,53425,2,0,L|512:167,1,127.99999609375,8|2,0:0|0:0,0:0:0:0:
492,45,53737,2,0,P|425:31|363:56,1,127.99999609375,2|0,0:0|0:0,0:0:0:0:
304,112,54050,5,8,0:0:0:0:
287,145,54154,1,0,0:0:0:0:
285,182,54258,1,0,0:0:0:0:
299,216,54362,2,0,P|313:269|281:341,1,127.99999609375,2|0,0:0|0:0,0:0:0:0:
177,363,54675,1,8,0:0:0:0:
101,274,54883,1,0,0:0:0:0:
101,274,54987,2,0,L|98:142,1,127.99999609375,2|0,0:0|0:0,0:0:0:0:
47,73,55300,5,8,0:0:0:0:
154,18,55508,2,0,P|210:37|280:10,1,127.99999609375,2|0,0:0|0:0,0:0:0:0:
340,100,55820,1,0,0:0:0:0:
348,71,55925,1,8,0:0:0:0:
441,19,56133,1,2,0:0:0:0:
449,48,56238,1,8,0:0:0:0:
377,273,56550,6,0,L|365:355,1,63.9999980468751,8|0,0:0|0:0,0:0:0:0:
454,235,56758,1,0,0:0:0:0:
432,210,56862,2,0,P|365:192|310:227,1,127.99999609375,2|0,0:0|0:0,0:0:0:0:
256,282,57175,2,0,P|203:299|133:271,1,127.99999609375,8|0,0:0|0:0,0:0:0:0:
74,213,57487,2,0,L|83:84,1,127.99999609375,2|0,0:0|0:0,0:0:0:0:
140,24,57800,5,8,0:0:0:0:
219,96,58008,2,0,P|271:77|345:94,1,127.99999609375,2|0,0:0|0:0,0:0:0:0:
393,163,58320,1,2,0:0:0:0:
393,163,58425,2,0,P|445:144|520:169,1,127.99999609375,8|2,0:0|0:0,0:0:0:0:
512,253,58737,2,0,L|501:388,1,127.99999609375,2|0,0:0|0:0,0:0:0:0:
394,376,59050,2,0,L|383:244,1,127.99999609375,8|0,0:0|0:0,0:0:0:0:
209,73,59362,6,0,P|184:160|252:241,1,160.000006103516,2|0,0:0|0:0,0:0:0:0:
295,256,59675,1,8,0:0:0:0:
209,73,59883,1,0,0:0:0:0:
192,72,59987,2,0,P|171:163|236:242,1,160.000006103516,2|8,0:0|0:0,0:0:0:0:
278,255,60300,5,8,0:0:0:0:
120,331,60508,1,0,0:0:0:0:
113,308,60612,5,2,0:0:0:0:
113,308,60716,2,0,P|142:312|174:330,1,53.3333333333333,0|2,0:0|0:0,0:0:0:0:
48,227,60925,1,8,0:0:0:0:
48,227,61029,2,0,P|19:231|-13:249,1,58.6666684570313,0|0,0:0|0:0,0:0:0:0:
167,177,61237,1,8,0:0:0:0:
167,177,61341,2,0,P|196:181|228:199,1,63.9999980468751,0|2,0:0|0:0,0:0:0:0:
56,74,61550,1,8,0:0:0:0:
56,74,61654,2,0,P|27:78|-11:100,1,69.3333301595054
286,37,61862,6,0,P|326:113|256:152,1,160.000006103516,6|0,0:0|0:0,0:0:0:0:
379,318,62175,2,0,P|420:249|350:205,1,160.000006103516,8|0,0:0|0:0,0:0:0:0:
314,266,62487,1,2,0:0:0:0:
219,380,62695,1,0,0:0:0:0:
210,328,62800,1,8,0:0:0:0:
92,298,63008,1,2,0:0:0:0:
32,353,63112,6,0,P|-7:298|61:236,1,160.000006103516,2|2,0:0|0:0,0:0:0:0:
124,73,63425,2,0,P|77:132|136:178,1,160.000006103516,8|0,0:0|0:0,0:0:0:0:
187,127,63737,1,2,0:0:0:0:
308,48,63945,1,0,0:0:0:0:
304,88,64050,1,8,0:0:0:0:
427,133,64258,1,0,0:0:0:0:
398,213,64362,6,0,P|369:140|430:135,1,160.000006103516,2|0,0:0|0:0,0:0:0:0:
509,121,64675,2,0,P|461:181|426:131,1,160.000006103516,8|0,0:0|0:0,0:0:0:0:
375,67,64987,2,0,P|451:78|426:132,1,160.000006103516,2|0,0:0|0:0,0:0:0:0:
398,213,65300,1,8,0:0:0:0:
398,213,65612,6,0,L|406:314,1,80.0000030517579,2|0,0:0|0:0,0:0:0:0:
296,370,65820,2,0,L|306:203,1,160.000006103516,2|0,0:0|0:0,0:0:0:0:
397,117,66133,1,2,0:0:0:0:
427,133,66237,2,0,L|434:222,1,80.0000030517579,2|0,0:0|0:0,0:0:0:0:
305,210,66445,1,0,0:0:0:0:
273,218,66550,2,0,P|240:148|279:71,1,160.000006103516,8|0,0:0|0:0,0:0:0:0:
147,6,66862,6,0,P|110:62|172:113,1,160.000006103516,2|0,0:0|0:0,0:0:0:0:
76,273,67175,2,0,P|39:216|101:166,1,160.000006103516,8|0,0:0|0:0,0:0:0:0:
151,220,67487,1,2,0:0:0:0:
249,315,67695,1,0,0:0:0:0:
258,272,67800,1,8,0:0:0:0:
371,254,68008,1,2,0:0:0:0:
434,299,68112,6,0,P|479:237|420:195,1,160.000006103516,2|2,0:0|0:0,0:0:0:0:
490,18,68425,2,0,P|521:75|451:121,1,160.000006103516,8|0,0:0|0:0,0:0:0:0:
411,50,68737,1,2,0:0:0:0:
273,72,68945,1,0,0:0:0:0:
277,112,69050,1,8,0:0:0:0:
137,136,69258,1,0,0:0:0:0:
165,216,69362,6,0,P|194:143|133:138,1,160.000006103516,2|0,0:0|0:0,0:0:0:0:
53,124,69675,2,0,P|101:184|136:134,1,160.000006103516,8|0,0:0|0:0,0:0:0:0:
187,70,69987,2,0,P|111:81|136:135,1,160.000006103516,2|0,0:0|0:0,0:0:0:0:
165,216,70300,1,8,0:0:0:0:
165,216,70612,6,0,L|160:296,1,80.0000030517579,2|0,0:0|0:0,0:0:0:0:
278,362,70820,2,0,L|268:202,1,160.000006103516,2|0,0:0|0:0,0:0:0:0:
181,111,71133,1,2,0:0:0:0:
151,127,71237,2,0,L|139:289,1,160.000006103516,2|2,0:0|0:0,0:0:0:0:
308,292,71550,2,0,L|301:188,1,80.0000030517579,8|0,0:0|0:0,0:0:0:0:
396,81,71758,1,0,0:0:0:0:
451,144,71862,6,0,P|478:68|433:5,1,160.000006103516,2|0,0:0|0:0,0:0:0:0:
338,16,72175,2,0,P|310:78|356:158,1,160.000006103516,8|0,0:0|0:0,0:0:0:0:
487,292,72487,2,0,P|410:263|333:314,1,160.000006103516,2|0,0:0|0:0,0:0:0:0:
278,376,72800,5,8,0:0:0:0:
173,273,73008,1,2,0:0:0:0:
178,322,73112,1,2,0:0:0:0:
44,275,73320,1,2,0:0:0:0:
39,324,73424,1,8,0:0:0:0:
134,198,73633,2,0,P|161:121|123:49,1,160.000006103516,2|0,0:0|0:0,0:0:0:0:
0,155,73945,1,0,0:0:0:0:
0,205,74050,2,0,P|69:238|135:198,1,160.000006103516,8|0,0:0|0:0,0:0:0:0:
337,62,74362,6,0,P|317:141|356:207,1,160.000006103516,2|0,0:0|0:0,0:0:0:0:
237,328,74675,2,0,P|264:265|235:180,1,160.000006103516,8|0,0:0|0:0,0:0:0:0:
42,36,74987,2,0,P|120:11|196:60,1,160.000006103516,2|0,0:0|0:0,0:0:0:0:
242,102,75300,5,8,0:0:0:0:
358,165,75508,1,2,0:0:0:0:
354,205,75612,1,2,0:0:0:0:
467,286,75820,1,2,0:0:0:0:
463,246,75924,1,8,0:0:0:0:
323,300,76133,1,0,0:0:0:0:
319,340,76237,5,8,0:0:0:0:
285,330,76341,1,8,0:0:0:0:
254,336,76445,1,8,0:0:0:0:
223,360,76550,1,2,0:0:0:0:
129,133,76862,6,0,P|156:209|110:271,1,160.000006103516,2|0,0:0|0:0,0:0:0:0:
250,142,77175,2,0,P|221:78|260:0,1,160.000006103516,8|0,0:0|0:0,0:0:0:0:
317,204,77487,2,0,P|235:232|164:179,1,160.000006103516,2|0,0:0|0:0,0:0:0:0:
129,133,77800,1,8,0:0:0:0:
257,1,78008,1,2,0:0:0:0:
265,40,78112,1,2,0:0:0:0:
363,130,78320,1,0,0:0:0:0:
373,92,78424,1,8,0:0:0:0:
481,18,78633,6,0,P|510:96|479:166,1,160.000006103516,2|0,0:0|0:0,0:0:0:0:
402,272,78945,1,0,0:0:0:0:
368,270,79050,2,0,P|333:207|367:125,1,160.000006103516,8|0,0:0|0:0,0:0:0:0:
512,333,79362,6,0,P|433:370|352:334,1,160.000006103516,2|0,0:0|0:0,0:0:0:0:
223,274,79675,2,0,P|297:242|376:278,1,160.000006103516,8|0,0:0|0:0,0:0:0:0:
227,352,79987,2,0,P|231:310|218:263,1,80.0000030517579,2|0,0:0|0:0,0:0:0:0:
161,219,80195,2,0,P|157:177|170:130,1,80.0000030517579,0|8,0:0|0:0,0:0:0:0:
44,27,80508,6,0,P|20:109|58:169,1,160.000006103516,2|0,0:0|0:0,0:0:0:0:
61,308,80820,2,0,P|88:216|56:167,1,160.000006103516,2|0,0:0|0:0,0:0:0:0:
123,57,81133,1,2,0:0:0:0:
112,91,81237,2,0,P|189:121|271:75,1,160.000006103516,8|0,0:0|0:0,0:0:0:0:
334,12,81550,5,8,0:0:0:0:
246,208,81862,2,0,P|321:243|420:179,1,200.000007629395,2|2,0:0|0:0,0:0:0:0:
415,188,82487,2,0,B|445:225|445:225|417:378,1,200.000007629395,8|8,0:0|0:0,0:0:0:0:
417,374,83112,1,2,0:0:0:0:
302,329,83320,1,8,0:0:0:0:
302,329,83425,2,0,L|213:332,1,80.0000030517579,2|0,0:0|0:0,0:0:0:0:
222,331,83737,2,0,P|161:321|109:343,1,120.000004577637,8|0,0:0|0:0,0:0:0:0:
50,231,84362,6,0,P|89:166|42:57,1,200.000007629395,2|2,0:0|0:0,0:0:0:0:
44,58,84987,2,0,B|90:88|90:88|238:88,1,200.000007629395,8|8,0:0|0:0,0:0:0:0:
235,88,85612,1,2,0:0:0:0:
306,37,85820,1,8,0:0:0:0:
306,37,85925,2,0,L|399:42,1,80.0000030517579,2|0,0:0|0:0,0:0:0:0:
385,41,86237,1,8,0:0:0:0:
474,117,86445,2,0,P|491:158|451:239,1,120.000004577637,8|0,0:0|0:0,0:0:0:0:
467,226,86862,6,0,B|406:200|406:200|270:208,1,200.000007629395,2|0,0:0|0:0,0:0:0:0:
272,207,87487,2,0,P|216:254|117:197,1,200.000007629395,8|8,0:0|0:0,0:0:0:0:
117,198,88112,1,2,0:0:0:0:
178,119,88320,1,8,0:0:0:0:
178,119,88425,2,0,P|188:73|171:37,1,80.0000030517579,2|0,0:0|0:0,0:0:0:0:
164,40,88737,1,8,0:0:0:0:
200,56,88841,1,8,0:0:0:0:
239,54,88945,1,8,0:0:0:0:
273,37,89050,5,2,0:0:0:0:
377,113,89258,1,2,0:0:0:0:
408,78,89362,6,0,P|430:133|393:208,1,127.99999609375,2|0,0:0|0:0,0:0:0:0:
362,257,89675,2,0,P|348:310|376:377,1,127.99999609375,8|0,0:0|0:0,0:0:0:0:
472,369,89987,2,0,P|486:298|464:247,1,127.99999609375,2|0,0:0|0:0,0:0:0:0:
407,194,90300,5,8,0:0:0:0:
327,150,90508,1,2,0:0:0:0:
304,157,90612,1,2,0:0:0:0:
242,234,90820,1,0,0:0:0:0:
219,227,90924,1,8,0:0:0:0:
162,149,91133,1,0,0:0:0:0:
138,157,91237,2,0,P|116:225|144:272,1,127.99999609375,2|0,0:0|0:0,0:0:0:0:
211,312,91550,5,8,0:0:0:0:
304,157,91862,2,0,L|316:25,1,127.99999609375,2|0,0:0|0:0,0:0:0:0:
416,33,92175,2,0,L|427:160,1,127.99999609375,8|0,0:0|0:0,0:0:0:0:
491,230,92487,2,0,P|511:296|476:363,1,127.99999609375,2|0,0:0|0:0,0:0:0:0:
412,379,92800,5,8,0:0:0:0:
333,318,93008,1,2,0:0:0:0:
310,325,93112,1,2,0:0:0:0:
227,381,93320,1,0,0:0:0:0:
204,374,93424,1,8,0:0:0:0:
124,312,93633,1,0,0:0:0:0:
100,318,93737,2,0,P|77:263|98:197,1,127.99999609375,2|0,0:0|0:0,0:0:0:0:
167,154,94050,5,8,0:0:0:0:
275,33,94362,2,0,P|337:49|396:27,1,127.99999609375,2|0,0:0|0:0,0:0:0:0:
473,0,94675,2,0,L|481:133,1,127.99999609375,8|0,0:0|0:0,0:0:0:0:
512,210,94987,2,0,L|502:344,1,127.99999609375,2|0,0:0|0:0,0:0:0:0:
428,384,95300,1,8,0:0:0:0:
351,321,95508,1,2,0:0:0:0:
328,328,95612,1,2,0:0:0:0:
245,384,95820,1,0,0:0:0:0:
222,377,95924,1,8,0:0:0:0:
142,315,96133,1,0,0:0:0:0:
113,328,96237,5,8,0:0:0:0:
95,295,96341,1,8,0:0:0:0:
92,258,96445,1,8,0:0:0:0:
106,223,96549,5,2,0:0:0:0:
330,134,96758,1,2,0:0:0:0:
333,165,96862,1,0,0:0:0:0:
256,192,96966,12,0,104050,0:0:0:0:
356,227,104154,6,0,P|356:260|342:303,2,63.9999980468751,0|0|2,0:0|0:0|0:0,0:0:0:0:
