osu file format v14

[General]
AudioFilename: audio.mp3
AudioLeadIn: 0
PreviewTime: 11705
Countdown: 0
SampleSet: Soft
StackLeniency: 0.7
Mode: 0
LetterboxInBreaks: 0
WidescreenStoryboard: 0

[Editor]
Bookmarks: 41862,61862,81862
DistanceSpacing: 1
BeatDivisor: 3
GridSize: 16
TimelineZoom: 1.9

[Metadata]
Title:Jin Jin Jingle Bells
TitleUnicode:ジン ジン ジングルベル
Artist:Twinkle Veil from SUPER*GiRLS
ArtistUnicode:トゥィンクルヴェール from SUPER☆GiRLS
Creator:ShogunMoon
Version:Normal
Source:
Tags:christmas xmas kencho sdafsf beomsan deppyforce akitoshi karia koiyuki Minakami Yuki yf_bmp
BeatmapID:1475509
BeatmapSetID:696602

[Difficulty]
HPDrainRate:4
CircleSize:3.5
OverallDifficulty:4
ApproachRate:5
SliderMultiplier:1
SliderTickRate:1

[Events]
//Background and Video events
0,0,"bg.png",0,0
//Break Periods
//Storyboard Layer 0 (Background)
//Storyboard Layer 1 (Fail)
//Storyboard Layer 2 (Pass)
//Storyboard Layer 3 (Foreground)
//Storyboard Sound Samples

[TimingPoints]
9362,312.5,4,2,1,70,1,0
11862,-100,4,2,1,70,0,1
11966,-100,4,2,1,70,0,0
41862,-100,4,2,1,70,0,0
60612,-100,4,2,1,70,0,0
61237,-100,4,2,1,70,0,0
61862,-100,4,2,1,70,0,1
81862,-100,4,2,1,70,0,0
89362,-100,4,2,1,70,0,0
104362,-100,4,2,1,30,0,0

[Colours]
Combo1 : 254,231,139
Combo2 : 233,44,72
Combo3 : 218,157,129
SliderBorder : 100,150,80
SliderTrackOverride : 50,33,29

[HitObjects]
120,93,11862,6,0,L|5:84,2,100,4|8|2,0:0|0:0|0:0,0:0:0:0:
208,138,12799,1,8,0:0:0:0:
298,180,13112,2,0,L|423:170,2,100,2|8|2,0:0|0:0|0:0,0:0:0:0:
231,255,14049,1,8,0:0:0:0:
160,325,14362,6,0,P|111:334|50:314,1,100,2|8,0:0|0:0,0:0:0:0:
0,243,14987,1,2,0:0:0:0:
15,144,15299,1,8,0:0:0:0:
76,64,15612,2,0,P|125:52|176:70,1,100,2|8,0:0|0:0,0:0:0:0:
251,126,16237,2,0,B|240:174|240:174|252:234,1,100,2|8,0:0|0:0,0:0:0:0:
335,275,16862,6,0,L|326:375,2,100,2|8|2,0:0|0:0|0:0,0:0:0:0:
423,229,17799,1,8,0:0:0:0:
502,167,18112,2,0,L|492:58,2,100,2|8|2,0:0|0:0|0:0,0:0:0:0:
423,229,19049,1,8,0:0:0:0:
335,275,19362,6,0,P|285:285|233:276,1,100,2|8,0:0|0:0,0:0:0:0:
177,196,19987,1,2,0:0:0:0:
224,108,20299,1,8,0:0:0:0:
154,36,20612,2,0,P|106:23|52:37,1,100,2|8,0:0|0:0,0:0:0:0:
18,126,21237,2,0,B|29:178|29:178|13:235,1,100,2|8,0:0|0:0,0:0:0:0:
101,275,21862,6,0,P|149:262|210:282,2,100,2|8|2,0:0|0:0|0:0,0:0:0:0:
150,361,22799,1,8,0:0:0:0:
249,368,23112,2,0,L|355:362,1,100,2|8,0:0|0:0,0:0:0:0:
446,338,23737,1,2,0:0:0:0:
484,245,24049,1,8,0:0:0:0:
423,164,24362,6,0,P|429:122|446:65,2,100,2|8|2,0:0|0:0|0:0,0:0:0:0:
339,219,25299,1,8,0:0:0:0:
247,260,25612,2,0,P|197:272|139:255,1,100,2|8,0:0|0:0,0:0:0:0:
81,188,26237,1,8,0:0:0:0:
111,93,26549,1,8,0:0:0:0:
193,35,26862,6,0,B|243:23|243:23|301:37,2,100,2|8|2,0:0|0:0|0:0,0:0:0:0:
111,93,27799,1,12,0:0:0:0:
192,151,28112,2,0,B|242:163|242:163|300:149,2,100,2|8|2,0:0|0:0|0:0,0:0:0:0:
111,93,29049,1,8,0:0:0:0:
30,153,29362,6,0,P|18:197|30:250,1,100,2|8,0:0|0:0,0:0:0:0:
103,317,29987,1,2,0:0:0:0:
191,270,30299,1,8,0:0:0:0:
277,319,30612,2,0,L|381:312,1,100,2|8,0:0|0:0,0:0:0:0:
435,231,31237,2,0,L|325:223,1,100,2|8,0:0|0:0,0:0:0:0:
265,151,31862,6,0,P|257:102|270:48,2,100,2|8|2,0:0|0:0|0:0,0:0:0:0:
335,223,32799,1,8,0:0:0:0:
435,231,33112,2,0,P|451:277|436:336,2,100,2|8|2,0:0|0:0|0:0,0:0:0:0:
386,143,34049,1,8,0:0:0:0:
312,75,34362,6,0,L|202:80,1,100,2|8,0:0|0:0,0:0:0:0:
116,110,34987,1,2,0:0:0:0:
85,205,35299,1,8,0:0:0:0:
146,284,35612,2,0,L|253:292,1,100,2|8,0:0|0:0,0:0:0:0:
313,217,36237,2,0,L|419:210,1,100,2|8,0:0|0:0,0:0:0:0:
492,271,36862,6,0,B|506:320|506:320|491:377,2,100,2|8|2,0:0|0:0|0:0,0:0:0:0:
395,298,37799,1,8,0:0:0:0:
315,358,38112,2,0,L|208:350,1,100,2|8,0:0|0:0,0:0:0:0:
115,348,38737,1,2,0:0:0:0:
56,266,39049,1,8,0:0:0:0:
96,174,39362,6,0,P|88:128|61:75,2,100,6|8|2,0:0|0:0|0:0,0:0:0:0:
178,230,40299,1,8,0:0:0:0:
269,271,40612,2,0,L|373:262,1,100,2|8,0:0|0:0,0:0:0:0:
451,206,41237,1,8,0:0:0:0:
455,106,41549,1,2,0:0:0:0:
382,37,41862,6,0,P|286:21|202:90,1,200,2|2,0:0|0:0,0:0:0:0:
157,165,42799,1,8,0:0:0:0:
114,255,43112,2,0,L|118:367,1,100,2|8,0:0|0:0,0:0:0:0:
215,374,43737,1,2,0:0:0:0:
311,348,44049,1,8,0:0:0:0:
409,329,44362,6,0,P|464:334|513:371,2,100,2|8|2,0:0|0:0|0:0,0:0:0:0:
311,348,45299,1,8,0:0:0:0:
215,374,45612,2,0,L|110:353,1,100,2|8,0:0|0:0,0:0:0:0:
54,276,46237,1,8,0:0:0:0:
86,181,46549,1,8,0:0:0:0:
160,113,46862,6,0,B|229:100|229:100|275:117|275:117|365:96,1,200,2|2,0:0|0:0,0:0:0:0:
441,51,47799,1,8,0:0:0:0:
497,133,48112,2,0,P|507:181|492:251,1,100,2|8,0:0|0:0,0:0:0:0:
418,288,48737,1,0,0:0:0:0:
331,238,49049,1,8,0:0:0:0:
238,275,49362,6,0,P|188:285|132:270,2,100,2|8|8,0:0|0:0|0:0,0:0:0:0:
331,238,50299,1,8,0:0:0:0:
412,179,50612,2,0,L|394:71,1,100,2|8,0:0|0:0,0:0:0:0:
312,24,51237,1,8,0:0:0:0:
219,61,51549,1,8,0:0:0:0:
195,158,51862,6,0,B|87:186|109:116|-9:153,1,200,2|2,0:0|0:0,0:0:0:0:
0,250,52799,1,12,0:0:0:0:
68,322,53112,2,0,P|110:334|179:307,1,100,2|8,0:0|0:0,0:0:0:0:
254,279,53737,1,2,0:0:0:0:
275,181,54049,1,8,0:0:0:0:
371,152,54362,6,0,L|377:42,2,100,2|8|2,0:0|0:0|0:0,0:0:0:0:
449,214,55299,1,8,0:0:0:0:
423,310,55612,2,0,P|373:301|319:310,1,100,0|8,0:0|0:0,0:0:0:0:
232,346,56237,1,8,0:0:0:0:
136,318,56549,1,8,0:0:0:0:
69,243,56862,6,0,P|76:149|177:125,1,200,2|2,0:0|0:0,0:0:0:0:
247,178,57799,1,8,0:0:0:0:
334,128,58112,2,0,L|326:22,1,100,2|8,0:0|0:0,0:0:0:0:
426,17,58737,1,2,0:0:0:0:
510,69,59049,1,8,0:0:0:0:
495,168,59362,6,0,L|486:289,2,100,2|8|2,0:0|0:0|0:0,0:0:0:0:
417,105,60299,1,8,0:0:0:0:
341,170,60612,2,0,P|293:185|239:170,1,100,2|8,0:0|0:0,0:0:0:0:
157,126,61237,1,8,0:0:0:0:
72,178,61549,1,8,0:0:0:0:
118,266,61862,6,0,P|110:315|105:379,2,100,6|8|2,0:0|0:0|0:0,0:0:0:0:
205,217,62799,1,8,0:0:0:0:
297,254,63112,2,0,P|349:257|406:229,2,100,2|8|2,0:0|0:0|0:0,0:0:0:0:
205,217,64049,1,8,0:0:0:0:
123,158,64362,6,0,L|132:48,1,100,2|8,0:0|0:0,0:0:0:0:
223,19,64987,1,2,0:0:0:0:
302,79,65299,1,8,0:0:0:0:
395,42,65612,2,0,P|444:30|495:48,1,100,2|8,0:0|0:0,0:0:0:0:
507,143,66237,2,0,P|496:186|486:250,1,100,2|8,0:0|0:0,0:0:0:0:
395,281,66862,6,0,L|403:388,2,100,2|8|2,0:0|0:0|0:0,0:0:0:0:
315,220,67799,1,8,0:0:0:0:
232,163,68112,2,0,L|224:51,2,100,2|8|2,0:0|0:0|0:0,0:0:0:0:
155,226,69049,1,8,0:0:0:0:
97,143,69362,6,0,P|46:133|-6:151,1,100,2|8,0:0|0:0,0:0:0:0:
52,233,69987,1,2,0:0:0:0:
110,314,70299,1,8,0:0:0:0:
155,226,70612,2,0,L|271:232,1,100,2|8,0:0|0:0,0:0:0:0:
332,294,71237,2,0,B|440:287,1,100,2|8,0:0|0:0,0:0:0:0:
475,197,71862,6,0,P|487:147|524:94,2,100,2|8|2,0:0|0:0|0:0,0:0:0:0:
431,287,72799,1,8,0:0:0:0:
332,294,73112,2,0,L|229:285,1,100,2|8,0:0|0:0,0:0:0:0:
134,264,73737,1,2,0:0:0:0:
108,167,74049,1,8,0:0:0:0:
190,109,74362,6,0,P|196:67|213:10,2,100,2|8|2,0:0|0:0|0:0,0:0:0:0:
271,166,75299,1,8,0:0:0:0:
366,195,75612,2,0,P|414:205|462:193,1,100,2|8,0:0|0:0,0:0:0:0:
508,104,76237,1,8,0:0:0:0:
436,33,76549,1,2,0:0:0:0:
339,60,76862,6,0,B|222:54,2,100,2|8|2,0:0|0:0|0:0,0:0:0:0:
436,33,77799,1,8,0:0:0:0:
508,104,78112,2,0,P|521:157|508:210,2,100,2|8|2,0:0|0:0|0:0,0:0:0:0:
421,155,79049,1,8,0:0:0:0:
348,223,79362,6,0,L|231:215,1,100,2|8,0:0|0:0,0:0:0:0:
154,251,79987,1,2,0:0:0:0:
87,176,80299,1,8,0:0:0:0:
125,83,80612,2,0,L|236:75,1,100,2|8,0:0|0:0,0:0:0:0:
324,70,81237,2,0,B|340:118|340:118|328:185,1,100,8|8,0:0|0:0,0:0:0:0:
259,236,81862,6,0,P|338:183|433:243,1,200,2|8,0:0|0:0,0:0:0:0:
345,281,82799,1,0,0:0:0:0:
274,352,83112,2,0,L|167:336,1,100,2|2,0:0|0:0,0:0:0:0:
75,329,83737,1,8,0:0:0:0:
39,235,84049,1,0,0:0:0:0:
113,168,84362,6,0,P|65:135|7:141,2,100,2|0|8,0:0|0:0|0:0,0:0:0:0:
186,235,85299,1,0,0:0:0:0:
261,169,85612,2,0,P|271:124|304:59,1,100,2|2,0:0|0:0,0:0:0:0:
384,34,86237,1,8,0:0:0:0:
467,88,86549,1,0,0:0:0:0:
420,176,86862,6,0,L|428:294,2,100,2|0|8,0:0|0:0|0:0,0:0:0:0:
467,88,87799,1,0,0:0:0:0:
384,34,88112,2,0,P|333:30|278:58,1,100,2|2,0:0|0:0,0:0:0:0:
237,134,88737,1,8,0:0:0:0:
283,222,89049,1,2,0:0:0:0:
189,259,89362,6,0,P|146:241|68:245,1,100,2|8,0:0|0:0,0:0:0:0:
73,336,89987,2,0,P|116:354|194:350,1,100,2|8,0:0|0:0,0:0:0:0:
261,319,90612,2,0,L|377:325,1,100,2|8,0:0|0:0,0:0:0:0:
457,350,91237,1,2,0:0:0:0:
504,262,91549,1,8,0:0:0:0:
471,167,91862,6,0,L|458:52,1,100,2|8,0:0|0:0,0:0:0:0:
364,98,92487,2,0,L|353:212,1,100,2|8,0:0|0:0,0:0:0:0:
256,174,93112,2,0,P|210:153|148:162,1,100,2|8,0:0|0:0,0:0:0:0:
81,216,93737,1,2,0:0:0:0:
11,143,94049,1,8,0:0:0:0:
54,52,94362,6,0,P|107:35|172:38,1,100,2|8,0:0|0:0,0:0:0:0:
232,92,94987,2,0,P|281:90|328:74,1,100,2|8,0:0|0:0,0:0:0:0:
424,45,95612,2,0,L|431:144,1,100,2|8,0:0|0:0,0:0:0:0:
466,238,96237,1,8,0:0:0:0:
403,315,96549,1,2,0:0:0:0:
313,270,96862,5,0,0:0:0:0:
256,192,96966,12,2,104362,0:0:0:0:
