osu file format v14

[General]
AudioFilename: audio.mp3
AudioLeadIn: 0
PreviewTime: 11705
Countdown: 0
SampleSet: Soft
StackLeniency: 0.7
Mode: 0
LetterboxInBreaks: 0
WidescreenStoryboard: 1

[Editor]
Bookmarks: 9987,10612,10924,11237,11549,11862,12174,12487,12799,13112,13424,13737,14049,14362,14674,14987,15299,15612,15924,16237,16549,16862,17174,17487,17799,18112,18424,18737,19049,19362,19674,19987,20299,20612,20924,21237,21549,21862,22174,22487,22799,23112,23424,23737,24049,24362,24674,24987,25299,25612,25924,26237,26549,26862,27174,27487,27799,28112,28424,28737,29049,29362,29674,29987,30299,30612,30924,31237,31549,31862,32174,32487,32799,33112,33424,33737,34049,34362,34674,34987,35299,35612,35924,36237,36549,36862,37174,37487,37799,38112,38424,38737,39049,39362,39674,39987,40299,40612,40924,41237,41549,41862,42174,42487,42799,43112,43424,43737,44049,44362,44674,44987,45299,45612,45924,46237,46549,46862,47174,47487,47799,48112,48424,48737,49049,49362,49674,49987,50299,50612,50924,51237,51549,51862,52174,52487,52799,53112,53424,53737,54049,54362,54674,54987,55299,55612,55924,56237,56549,56862,57174,57487,57799,58112,58424,58737,59049,59362,59674,59987,60299,60612,60924,61237,61549,61862,62174,62487,62799,63112,63424,63737,64049,64362,64674,64987,65299,65612,65924,66237,66549,66862,67174,67487,67799,68112,68424,68737,69049,69362,69674,69987,70299,70612,70924,71237,71549,71862,72174,72487,72799,73112,73424,73737,74049,74362,74674,74987,75299,75612,75924,76237,76549,76862,77174,77487,77799,78112,78424,78737,79049,79362,79674,79987,80299,80612,80924,81237,81549,81862,82174,82487,82799,83112,83424,83737,84049,84362,84674,84987,85299,85612,85924,86237,86549,86862,87174,87487,87799,88112,88424,88737,89049,89362,89674,89987,90299,90612,90924,91237,91549,91862,92174,92487,92799,93112,93424,93737,94049,94362,94674,94987,95299,95612,95924,96237,96549,96862,104362
DistanceSpacing: 1.4
BeatDivisor: 3
GridSize: 16
TimelineZoom: 1.9

[Metadata]
Title:Jin Jin Jingle Bells
TitleUnicode:ジン ジン ジングルベル
Artist:Twinkle Veil from SUPER*GiRLS
ArtistUnicode:トゥィンクルヴェール from SUPER☆GiRLS
Creator:ShogunMoon
Version:Akitoforce's Insane
Source:
Tags:christmas xmas kencho sdafsf beomsan deppyforce akitoshi karia koiyuki Minakami Yuki yf_bmp
BeatmapID:1475504
BeatmapSetID:696602

[Difficulty]
HPDrainRate:7
CircleSize:3.7
OverallDifficulty:7.7
ApproachRate:9
SliderMultiplier:1.6
SliderTickRate:1

[Events]
//Background and Video events
0,0,"preference.jpg",0,0
//Break Periods
//Storyboard Layer 0 (Background)
//Storyboard Layer 1 (Fail)
//Storyboard Layer 2 (Pass)
//Storyboard Layer 3 (Foreground)
Sprite,Foreground,Centre,"white.jpg",320,405 C,0,9987,,0,0,0 V,0,9987,,10,0.25 F,0,9987,10299,0,0.75 F,0,96862,104362,0.75,0
Sprite,Foreground,Centre,"aki.png",320,405 L,10612,138 S,0,0,100,1.2,1 F,0,0,313,1 F,0,313,625,0
Sprite,Foreground,Centre,"deppy.png",320,405 L,10924,138 S,0,0,100,1.2,1 F,0,0,313,1 F,0,313,625,0
Sprite,Foreground,Centre,"deppy.png",320,405 F,0,9987,10612,0,1
Sprite,Foreground,Centre,"aki.png",320,405 S,0,96862,96962,1.2,1 F,0,96862,104362,1,0
//Storyboard Sound Samples

[TimingPoints]
9362,312.5,4,2,1,15,1,0
9362,-133.333333333333,4,2,1,15,0,0
10612,-111.111111111111,4,2,1,35,0,0
11862,-86.9565217391304,4,2,1,55,0,0
41862,-100,4,2,1,45,0,0
61862,-86.9565217391304,4,2,1,75,0,1
81862,-166.666666666667,4,2,1,70,0,0
89362,-90.9090909090909,4,2,1,70,0,0

[Colours]
Combo1 : 254,231,139
Combo2 : 233,44,72
Combo3 : 218,157,129
SliderBorder : 100,150,80
SliderTrackOverride : 50,33,29

[HitObjects]
59,94,9987,6,0,P|123:164|191:99,1,210.000008010865,4|0,0:3|0:0,0:0:0:0:
194,66,10612,6,0,L|188:17,2,47.9999985351563,2|0|8,0:0|0:0|0:0,0:0:0:0:
271,98,10924,2,0,L|265:147,2,47.9999985351563,8|0|2,0:0|0:0|0:0,0:0:0:0:
338,42,11237,5,8,0:0:0:0:
385,45,11341,1,8,0:0:0:0:
426,69,11445,1,8,0:0:0:0:
443,115,11549,5,8,0:0:0:0:
396,118,11653,1,8,0:0:0:0:
355,142,11757,1,8,0:0:0:0:
331,192,11862,6,0,P|370:213|432:212,1,92.0000017547608,4|0,0:0|0:0,0:0:0:0:
290,282,12174,2,0,P|252:305|222:359,1,92.0000017547608,8|0,0:0|0:0,0:0:0:0:
320,384,12487,1,2,0:0:0:0:
198,229,12695,1,0,0:0:0:0:
173,202,12799,1,8,0:0:0:0:
401,239,13007,1,2,0:0:0:0:
418,271,13112,6,0,L|514:260,1,92.0000017547608,2|0,0:0|0:0,0:0:0:0:
372,116,13424,2,0,L|276:105,1,92.0000017547608,8|0,0:0|0:0,0:0:0:0:
372,251,13737,1,2,0:0:0:0:
479,88,13945,1,0,0:0:0:0:
500,58,14049,1,8,0:0:0:0:
268,70,14257,1,0,0:0:0:0:
281,105,14362,6,0,B|299:149|299:149|280:250,1,122.666669006348,2|0,0:0|0:0,0:0:0:0:
243,255,14674,2,0,B|225:211|225:211|244:110,1,122.666669006348,8|2,0:0|0:0,0:0:0:0:
281,105,14987,2,0,P|323:96|378:104,1,92.0000017547608,2|0,0:0|0:0,0:0:0:0:
359,241,15299,2,0,B|305:265|305:265|243:255,1,122.666669006348,8|2,0:0|0:0,0:0:0:0:
208,231,15612,6,0,P|151:254|91:249,1,122.666669006348,2|2,0:0|0:0,0:0:0:0:
45,229,15924,1,8,0:0:0:0:
67,342,16132,1,2,0:0:0:0:
66,342,16237,2,0,P|127:348|178:381,1,122.666669006348,2|0,0:0|0:0,0:0:0:0:
248,345,16549,2,0,B|258:299|258:299|244:256,1,92.0000017547608,8|0,0:0|0:0,0:0:0:0:
193,88,16862,6,0,L|305:79,1,92.0000017547608,2|0,0:0|0:0,0:0:0:0:
325,212,17174,2,0,L|272:136,1,92.0000017547608,8|0,0:0|0:0,0:0:0:0:
228,306,17487,1,2,0:0:0:0:
351,244,17695,1,0,0:0:0:0:
381,224,17799,1,8,0:0:0:0:
172,237,18007,1,2,0:0:0:0:
145,262,18112,6,0,P|100:273|53:264,1,92.0000017547608,2|0,0:0|0:0,0:0:0:0:
147,150,18424,2,0,P|168:191|171:237,1,92.0000017547608,8|0,0:0|0:0,0:0:0:0:
26,244,18737,1,2,0:0:0:0:
172,115,18945,1,0,0:0:0:0:
200,91,19049,1,8,0:0:0:0:
291,253,19257,1,0,0:0:0:0:
309,285,19362,6,0,L|417:278,1,92.0000017547608,2|0,0:0|0:0,0:0:0:0:
196,216,19674,2,0,L|135:125,1,92.0000017547608,8|0,0:0|0:0,0:0:0:0:
21,284,19987,2,0,P|81:294|137:271,1,122.666669006348,2|0,0:0|0:0,0:0:0:0:
196,216,20299,1,8,0:0:0:0:
265,29,20507,1,2,0:0:0:0:
346,30,20612,6,0,L|361:161,1,122.666669006348,2|2,0:0|0:0,0:0:0:0:
264,28,20924,2,0,P|261:89|226:138,1,122.666669006348,8|2,0:0|0:0,0:0:0:0:
144,139,21237,2,0,L|130:17,1,122.666669006348,2|8,0:0|0:0,0:0:0:0:
0,6,21549,1,8,0:0:0:0:
111,259,21862,6,0,P|159:262|219:237,1,92.0000017547608,2|0,0:0|0:0,0:0:0:0:
259,344,22174,1,8,0:0:0:0:
259,344,22487,2,0,P|300:299|308:220,1,122.666669006348,2|0,0:0|0:0,0:0:0:0:
348,116,22799,2,0,L|226:124,1,122.666669006348,8|2,0:0|0:0,0:0:0:0:
432,62,23112,6,0,B|479:155|399:150|446:264,1,184.000003509522,2|8,0:0|0:0,0:0:0:0:
298,322,23632,1,2,0:0:0:0:
298,322,23737,2,0,B|310:221|310:221|301:200,1,122.666669006348,2|2,0:0|0:0,0:0:0:0:
259,133,24049,2,0,P|303:118|349:117,1,92.0000017547608,8|0,0:0|0:0,0:0:0:0:
212,255,24362,6,0,P|166:253|122:238,1,92.0000017547608,2|0,0:0|0:0,0:0:0:0:
3,132,24674,1,8,0:0:0:0:
3,132,24987,2,0,P|24:172|33:217,1,92.0000017547608,2|0,0:0|0:0,0:0:0:0:
212,255,25299,2,0,P|213:193|228:134,1,122.666669006348,8|2,0:0|0:0,0:0:0:0:
284,66,25612,6,0,B|343:44|343:44|428:55,1,122.666669006348,2|2,0:0|0:0,0:0:0:0:
432,161,25924,2,0,B|373:169|373:169|314:147,1,122.666669006348,8|2,0:0|0:0,0:0:0:0:
183,99,26237,1,8,0:0:0:0:
154,146,26341,1,8,0:0:0:0:
148,200,26445,1,8,0:0:0:0:
157,253,26549,1,8,0:0:0:0:
316,342,26757,1,8,0:0:0:0:
316,342,26862,6,0,L|422:331,1,92.0000017547608,2|0,0:0|0:0,0:0:0:0:
239,209,27174,2,0,L|148:200,1,92.0000017547608,8|0,0:0|0:0,0:0:0:0:
57,252,27487,1,2,0:0:0:0:
183,99,27695,1,0,0:0:0:0:
183,99,27799,2,0,L|274:108,1,92.0000017547608,12|0,0:0|0:0,0:0:0:0:
414,229,28112,6,0,P|363:246|309:236,1,92.0000017547608,2|0,0:0|0:0,0:0:0:0:
352,71,28424,2,0,P|403:54|457:64,1,92.0000017547608,8|0,0:0|0:0,0:0:0:0:
506,135,28737,1,2,0:0:0:0:
401,253,28945,1,0,0:0:0:0:
401,253,29049,2,0,P|347:259|296:238,1,92.0000017547608,8|0,0:0|0:0,0:0:0:0:
187,87,29362,6,0,L|56:102,1,92.0000017547608,2|0,0:0|0:0,0:0:0:0:
22,287,29674,2,0,L|114:277,1,92.0000017547608,8|0,0:0|0:0,0:0:0:0:
297,324,29987,2,0,P|216:359|137:333,1,138.000002632141,2|0,0:0|0:0,0:0:0:0:
114,277,30299,1,8,0:0:0:0:
269,136,30507,1,2,0:0:0:0:
356,147,30612,6,0,L|370:273,1,122.666669006348,2|2,0:0|0:0,0:0:0:0:
456,283,30924,1,8,0:0:0:0:
512,117,31132,1,2,0:0:0:0:
507,29,31237,2,0,P|426:20|372:44,1,122.666669006348,2|0,0:0|0:0,0:0:0:0:
267,18,31549,2,0,B|205:30|205:30|132:3,1,122.666669006348,8|0,0:0|0:0,0:0:0:0:
114,141,31862,6,0,L|125:244,1,92.0000017547608,2|0,0:0|0:0,0:0:0:0:
297,186,32174,2,0,L|306:94,1,92.0000017547608,8|0,0:0|0:0,0:0:0:0:
388,33,32487,1,2,0:0:0:0:
488,201,32695,1,0,0:0:0:0:
488,201,32799,2,0,P|435:214|378:204,1,92.0000017547608,8|0,0:0|0:0,0:0:0:0:
216,103,33112,6,0,B|259:90|259:90|306:94,1,92.0000017547608,2|0,0:0|0:0,0:0:0:0:
213,223,33424,2,0,B|169:236|169:236|123:232,1,92.0000017547608,8|0,0:0|0:0,0:0:0:0:
32,186,33737,1,2,0:0:0:0:
202,312,33945,1,0,0:0:0:0:
202,312,34049,2,0,P|215:241|211:219,1,92.0000017547608,8|0,0:0|0:0,0:0:0:0:
306,94,34362,6,0,B|343:83|376:84|376:84|401:88|435:114,1,122.666669006348,2|0,0:0|0:0,0:0:0:0:
200,156,34674,1,8,0:0:0:0:
200,156,34987,2,0,P|153:236|167:336,1,184.000003509522,2|8,0:0|0:0,0:0:0:0:
289,179,35507,1,2,0:0:0:0:
306,94,35612,6,0,P|270:53|167:35,1,122.666669006348,2|2,0:0|0:0,0:0:0:0:
141,89,35924,1,8,0:0:0:0:
289,179,36132,1,2,0:0:0:0:
284,265,36237,2,0,L|428:251,1,122.666669006348,2|8,0:0|0:0,0:0:0:0:
493,184,36549,1,8,0:0:0:0:
493,184,36862,6,0,P|502:134|493:86,1,92.0000017547608,2|0,0:0|0:0,0:0:0:0:
406,253,37174,2,0,P|444:285|490:302,1,92.0000017547608,8|0,0:0|0:0,0:0:0:0:
388,146,37487,2,0,P|340:163|303:195,1,92.0000017547608,2|0,0:0|0:0,0:0:0:0:
205,302,37799,1,8,0:0:0:0:
205,302,38112,6,0,P|120:331|20:278,1,184.000003509522,2|8,0:0|0:0,0:0:0:0:
7,120,38632,1,2,0:0:0:0:
33,200,38737,2,0,L|127:196,1,92.0000017547608,2|0,0:0|0:0,0:0:0:0:
295,245,39049,2,0,P|311:289|301:346,1,92.0000017547608,8|0,0:0|0:0,0:0:0:0:
125,197,39362,6,0,L|139:89,1,92.0000017547608,6|0,0:0|0:0,0:0:0:0:
200,257,39674,2,0,L|214:149,1,92.0000017547608,8|0,0:0|0:0,0:0:0:0:
306,333,39987,2,0,P|370:334|427:305,1,122.666669006348,2|0,0:0|0:0,0:0:0:0:
458,229,40299,1,8,0:0:0:0:
417,70,40507,6,0,P|368:117|357:169,1,122.666669006348,2|0,0:0|0:0,0:0:0:0:
295,245,40820,1,0,0:0:0:0:
270,162,40924,2,0,L|147:153,1,122.666669006348,8|2,0:0|0:0,0:0:0:0:
78,40,41237,1,8,0:0:0:0:
31,70,41341,1,8,0:0:0:0:
7,120,41445,1,8,0:0:0:0:
0,175,41549,1,2,0:0:0:0:
120,274,41862,6,0,L|143:169,1,106.666666666667,2|0,0:0|0:0,0:0:0:0:
134,74,42174,1,8,0:0:0:0:
134,74,42487,2,0,P|177:46|294:52,2,160,2|8|2,0:0|0:0|0:0,0:0:0:0:
15,35,43320,1,2,0:0:0:0:
14,35,43424,2,0,P|7:87|24:137,1,106.666666666667,8|2,0:0|0:0,0:0:0:0:
120,274,43737,2,0,P|134:228|131:180,1,80,2|0,0:0|0:0,0:0:0:0:
256,63,44049,1,8,0:0:0:0:
314,311,44362,6,0,P|363:326|431:307,1,106.666666666667,2|0,0:0|0:0,0:0:0:0:
463,239,44674,2,0,P|451:189|401:139,1,106.666666666667,8|0,0:0|0:0,0:0:0:0:
325,146,44987,2,0,P|287:180|269:249,1,106.666666666667,2|0,0:0|0:0,0:0:0:0:
225,310,45299,1,8,0:0:0:0:
50,370,45507,1,2,0:0:0:0:
14,287,45612,6,0,L|13:187,1,80,2|0,0:0|0:0,0:0:0:0:
15,28,45924,1,8,0:0:0:0:
15,28,46237,2,0,P|58:20|133:53,1,106.666666666667,8|0,0:0|0:0,0:0:0:0:
216,4,46549,2,0,P|259:-4|334:29,1,106.666666666667,8|0,0:0|0:0,0:0:0:0:
323,184,46862,6,0,L|419:178,1,80,2|0,0:0|0:0,0:0:0:0:
262,89,47174,1,8,0:0:0:0:
262,89,47487,2,0,P|215:154|226:242,2,160,2|8|2,0:0|0:0|0:0,0:0:0:0:
126,153,48320,1,0,0:0:0:0:
126,153,48424,2,0,P|73:152|24:132,1,106.666666666667,8|2,0:0|0:0,0:0:0:0:
40,31,48737,1,0,0:0:0:0:
81,268,49049,1,8,0:0:0:0:
305,177,49362,6,0,P|370:178|423:146,1,106.666666666667,2|0,0:0|0:0,0:0:0:0:
384,25,49674,2,0,P|319:24|266:56,1,106.666666666667,8|0,0:0|0:0,0:0:0:0:
157,101,49987,2,0,L|165:225,1,106.666666666667,8|0,0:0|0:0,0:0:0:0:
172,315,50299,1,8,0:0:0:0:
373,315,50507,1,2,0:0:0:0:
457,382,50612,6,0,P|474:326|474:277,1,106.666666666667,2|2,0:0|0:0,0:0:0:0:
367,216,50924,1,8,0:0:0:0:
468,17,51237,2,0,P|467:70|451:121,1,106.666666666667,8|0,0:0|0:0,0:0:0:0:
367,216,51549,2,0,B|330:175|330:175|279:185,1,106.666666666667,8|0,0:0|0:0,0:0:0:0:
136,97,51862,6,0,L|46:93,1,80,2|0,0:0|0:0,0:0:0:0:
156,260,52174,1,8,0:0:0:0:
156,260,52487,2,0,P|88:241|1:269,2,160,2|12|2,0:0|0:0|0:0,0:0:0:0:
361,359,53320,1,2,0:0:0:0:
446,341,53424,2,0,L|452:220,1,106.666666666667,8|2,0:0|0:0,0:0:0:0:
372,194,53737,2,0,L|377:87,1,106.666666666667,2|0,0:0|0:0,0:0:0:0:
381,0,54049,1,8,0:0:0:0:
144,28,54362,6,0,P|132:87|156:140,1,106.666666666667,2|0,0:0|0:0,0:0:0:0:
276,152,54674,2,0,P|288:211|264:264,1,106.666666666667,8|0,0:0|0:0,0:0:0:0:
144,275,54987,2,0,P|132:334|156:387,1,106.666666666667,2|0,0:0|0:0,0:0:0:0:
232,384,55299,1,8,0:0:0:0:
389,220,55612,6,0,B|411:170|411:170|395:96,1,106.666666666667,0|0,0:0|0:0,0:0:0:0:
327,59,55924,2,0,B|272:64|272:64|216:115,1,106.666666666667,8|2,0:0|0:0,0:0:0:0:
218,194,56237,2,0,B|250:238|250:238|322:261,1,106.666666666667,8|0,0:0|0:0,0:0:0:0:
475,254,56549,1,8,0:0:0:0:
298,378,56757,1,0,0:0:0:0:
298,378,56862,6,0,P|252:346|137:349,2,160,2|8|2,0:0|0:0|0:0,0:0:0:0:
460,363,57799,1,8,0:0:0:0:
450,276,57955,6,0,L|429:114,1,160,0|0,0:0|0:0,0:0:0:0:
294,69,58424,2,0,P|254:63|216:74,1,80,8|0,0:0|0:0,0:0:0:0:
152,191,58737,2,0,P|205:202|237:193,1,80,2|0,0:0|0:0,0:0:0:0:
15,71,59049,1,8,0:0:0:0:
15,71,59362,6,0,L|27:202,1,106.666666666667,2|0,0:0|0:0,0:0:0:0:
30,261,59674,1,8,0:0:0:0:
181,369,59987,1,2,0:0:0:0:
228,377,60091,1,0,0:0:0:0:
275,369,60195,1,8,0:0:0:0:
313,339,60299,1,8,0:0:0:0:
384,45,60612,6,0,L|455:51,2,53.3333333333333,2|0|2,0:0|0:0|0:0,0:0:0:0:
317,102,60924,2,0,L|246:108,2,53.3333333333333,8|0|2,0:0|0:0|0:0,0:0:0:0:
389,150,61237,6,0,B|420:194|420:194|401:252,1,106.666666666667,8|2,0:0|0:0,0:0:0:0:
289,349,61549,2,0,B|258:305|258:305|277:247,1,106.666666666667,8|0,0:0|0:0,0:0:0:0:
181,67,61862,6,0,L|74:76,1,92.0000017547608,6|0,0:0|0:0,0:0:0:0:
2,224,62174,2,0,L|109:233,1,92.0000017547608,8|0,0:0|0:0,0:0:0:0:
275,255,62487,1,2,0:0:0:0:
70,345,62695,1,0,0:0:0:0:
37,362,62799,1,8,0:0:0:0:
104,127,63007,1,2,0:0:0:0:
102,89,63112,6,0,P|52:84|5:97,1,92.0000017547608,2|0,0:0|0:0,0:0:0:0:
202,96,63424,2,0,P|237:60|258:16,1,92.0000017547608,8|0,0:0|0:0,0:0:0:0:
454,76,63737,1,2,0:0:0:0:
242,196,63945,1,0,0:0:0:0:
276,208,64049,1,8,0:0:0:0:
453,227,64257,1,0,0:0:0:0:
422,247,64362,6,0,L|415:378,1,122.666669006348,2|0,0:0|0:0,0:0:0:0:
269,327,64674,2,0,B|260:266|260:266|276:207,1,122.666669006348,8|0,0:0|0:0,0:0:0:0:
331,117,64987,2,0,P|298:76|152:69,1,184.000003509522,2|8,0:0|0:0,0:0:0:0:
25,162,65455,1,0,0:0:0:0:
14,258,65559,6,0,B|29:279|34:346|34:346|39:309|60:290,1,153.333336257935,0|2,0:0|0:0,0:0:0:0:
124,356,65924,2,0,P|184:366|243:351,1,122.666669006348,8|2,0:0|0:0,0:0:0:0:
290,233,66237,2,0,P|353:223|415:240,1,122.666669006348,2|0,0:0|0:0,0:0:0:0:
435,384,66549,1,8,0:0:0:0:
464,154,66862,6,0,L|454:51,1,92.0000017547608,2|0,0:0|0:0,0:0:0:0:
264,47,67174,2,0,L|255:138,1,92.0000017547608,8|0,0:0|0:0,0:0:0:0:
146,297,67487,1,2,0:0:0:0:
347,232,67695,1,0,0:0:0:0:
382,222,67799,1,8,0:0:0:0:
122,175,68007,1,2,0:0:0:0:
87,161,68112,6,0,P|33:152|-4:165,1,92.0000017547608,2|0,0:0|0:0,0:0:0:0:
220,247,68424,2,0,P|264:257|308:245,1,92.0000017547608,8|0,0:0|0:0,0:0:0:0:
464,176,68737,1,2,0:0:0:0:
393,354,68945,1,0,0:0:0:0:
371,383,69049,1,8,0:0:0:0:
355,180,69257,1,0,0:0:0:0:
349,144,69362,6,0,L|332:17,1,122.666669006348,2|0,0:0|0:0,0:0:0:0:
254,56,69674,2,0,B|208:14|208:14|147:11,1,122.666669006348,8|0,0:0|0:0,0:0:0:0:
29,34,69987,2,0,P|73:53|71:193,1,184.000003509522,2|8,0:0|0:0,0:0:0:0:
18,324,70507,1,2,0:0:0:0:
96,359,70612,6,0,P|172:349|273:339,1,122.666669006348,2|2,0:0|0:0,0:0:0:0:
312,361,70924,2,0,P|372:354|433:346,1,122.666669006348,8|2,0:0|0:0,0:0:0:0:
489,228,71237,2,0,B|505:169|505:169|480:98,1,122.666669006348,2|2,0:0|0:0,0:0:0:0:
420,0,71549,1,8,0:0:0:0:
302,217,71862,6,0,P|379:256|499:223,2,184.000003509522,2|8|2,0:0|0:0|0:0,0:0:0:0:
125,383,72799,1,8,0:0:0:0:
46,156,73112,6,0,P|95:124|174:126,1,122.666669006348,2|2,0:0|0:0,0:0:0:0:
231,172,73424,1,8,0:0:0:0:
278,370,73632,1,2,0:0:0:0:
365,338,73737,2,0,B|397:286|397:286|407:226,1,122.666669006348,2|0,0:0|0:0,0:0:0:0:
373,149,74049,1,8,0:0:0:0:
373,149,74362,6,0,P|302:131|231:145,1,122.666669006348,2|0,0:0|0:0,0:0:0:0:
200,250,74674,2,0,P|139:255|80:237,1,122.666669006348,8|0,0:0|0:0,0:0:0:0:
10,135,74987,2,0,L|17:32,1,92.0000017547608,2|0,0:0|0:0,0:0:0:0:
177,0,75299,1,8,0:0:0:0:
219,222,75612,5,2,0:0:0:0:
252,266,75716,1,0,0:0:0:0:
301,289,75820,1,2,0:0:0:0:
354,296,75924,1,8,0:0:0:0:
351,84,76237,5,8,0:0:0:0:
392,48,76341,1,8,0:0:0:0:
446,39,76445,1,8,0:0:0:0:
499,49,76549,1,2,0:0:0:0:
490,251,76862,6,0,P|416:205|307:210,2,184.000003509522,2|8|2,0:0|0:0|0:0,0:0:0:0:
259,317,77799,1,8,0:0:0:0:
204,87,78112,6,0,L|66:75,1,122.666669006348,2|0,0:0|0:0,0:0:0:0:
25,147,78424,1,8,0:0:0:0:
140,327,78632,1,2,0:0:0:0:
140,327,78737,2,0,B|201:307|201:307|284:321,1,122.666669006348,2|0,0:0|0:0,0:0:0:0:
337,357,79049,1,8,0:0:0:0:
491,201,79362,6,0,P|503:137|477:63,1,122.666669006348,2|0,0:0|0:0,0:0:0:0:
397,49,79674,2,0,P|335:70|284:130,1,122.666669006348,8|0,0:0|0:0,0:0:0:0:
312,207,79987,2,0,P|361:249|438:263,1,122.666669006348,2|0,0:0|0:0,0:0:0:0:
491,201,80299,1,8,0:0:0:0:
271,130,80507,1,2,0:0:0:0:
271,130,80612,6,0,B|133:117,1,122.666669006348,2|2,0:0|0:0,0:0:0:0:
91,198,80924,2,0,B|148:324,1,122.666669006348,8|2,0:0|0:0,0:0:0:0:
239,320,81237,2,0,B|319:206,1,122.666669006348,8|0,0:0|0:0,0:0:0:0:
369,147,81549,1,8,0:0:0:0:
48,116,81862,6,0,P|41:74|59:11,1,95.9999970703126,2|0,0:0|0:0,0:0:0:0:
275,36,82487,2,0,P|282:78|264:141,1,95.9999970703126,8|0,0:0|0:0,0:0:0:0:
186,258,83112,2,0,L|251:262,1,63.9999980468751,2|8,0:0|0:0,0:0:0:0:
263,263,83424,1,2,0:0:0:0:
391,270,83737,2,0,P|408:231|403:178,1,95.9999970703126,8|0,0:0|0:0,0:0:0:0:
403,178,84362,6,0,B|401:123|421:84|421:84|465:95|510:130,1,191.999994140625,2|8,0:0|0:0,0:0:0:0:
404,316,85507,5,8,0:0:0:0:
404,316,85612,1,2,0:0:0:0:
316,262,85820,1,8,0:0:0:0:
316,262,85924,2,0,L|250:268,1,63.9999980468751,2|2,0:0|0:0,0:0:0:0:
201,248,86237,2,0,P|184:215|183:175,1,63.9999980468751,8|8,0:0|0:0,0:0:0:0:
201,141,86862,6,0,B|293:117|293:117|272:49|217:49,1,191.999994140625,2|8,0:0|0:0,0:0:0:0:
39,171,88007,5,8,0:0:0:0:
39,171,88112,2,0,B|72:174|72:174|106:168,1,63.9999980468751,2|8,0:0|0:0,0:0:0:0:
120,161,88424,1,2,0:0:0:0:
197,275,88737,1,8,0:0:0:0:
243,295,88841,1,8,0:0:0:0:
294,294,88945,1,8,0:0:0:0:
340,273,89049,2,0,L|348:208,1,63.9999980468751,2|2,0:0|0:0,0:0:0:0:
355,168,89362,6,0,P|410:189|480:162,1,117.333336914063,2|0,0:0|0:0,0:0:0:0:
463,71,89674,2,0,P|408:50|338:77,1,117.333336914063,8|0,0:0|0:0,0:0:0:0:
275,117,89987,2,0,B|220:99|220:99|152:112,1,117.333336914063,2|0,0:0|0:0,0:0:0:0:
153,211,90299,2,0,B|208:229|208:229|267:218,1,117.333336914063,8|2,0:0|0:0,0:0:0:0:
355,168,90612,6,0,L|370:297,1,117.333336914063,2|0,0:0|0:0,0:0:0:0:
478,290,90924,2,0,L|464:173,1,117.333336914063,8|0,0:0|0:0,0:0:0:0:
463,71,91237,2,0,P|400:74|321:1,1,176.000005371094,2|8,0:0|0:0,0:0:0:0:
148,93,91862,6,0,P|92:73|23:88,1,117.333336914063,2|0,0:0|0:0,0:0:0:0:
20,180,92174,2,0,P|75:200|133:192,1,117.333336914063,8|0,0:0|0:0,0:0:0:0:
225,160,92487,2,0,L|246:286,1,117.333336914063,2|0,0:0|0:0,0:0:0:0:
347,313,92799,2,0,L|327:197,1,117.333336914063,8|2,0:0|0:0,0:0:0:0:
368,95,93112,6,0,B|427:84|427:84|485:101,1,117.333336914063,2|0,0:0|0:0,0:0:0:0:
442,203,93424,2,0,B|383:214|383:214|327:197,1,117.333336914063,8|0,0:0|0:0,0:0:0:0:
262,57,93737,2,0,P|209:37|144:43,1,117.333336914063,2|0,0:0|0:0,0:0:0:0:
88,167,94049,1,8,0:0:0:0:
88,167,94362,6,0,B|115:353,3,176.000005371094,2|8|2|8,0:0|0:0|0:0|0:0,0:0:0:0:
113,341,95612,2,0,L|115:158,1,176.000005371094,2|8,0:0|0:0,0:0:0:0:
254,6,96237,5,8,0:0:0:0:
223,48,96341,1,8,0:0:0:0:
174,68,96445,1,8,0:0:0:0:
121,68,96549,1,2,0:0:0:0:
113,341,96862,5,0,0:0:0:0:
256,192,96940,12,2,104362,0:0:0:0:
