osu file format v14

[General]
AudioFilename: Twintail Dreamer! moe.mp3
AudioLeadIn: 0
PreviewTime: 52759
Countdown: 0
SampleSet: Soft
StackLeniency: 0.7
Mode: 3
LetterboxInBreaks: 0
SpecialStyle: 0
WidescreenStoryboard: 0

[Editor]
DistanceSpacing: 1
BeatDivisor: 4
GridSize: 4
TimelineZoom: 1.2

[Metadata]
Title:Twintail Dreamer! (TV Size)
TitleUnicode:ツインテール・ドリーマー! (TV Size)
Artist:Twin-Tails
ArtistUnicode:ツインテイルズ
Creator:Niks
Version:Normal
Source:俺、ツインテールになります。
Tags:Fontes Seulgi jpop j-pop pop japanese anime twintails ore twintail ni narimasu. ending ed gonna be the twin-tails!! テイルレッド tail red 上坂すみれ uesaka sumire テイルブルー blue 相坂優歌 aisaka yuuka テイルイエロー yellow 赤﨑千夏 chinatsu akasaki PCCG-70223 papiyon short version ver
BeatmapID:4104708
BeatmapSetID:1977298

[Difficulty]
HPDrainRate:7
CircleSize:4
OverallDifficulty:7
ApproachRate:5
SliderMultiplier:1.4
SliderTickRate:1

[Events]
//Background and Video events
0,0,"BG.jpg",0,0
//Break Periods
//Storyboard Layer 0 (Background)
//Storyboard Layer 1 (Fail)
//Storyboard Layer 2 (Pass)
//Storyboard Layer 3 (Foreground)
//Storyboard Layer 4 (Overlay)
//Storyboard Sound Samples
Sample,22669,0,"F#6H_Gb6H.wav",70
Sample,25093,0,"F#6H_Gb6H.wav",70
Sample,27518,0,"F#6H_Gb6H.wav",70
Sample,77066,0,"G6H.wav",70
Sample,77366,0,"A6H.wav",70
Sample,77871,0,"G6H.wav",70

[TimingPoints]
335,303.030303030303,4,2,1,70,1,0
53516,-100,4,2,1,70,0,1
63213,-100,4,2,1,70,0,1
72910,-100,4,2,1,70,0,0

[HitObjects]
320,192,335,128,0,941:0:0:0:0:
192,192,1244,128,0,1850:0:0:0:0:
64,192,1850,1,0,0:0:0:0:
448,192,1850,128,0,2153:0:0:0:70:G6H.wav
192,192,2153,1,0,0:0:0:70:F#6H_Gb6H.wav
320,192,2153,1,0,0:0:0:0:
448,192,2304,1,0,0:0:0:70:G6H.wav
320,192,2607,1,0,0:0:0:70:D7H.wav
64,192,2607,128,0,3819:0:0:0:0:
192,192,3062,1,0,0:0:0:70:G6H.wav
320,192,3365,1,0,0:0:0:70:F#6H_Gb6H.wav
192,192,3516,1,0,0:0:0:70:G6H.wav
320,192,3819,1,0,0:0:0:70:G6H.wav
448,192,3819,128,0,5031:0:0:0:0:
64,192,4274,1,0,0:0:0:70:G6H.wav
192,192,4577,1,0,0:0:0:70:F#6H_Gb6H.wav
320,192,4728,1,0,0:0:0:70:G6H.wav
64,192,5031,128,0,5789:0:0:0:0:
192,192,5031,1,0,0:0:0:70:D7H.wav
320,192,5486,1,0,0:0:0:70:G6H.wav
448,192,5789,128,0,6244:0:0:0:0:
192,192,5789,1,0,0:0:0:70:F#6H_Gb6H.wav
320,192,5941,1,0,0:0:0:70:G6H.wav
64,192,6244,128,0,6698:0:0:0:0:
192,192,6244,1,0,0:0:0:70:B6H.wav
320,192,6698,1,0,0:0:0:70:C7H.wav
448,192,6698,128,0,7001:0:0:0:0:
64,192,7001,1,0,0:0:0:70:B6H.wav
192,192,7153,1,0,0:0:0:0:
320,192,7304,1,0,0:0:0:0:
64,192,7456,128,0,7910:0:0:0:0:
448,192,7456,1,0,0:0:0:70:G6H.wav
320,192,7910,1,0,0:0:0:0:
192,192,7910,1,0,0:0:0:0:
64,192,8213,1,0,0:0:0:0:
448,192,8213,1,0,0:0:0:0:
192,192,8516,1,0,0:0:0:0:
320,192,8516,1,0,0:0:0:70:D6H.wav
448,192,8819,1,0,0:0:0:70:G6H.wav
320,192,8819,1,0,0:0:0:0:
192,192,9122,1,0,0:0:0:0:
64,192,9122,1,0,0:0:0:70:D6H.wav
448,192,9425,1,0,0:0:0:70:D7H.wav
320,192,9425,128,0,9728:0:0:0:0:
192,192,9728,1,0,0:0:0:70:G6H.wav
448,192,9880,1,0,0:0:0:70:A6H.wav
64,192,9880,128,0,10334:0:0:0:0:
320,192,10334,1,0,0:0:0:0:
192,192,10334,1,0,0:0:0:0:
64,192,10638,1,0,0:0:0:0:
448,192,10638,1,0,0:0:0:0:
192,192,10941,1,0,0:0:0:70:G6H.wav
320,192,10941,1,0,0:0:0:0:
192,192,11244,1,0,0:0:0:0:
64,192,11244,1,0,0:0:0:70:F#6H_Gb6H.wav
320,192,11547,1,0,0:0:0:0:
448,192,11547,1,0,0:0:0:70:G6H.wav
64,192,11850,1,0,0:0:0:70:A6H.wav
192,192,12001,1,0,0:0:0:0:
320,192,12153,1,0,0:0:0:0:
192,192,12304,128,0,12607:0:0:0:70:G6H.wav
448,192,12607,1,0,0:0:0:0:
64,192,12759,128,0,13062:0:0:0:0:
320,192,13062,128,0,13365:0:0:0:0:
448,192,13365,128,0,13516:0:0:0:0:
64,192,13516,128,0,13819:0:0:0:0:
448,192,13819,1,0,0:0:0:0:
192,192,13971,128,0,14274:0:0:0:0:
320,192,14274,128,0,14577:0:0:0:0:
192,192,14577,128,0,14728:0:0:0:0:
448,192,14728,128,0,15031:0:0:0:0:
320,192,15031,1,0,0:0:0:0:
64,192,15183,128,0,15486:0:0:0:0:
192,192,15486,128,0,15789:0:0:0:0:
320,192,15789,128,0,15941:0:0:0:0:
448,192,15941,128,0,16244:0:0:0:0:
64,192,16244,1,0,0:0:0:0:
320,192,16395,128,0,16698:0:0:0:0:
64,192,16698,128,0,17001:0:0:0:0:
192,192,17001,128,0,17153:0:0:0:0:
448,192,17153,128,0,17456:0:0:0:0:
320,192,17456,1,0,0:0:0:0:
192,192,17607,1,0,0:0:0:0:
64,192,17759,1,0,0:0:0:0:
448,192,17910,1,0,0:0:0:0:
320,192,18062,1,0,0:0:0:0:
192,192,18213,1,0,0:0:0:0:
320,192,18365,128,0,18668:0:0:0:0:
64,192,18668,1,0,0:0:0:0:
448,192,18819,1,0,0:0:0:0:
192,192,18971,1,0,0:0:0:0:
320,192,19122,1,0,0:0:0:0:
448,192,19274,1,0,0:0:0:0:
192,192,19425,1,0,0:0:0:0:
64,192,19577,128,0,20335:0:0:0:0:
320,192,19880,1,0,0:0:0:0:
448,192,20031,1,0,0:0:0:0:
320,192,20335,1,0,0:0:0:0:
192,192,20486,1,0,0:0:0:0:
64,192,20638,1,0,0:0:0:0:
448,192,20789,128,0,21547:0:0:0:0:
192,192,21092,1,0,0:0:0:0:
320,192,21244,1,0,0:0:0:0:
64,192,21547,128,0,22153:0:0:0:70:B5H.wav
448,192,21850,128,0,22153:0:0:0:70:C6H.wav
320,192,22153,1,0,0:0:0:70:D6H.wav
320,192,22456,1,0,0:0:0:70:G6H.wav
320,192,22759,1,0,0:0:0:0:
192,192,22910,1,0,0:0:0:70:D6H.wav
320,192,23062,1,0,0:0:0:0:
192,192,23213,1,0,0:0:0:70:D6H.wav
448,192,23365,1,0,0:0:0:0:
448,192,23668,1,0,0:0:0:0:
448,192,23971,1,0,0:0:0:70:B5H.wav
64,192,24122,1,0,0:0:0:0:
448,192,24274,1,0,0:0:0:70:C6H.wav
64,192,24425,1,0,0:0:0:0:
192,192,24577,1,0,0:0:0:70:D6H.wav
192,192,24880,1,0,0:0:0:70:G6H.wav
192,192,25183,1,0,0:0:0:0:
320,192,25335,1,0,0:0:0:70:D6H.wav
192,192,25486,1,0,0:0:0:0:
320,192,25638,1,0,0:0:0:70:D6H.wav
64,192,25789,1,0,0:0:0:0:
64,192,26092,1,0,0:0:0:0:
448,192,26244,1,0,0:0:0:0:
64,192,26395,1,0,0:0:0:70:B5H.wav
448,192,26547,1,0,0:0:0:0:
64,192,26698,1,0,0:0:0:70:C6H.wav
448,192,27001,1,0,0:0:0:70:D6H.wav
448,192,27304,1,0,0:0:0:70:G6H.wav
448,192,27607,1,0,0:0:0:0:
64,192,27759,1,0,0:0:0:70:D6H.wav
448,192,27910,1,0,0:0:0:0:
64,192,28062,1,0,0:0:0:70:D6H.wav
320,192,28213,1,0,0:0:0:0:
320,192,28516,1,0,0:0:0:70:C6H.wav
192,192,28668,1,0,0:0:0:0:
320,192,28819,1,0,0:0:0:70:B5H.wav
192,192,28971,1,0,0:0:0:0:
320,192,29122,1,0,0:0:0:70:C6H.wav
64,192,29425,1,0,0:0:0:70:B5H.wav
64,192,29728,1,0,0:0:0:70:G5H.wav
448,192,29880,1,0,0:0:0:70:G5H.wav
64,192,30031,1,0,0:0:0:0:
448,192,30183,1,0,0:0:0:70:B5H.wav
320,192,30183,1,0,0:0:0:0:
64,192,30486,128,0,30941:0:0:0:70:A5H.wav
448,192,30789,1,0,0:0:0:0:
320,192,30941,1,0,0:0:0:0:
192,192,30941,1,0,0:0:0:0:
320,192,31244,128,0,31547:0:0:0:70:B5H.wav
192,192,31547,128,0,31850:0:0:0:70:C6H.wav
64,192,31547,1,0,0:0:0:0:
448,192,31850,1,0,0:0:0:70:D6H.wav
192,192,32153,1,0,0:0:0:70:G6H.wav
320,192,32153,1,0,0:0:0:0:
64,192,32304,128,0,32607:0:0:0:70:F#6H_Gb6H.wav
192,192,32607,128,0,32910:0:0:0:70:D6H.wav
320,192,32910,128,0,33213:0:0:0:70:D6H.wav
192,192,33213,1,0,0:0:0:0:
448,192,33365,1,0,0:0:0:0:
64,192,33365,1,0,0:0:0:0:
192,192,33668,128,0,33971:0:0:0:70:B5H.wav
320,192,33971,128,0,34274:0:0:0:70:C6H.wav
448,192,33971,1,0,0:0:0:0:
64,192,34274,128,0,34577:0:0:0:70:D6H.wav
320,192,34577,1,0,0:0:0:70:G6H.wav
192,192,34577,1,0,0:0:0:0:
448,192,34728,128,0,35031:0:0:0:70:F#6H_Gb6H.wav
320,192,35031,128,0,35334:0:0:0:70:D6H.wav
192,192,35334,128,0,35638:0:0:0:70:D6H.wav
320,192,35638,1,0,0:0:0:0:
64,192,35789,1,0,0:0:0:0:
448,192,35789,1,0,0:0:0:0:
320,192,36092,128,0,36395:0:0:0:70:B5H.wav
64,192,36395,128,0,36698:0:0:0:70:C6H.wav
448,192,36395,1,0,0:0:0:0:
192,192,36698,128,0,37001:0:0:0:70:D6H.wav
448,192,37001,1,0,0:0:0:0:
64,192,37001,1,0,0:0:0:70:G6H.wav
320,192,37153,1,0,0:0:0:70:F#6H_Gb6H.wav
192,192,37456,1,0,0:0:0:70:D6H.wav
64,192,37607,1,0,0:0:0:0:
448,192,37607,1,0,0:0:0:0:
320,192,37759,1,0,0:0:0:70:D6H.wav
320,192,38062,1,0,0:0:0:0:
64,192,38213,1,0,0:0:0:0:
448,192,38213,1,0,0:0:0:70:C6H.wav
192,192,38365,1,0,0:0:0:0:
320,192,38516,1,0,0:0:0:70:B5H.wav
192,192,38668,1,0,0:0:0:0:
448,192,38819,1,0,0:0:0:70:C6H.wav
64,192,38819,1,0,0:0:0:0:
192,192,39122,1,0,0:0:0:70:B5H.wav
320,192,39274,1,0,0:0:0:0:
448,192,39425,1,0,0:0:0:0:
64,192,39425,1,0,0:0:0:70:G5H.wav
320,192,39577,1,0,0:0:0:70:G5H.wav
192,192,39728,1,0,0:0:0:0:
448,192,39880,1,0,0:0:0:70:B5H.wav
320,192,40031,1,0,0:0:0:0:
64,192,40031,1,0,0:0:0:0:
192,192,40183,1,0,0:0:0:70:A5H.wav
64,192,40486,1,0,0:0:0:0:
448,192,40638,1,0,0:0:0:0:
320,192,40638,1,0,0:0:0:0:
192,192,40789,1,0,0:0:0:0:
448,192,40941,1,0,0:0:0:70:G5H.wav
320,192,41092,1,0,0:0:0:0:
64,192,41244,1,0,0:0:0:0:
192,192,41244,1,0,0:0:0:70:A5H.wav
64,192,41547,1,0,0:0:0:70:B5H.wav
448,192,41547,1,0,0:0:0:0:
192,192,41850,1,0,0:0:0:70:C6H.wav
64,192,42153,1,0,0:0:0:70:B5H.wav
448,192,42153,1,0,0:0:0:0:
320,192,42304,1,0,0:0:0:70:C6H.wav
192,192,42456,1,0,0:0:0:0:
448,192,42607,128,0,42910:0:0:0:70:D6H.wav
64,192,43062,128,0,43365:0:0:0:70:C6H.wav
448,192,43365,1,0,0:0:0:0:
192,192,43365,128,0,43668:0:0:0:70:B5H.wav
320,192,43668,128,0,43971:0:0:0:70:C6H.wav
192,192,43971,1,0,0:0:0:70:B5H.wav
448,192,44274,1,0,0:0:0:0:
64,192,44274,1,0,0:0:0:70:C6H.wav
320,192,44577,1,0,0:0:0:70:D#6H_Eb6H.wav
192,192,44728,1,0,0:0:0:70:F#6H_Gb6H.wav
64,192,45031,1,0,0:0:0:0:
448,192,45031,1,0,0:0:0:70:G6H.wav
320,192,45334,1,0,0:0:0:0:
64,192,45486,1,0,0:0:0:0:
448,192,45486,1,0,0:0:0:70:D6H.wav
192,192,45789,1,0,0:0:0:70:C6H.wav
320,192,45941,1,0,0:0:0:70:B5H.wav
64,192,46092,1,0,0:0:0:0:
448,192,46092,1,0,0:0:0:0:
192,192,46244,128,0,46698:0:0:0:70:C6H.wav
320,192,46698,128,0,47001:0:0:0:70:B5H.wav
448,192,47001,1,0,0:0:0:0:
64,192,47001,128,0,47304:0:0:0:70:G5H.wav
448,192,47304,128,0,47607:0:0:0:70:A5H.wav
192,192,47607,128,0,47910:0:0:0:70:A5H.wav
320,192,47910,128,0,48213:0:0:0:70:B5H.wav
64,192,48213,1,0,0:0:0:70:A5H.wav
192,192,48213,1,0,0:0:0:0:
448,192,48365,1,0,0:0:0:0:
320,192,48516,1,0,0:0:0:0:
192,192,48516,1,0,0:0:0:70:G5H.wav
64,192,48668,1,0,0:0:0:0:
448,192,48819,1,0,0:0:0:70:G5H.wav
320,192,48819,1,0,0:0:0:0:
192,192,49122,1,0,0:0:0:0:
448,192,49274,128,0,49425:0:0:0:0:
64,192,49425,1,0,0:0:0:0:
320,192,49577,128,0,49728:0:0:0:0:
192,192,49728,1,0,0:0:0:0:
448,192,49880,128,0,50031:0:0:0:0:
64,192,50031,1,0,0:0:0:0:
320,192,50183,128,0,50334:0:0:0:0:
192,192,50334,128,0,50486:0:0:0:0:
64,192,50486,128,0,50638:0:0:0:0:
320,192,50638,1,0,0:0:0:0:
192,192,50789,1,0,0:0:0:0:
320,192,50941,1,0,0:0:0:0:
192,192,51092,1,0,0:0:0:0:
64,192,51244,128,0,51547:0:0:0:0:
448,192,51244,128,0,51547:0:0:0:0:
320,192,51547,1,0,0:0:0:0:
64,192,51850,1,0,0:0:0:0:
448,192,51850,1,0,0:0:0:0:
192,192,52001,1,0,0:0:0:0:
320,192,52153,1,0,0:0:0:0:
448,192,52304,1,0,0:0:0:0:
64,192,52304,1,0,0:0:0:0:
320,192,52759,128,0,53062:0:0:0:70:G6H.wav
64,192,53062,128,0,53213:0:0:0:70:F#6H_Gb6H.wav
448,192,53213,128,0,53365:0:0:0:70:G6H.wav
64,192,53516,1,0,0:0:0:100:D7H.wav
192,192,53516,128,0,53819:0:0:0:0:
320,192,53819,1,0,0:0:0:0:
448,192,53971,1,0,0:0:0:70:G6H.wav
64,192,53971,1,0,0:0:0:0:
192,192,54274,1,0,0:0:0:70:F#6H_Gb6H.wav
320,192,54425,1,0,0:0:0:70:G6H.wav
448,192,54577,1,0,0:0:0:0:
64,192,54577,1,0,0:0:0:0:
192,192,54728,1,0,0:0:0:70:G6H.wav
320,192,55031,1,0,0:0:0:0:
448,192,55183,1,0,0:0:0:70:G6H.wav
64,192,55183,1,0,0:0:0:0:
320,192,55486,1,0,0:0:0:70:F#6H_Gb6H.wav
192,192,55638,1,0,0:0:0:70:G6H.wav
448,192,55789,1,0,0:0:0:0:
64,192,55789,1,0,0:0:0:0:
320,192,55941,128,0,56244:0:0:0:100:D7H.wav
192,192,56244,1,0,0:0:0:0:
64,192,56395,1,0,0:0:0:70:G6H.wav
448,192,56395,1,0,0:0:0:0:
192,192,56698,1,0,0:0:0:70:F#6H_Gb6H.wav
320,192,56850,1,0,0:0:0:70:G6H.wav
448,192,57001,1,0,0:0:0:0:
64,192,57001,1,0,0:0:0:0:
192,192,57153,1,0,0:0:0:70:B6H.wav
320,192,57456,1,0,0:0:0:0:
448,192,57607,1,0,0:0:0:70:G6H.wav
64,192,57607,1,0,0:0:0:0:
320,192,57910,1,0,0:0:0:70:F#6H_Gb6H.wav
192,192,58062,1,0,0:0:0:70:G6H.wav
64,192,58213,1,0,0:0:0:0:
448,192,58213,1,0,0:0:0:0:
192,192,58365,128,0,58668:0:0:0:100:D7H.wav
320,192,58668,1,0,0:0:0:0:
448,192,58819,1,0,0:0:0:0:
64,192,58819,128,0,59122:0:0:0:70:G6H.wav
320,192,59122,128,0,59425:0:0:0:70:F#6H_Gb6H.wav
192,192,59425,128,0,59728:0:0:0:70:G6H.wav
448,192,59425,1,0,0:0:0:0:
64,192,59728,1,0,0:0:0:100:B6H.wav
448,192,59728,1,0,0:0:0:0:
192,192,60031,1,0,0:0:0:100:A6H.wav
320,192,60031,1,0,0:0:0:0:
64,192,60334,1,0,0:0:0:100:C7H.wav
192,192,60334,1,0,0:0:0:0:
448,192,60638,1,0,0:0:0:0:
320,192,60638,1,0,0:0:0:100:B6H.wav
448,192,60941,1,0,0:0:0:70:A6H.wav
64,192,60941,1,0,0:0:0:0:
64,192,61244,1,0,0:0:0:0:
448,192,61244,1,0,0:0:0:70:B6H.wav
192,192,61395,1,0,0:0:0:0:
320,192,61395,1,0,0:0:0:70:A6H.wav
320,192,61698,1,0,0:0:0:70:G6H.wav
192,192,61698,1,0,0:0:0:0:
64,192,62001,1,0,0:0:0:0:
448,192,62001,1,0,0:0:0:70:B6H.wav
448,192,62456,1,0,0:0:0:70:G6H.wav
64,192,62456,1,0,0:0:0:0:
320,192,62759,1,0,0:0:0:0:
192,192,62759,1,0,0:0:0:70:F#6H_Gb6H.wav
64,192,62910,1,0,0:0:0:70:G6H.wav
320,192,63062,1,0,0:0:0:0:
192,192,63062,1,0,0:0:0:0:
64,192,63213,128,0,63516:0:0:0:100:D7H.wav
448,192,63213,1,0,0:0:0:0:
448,192,63516,1,0,0:0:0:0:
320,192,63668,1,0,0:0:0:0:
192,192,63668,1,0,0:0:0:70:G6H.wav
64,192,63971,1,0,0:0:0:70:F#6H_Gb6H.wav
448,192,64122,1,0,0:0:0:70:G6H.wav
192,192,64274,1,0,0:0:0:0:
320,192,64274,1,0,0:0:0:0:
448,192,64425,1,0,0:0:0:70:G6H.wav
64,192,64728,1,0,0:0:0:0:
320,192,64880,1,0,0:0:0:0:
192,192,64880,1,0,0:0:0:70:G6H.wav
448,192,65183,1,0,0:0:0:70:F#6H_Gb6H.wav
64,192,65334,1,0,0:0:0:70:G6H.wav
192,192,65486,1,0,0:0:0:0:
320,192,65486,1,0,0:0:0:0:
64,192,65638,128,0,65941:0:0:0:100:D7H.wav
448,192,65941,1,0,0:0:0:0:
192,192,66092,1,0,0:0:0:0:
320,192,66092,1,0,0:0:0:70:G6H.wav
448,192,66395,1,0,0:0:0:70:F#6H_Gb6H.wav
64,192,66547,1,0,0:0:0:70:G6H.wav
192,192,66698,1,0,0:0:0:0:
320,192,66698,1,0,0:0:0:0:
448,192,66850,128,0,67153:0:0:0:70:B6H.wav
64,192,67153,1,0,0:0:0:0:
192,192,67304,1,0,0:0:0:70:C7H.wav
320,192,67304,1,0,0:0:0:0:
448,192,67456,1,0,0:0:0:0:
192,192,67607,1,0,0:0:0:70:B6H.wav
320,192,67607,1,0,0:0:0:0:
64,192,67759,1,0,0:0:0:0:
320,192,67910,1,0,0:0:0:70:A6H.wav
192,192,67910,1,0,0:0:0:0:
448,192,68062,128,0,68365:0:0:0:70:G6H.wav
320,192,68365,1,0,0:0:0:0:
192,192,68516,1,0,0:0:0:0:
64,192,68516,1,0,0:0:0:0:
192,192,68819,1,0,0:0:0:0:
320,192,68971,1,0,0:0:0:0:
64,192,69122,1,0,0:0:0:0:
448,192,69122,1,0,0:0:0:70:D6H.wav
192,192,69425,1,0,0:0:0:70:G6H.wav
448,192,69728,1,0,0:0:0:70:D6H.wav
64,192,69728,1,0,0:0:0:0:
320,192,70031,1,0,0:0:0:70:D7H.wav
192,192,70183,1,0,0:0:0:0:
448,192,70334,1,0,0:0:0:70:G6H.wav
64,192,70334,1,0,0:0:0:0:
192,192,70486,128,0,70789:0:0:0:70:A6H.wav
64,192,70789,1,0,0:0:0:0:
320,192,70941,1,0,0:0:0:0:
448,192,70941,1,0,0:0:0:0:
192,192,71244,1,0,0:0:0:0:
320,192,71395,1,0,0:0:0:0:
448,192,71547,1,0,0:0:0:70:G6H.wav
64,192,71547,1,0,0:0:0:0:
192,192,71850,1,0,0:0:0:70:F#6H_Gb6H.wav
320,192,72153,1,0,0:0:0:70:G6H.wav
448,192,72153,1,0,0:0:0:0:
64,192,72456,1,0,0:0:0:70:A6H.wav
192,192,72456,1,0,0:0:0:0:
448,192,72607,1,0,0:0:0:0:
192,192,72759,1,0,0:0:0:0:
320,192,72759,1,0,0:0:0:0:
64,192,72910,128,0,73365:0:0:0:70:G6H.wav
192,192,73365,1,0,0:0:0:0:
320,192,73365,1,0,0:0:0:0:
320,192,73668,1,0,0:0:0:0:
448,192,73668,1,0,0:0:0:0:
192,192,73971,1,0,0:0:0:70:D6H.wav
64,192,73971,1,0,0:0:0:0:
64,192,74274,1,0,0:0:0:70:G6H.wav
448,192,74274,1,0,0:0:0:0:
320,192,74577,1,0,0:0:0:70:D6H.wav
192,192,74577,1,0,0:0:0:0:
64,192,74880,1,0,0:0:0:100:D7H.wav
448,192,74880,1,0,0:0:0:0:
192,192,75183,1,0,0:0:0:0:
320,192,75183,1,0,0:0:0:70:G6H.wav
448,192,75334,128,0,75789:0:0:0:70:A6H.wav
320,192,75789,1,0,0:0:0:0:
64,192,75789,1,0,0:0:0:0:
320,192,76092,1,0,0:0:0:0:
192,192,76092,1,0,0:0:0:0:
192,192,76395,1,0,0:0:0:0:
448,192,76395,1,0,0:0:0:70:G6H.wav
320,192,76698,1,0,0:0:0:70:F#6H_Gb6H.wav
64,192,76698,128,0,78971:0:0:0:0:
192,192,78516,128,0,78971:0:0:0:0:
448,192,78971,1,0,0:0:0:0:
320,192,78971,1,0,0:0:0:0:
64,192,79274,1,0,0:0:0:0:
320,192,79425,1,0,0:0:0:0:
192,192,79425,128,0,79728:0:0:0:0:
448,192,79728,1,0,0:0:0:0:
320,192,79880,1,0,0:0:0:0:
192,192,80031,1,0,0:0:0:0:
448,192,80031,1,0,0:0:0:0:
64,192,80183,128,0,80486:0:0:0:0:
320,192,80486,1,0,0:0:0:0:
192,192,80638,1,0,0:0:0:0:
448,192,80638,128,0,80941:0:0:0:0:
64,192,80941,1,0,0:0:0:0:
192,192,81092,1,0,0:0:0:0:
320,192,81244,1,0,0:0:0:0:
64,192,81244,1,0,0:0:0:0:
448,192,81395,128,0,81698:0:0:0:0:
320,192,81698,1,0,0:0:0:0:
64,192,81850,1,0,0:0:0:0:
192,192,81850,128,0,82153:0:0:0:0:
448,192,82153,1,0,0:0:0:0:
320,192,82304,1,0,0:0:0:0:
192,192,82456,1,0,0:0:0:0:
448,192,82456,1,0,0:0:0:0:
64,192,82607,128,0,82910:0:0:0:0:
320,192,82910,1,0,0:0:0:0:
192,192,83062,1,0,0:0:0:0:
448,192,83062,128,0,83365:0:0:0:0:
64,192,83365,1,0,0:0:0:0:
192,192,83516,1,0,0:0:0:0:
448,192,83668,128,0,83971:0:0:0:0:
320,192,83668,1,0,0:0:0:0:
64,192,83971,1,0,0:0:0:0:
192,192,83971,1,0,0:0:0:0:
448,192,84122,1,0,0:0:0:0:
320,192,84274,1,0,0:0:0:0:
192,192,84425,1,0,0:0:0:0:
64,192,84425,1,0,0:0:0:0:
448,192,84577,1,0,0:0:0:0:
320,192,84728,1,0,0:0:0:0:
64,192,84880,1,0,0:0:0:0:
192,192,84880,1,0,0:0:0:0:
448,192,85031,128,0,86395:0:0:0:0:
320,192,85031,1,0,0:0:0:0:
