osu file format v14

[General]
AudioFilename: Twintail Dreamer! moe.mp3
AudioLeadIn: 0
PreviewTime: 52759
Countdown: 0
SampleSet: Soft
StackLeniency: 0.7
Mode: 3
LetterboxInBreaks: 0
SpecialStyle: 0
WidescreenStoryboard: 1

[Editor]
DistanceSpacing: 1
BeatDivisor: 4
GridSize: 4
TimelineZoom: 2.199999

[Metadata]
Title:Twintail Dreamer! (TV Size)
TitleUnicode:ツインテール・ドリーマー! (TV Size)
Artist:Twin-Tails
ArtistUnicode:ツインテイルズ
Creator:Niks
Version:Insane
Source:俺、ツインテールになります。
Tags:Fontes Seulgi jpop j-pop pop japanese anime twintails ore twintail ni narimasu. ending ed gonna be the twin-tails!! テイルレッド tail red 上坂すみれ uesaka sumire テイルブルー blue 相坂優歌 aisaka yuuka テイルイエロー yellow 赤﨑千夏 chinatsu akasaki PCCG-70223 papiyon short version ver
BeatmapID:4104707
BeatmapSetID:1977298

[Difficulty]
HPDrainRate:8
CircleSize:4
OverallDifficulty:8
ApproachRate:5
SliderMultiplier:1.4
SliderTickRate:1

[Events]
//Background and Video events
0,0,"BG.jpg",0,0
//Break Periods
//Storyboard Layer 0 (Background)
//Storyboard Layer 1 (Fail)
//Storyboard Layer 2 (Pass)
//Storyboard Layer 3 (Foreground)
//Storyboard Layer 4 (Overlay)
//Storyboard Sound Samples
Sample,77063,0,"G6H.wav",70
Sample,77366,0,"A6H.wav",70
Sample,77871,0,"G6H.wav",70

[TimingPoints]
335,303.030303030303,4,2,1,50,1,0
1850,-66.6666666666667,4,2,1,50,0,0
1888,-200,4,2,1,50,0,0
1925,-66.6666666666667,4,2,1,50,0,0
1963,-200,4,2,1,50,0,0
2001,-66.6666666666667,4,2,1,50,0,0
2039,-200,4,2,1,50,0,0
2077,-66.6666666666667,4,2,1,50,0,0
2115,-200,4,2,1,50,0,0
2153,-66.6666666666667,4,2,1,50,0,0
2228,-200,4,2,1,50,0,0
2304,-100,4,2,1,50,0,0
2607,-33.3333333333333,4,2,1,50,0,0
2683,-277.7777667,4,2,1,30,0,0
2777.75,-192.3076994,4,2,1,30,0,0
2872.5,-147.058822,4,2,1,30,0,0
2967.25,-119.0476143,4,2,1,50,0,0
3062,-100,4,2,1,30,0,0
3819,-33.3333333333333,4,2,1,50,0,0
3895,-277.7777667,4,2,1,30,0,0
3989.75,-192.3076994,4,2,1,30,0,0
4084.5,-147.058822,4,2,1,30,0,0
4179.25,-119.0476143,4,2,1,50,0,0
4274,-100,4,2,1,30,0,0
5031,-33.3333333333333,4,2,1,50,0,0
5107,-277.7777667,4,2,1,30,0,0
5201.75,-192.3076994,4,2,1,30,0,0
5296.5,-147.058822,4,2,1,30,0,0
5391.25,-119.0476143,4,2,1,50,0,0
5486,-100,4,2,1,30,0,0
5789,-66.6666666666667,4,2,1,50,0,0
5865,-200,4,2,1,50,0,0
5941,-100,4,2,1,50,0,0
6244,-62.5,4,2,1,50,0,0
6319,-142.857142857143,4,2,1,50,0,0
6395,-125,4,2,1,50,0,0
6471,-111.111111111111,4,2,1,50,0,0
6547,-66.6666666666667,4,2,1,50,0,0
6622,-200,4,2,1,50,0,0
6698,-66.6666666666667,4,2,1,50,0,0
6736,-200,4,2,1,50,0,0
6774,-66.6666666666667,4,2,1,50,0,0
6812,-200,4,2,1,50,0,0
6850,-66.6666666666667,4,2,1,50,0,0
6888,-200,4,2,1,50,0,0
6925,-66.6666666666667,4,2,1,50,0,0
6963,-200,4,2,1,50,0,0
7001,-66.6666666666667,4,2,1,50,0,0
7077,-200,4,2,1,50,0,0
7153,-66.6666666666667,4,2,1,50,0,0
7229,-200,4,2,1,50,0,0
7304,-66.6666666666667,4,2,1,50,0,0
7380,-200,4,2,1,50,0,0
7456,-66.6666666666667,4,2,1,50,0,0
7531,-200,4,2,1,50,0,0
7607,-100,4,2,1,50,0,0
7910,-66.6666666666667,4,2,1,50,0,0
7986,-200,4,2,1,50,0,0
8062,-100,4,2,1,50,0,0
8213,-66.6666666666667,4,2,1,50,0,0
8289,-200,4,2,1,50,0,0
8365,-100,4,2,1,50,0,0
8516,-66.6666666666667,4,2,1,50,0,0
8592,-200,4,2,1,50,0,0
8668,-100,4,2,1,50,0,0
8819,-66.6666666666667,4,2,1,50,0,0
8895,-200,4,2,1,50,0,0
8971,-100,4,2,1,50,0,0
9122,-66.6666666666667,4,2,1,50,0,0
9198,-200,4,2,1,50,0,0
9274,-100,4,2,1,50,0,0
9425,-66.6666666666667,4,2,1,50,0,0
9463,-200,4,2,1,50,0,0
9501,-66.6666666666667,4,2,1,50,0,0
9539,-200,4,2,1,50,0,0
9577,-66.6666666666667,4,2,1,50,0,0
9615,-200,4,2,1,50,0,0
9652,-66.6666666666667,4,2,1,50,0,0
9690,-200,4,2,1,50,0,0
9728,-66.6666666666667,4,2,1,50,0,0
9804,-200,4,2,1,50,0,0
9880,-66.6666666666667,4,2,1,50,0,0
9956,-200,4,2,1,50,0,0
10031,-100,4,2,1,50,0,0
10334,-66.6666666666667,4,2,1,50,0,0
10410,-200,4,2,1,50,0,0
10486,-100,4,2,1,50,0,0
10638,-66.6666666666667,4,2,1,50,0,0
10714,-200,4,2,1,50,0,0
10790,-100,4,2,1,50,0,0
10941,-66.6666666666667,4,2,1,50,0,0
11017,-200,4,2,1,50,0,0
11093,-100,4,2,1,50,0,0
11244,-66.6666666666667,4,2,1,50,0,0
11320,-200,4,2,1,50,0,0
11396,-100,4,2,1,50,0,0
11547,-66.6666666666667,4,2,1,50,0,0
11623,-200,4,2,1,50,0,0
11699,-100,4,2,1,50,0,0
11850,-66.6666666666667,4,2,1,50,0,0
11926,-200,4,2,1,50,0,0
12001,-66.6666666666667,4,2,1,50,0,0
12039,-200,4,2,1,50,0,0
12077,-66.6666666666667,4,2,1,50,0,0
12115,-200,4,2,1,50,0,0
12153,-66.6666666666667,4,2,1,50,0,0
12228,-200,4,2,1,50,0,0
12304,-100,4,2,1,50,0,0
41547,-105.263157894737,4,2,1,50,0,0
41698,-111.111111111111,4,2,1,50,0,0
41850,-117.647058823529,4,2,1,50,0,0
48213,-111.111111111111,4,2,1,50,0,0
48365,-105.263157894737,4,2,1,50,0,0
48516,-100,4,2,1,50,0,0
53516,-52.6315789473684,4,2,1,50,0,1
53592,-166.666666666667,4,2,1,50,0,1
53668,-142.857142857143,4,2,1,50,0,1
53744,-125,4,2,1,50,0,1
53819,-100,4,2,1,50,0,1
59728,-45.4545454545455,4,2,1,50,0,1
59804,-166.666666666667,4,2,1,50,0,1
60031,-45.4545454545455,4,2,1,50,0,1
60107,-166.666666666667,4,2,1,50,0,1
60334,-45.4545454545455,4,2,1,50,0,1
60410,-166.666666666667,4,2,1,50,0,1
60638,-45.4545454545455,4,2,1,50,0,1
60713,-166.666666666667,4,2,1,50,0,1
60941,-100,4,2,1,50,0,1
61395,-66.6666666666667,4,2,1,50,0,1
61471,-200,4,2,1,50,0,1
61547,-100,4,2,1,50,0,1
61698,-66.6666666666667,4,2,1,50,0,1
61774,-200,4,2,1,50,0,1
61850,-100,4,2,1,50,0,1
62759,-66.6666666666667,4,2,1,50,0,1
62797,-200,4,2,1,50,0,1
62834,-66.6666666666667,4,2,1,50,0,1
62872,-200,4,2,1,50,0,1
62910,-66.6666666666667,4,2,1,50,0,1
62948,-200,4,2,1,50,0,1
62986,-66.6666666666667,4,2,1,50,0,1
63024,-200,4,2,1,50,0,1
63062,-66.6666666666667,4,2,1,50,0,1
63100,-200,4,2,1,50,0,1
63138,-66.6666666666667,4,2,1,50,0,1
63175,-200,4,2,1,50,0,1
63213,-52.6315789473684,4,2,1,50,0,1
63289,-166.666666666667,4,2,1,50,0,1
63365,-142.857142857143,4,2,1,50,0,1
63441,-125,4,2,1,50,0,1
63516,-100,4,2,1,50,0,1
72456,-66.6666666666667,4,2,1,50,0,1
72494,-200,4,2,1,50,0,1
72531,-66.6666666666667,4,2,1,50,0,1
72569,-200,4,2,1,50,0,1
72607,-66.6666666666667,4,2,1,50,0,1
72645,-200,4,2,1,50,0,1
72683,-66.6666666666667,4,2,1,50,0,1
72721,-200,4,2,1,50,0,1
72759,-66.6666666666667,4,2,1,50,0,1
72834,-200,4,2,1,50,0,1
72910,-100,4,2,1,50,0,0
73365,-71.4285714285714,4,2,1,50,0,0
73441,-166.666666666667,4,2,1,50,0,0
73516,-100,4,2,1,50,0,0
73668,-71.4285714285714,4,2,1,50,0,0
73744,-166.666666666667,4,2,1,50,0,0
73819,-100,4,2,1,50,0,0
73971,-71.4285714285714,4,2,1,50,0,0
74047,-166.666666666667,4,2,1,50,0,0
74122,-100,4,2,1,50,0,0
74274,-71.4285714285714,4,2,1,50,0,0
74350,-166.666666666667,4,2,1,50,0,0
74425,-100,4,2,1,50,0,0
74577,-71.4285714285714,4,2,1,50,0,0
74653,-166.666666666667,4,2,1,50,0,0
74728,-100,4,2,1,50,0,0
74880,-66.6666666666667,4,2,1,50,0,0
74918,-200,4,2,1,50,0,0
74956,-66.6666666666667,4,2,1,50,0,0
74994,-200,4,2,1,50,0,0
75031,-66.6666666666667,4,2,1,50,0,0
75069,-200,4,2,1,50,0,0
75107,-66.6666666666667,4,2,1,50,0,0
75145,-200,4,2,1,50,0,0
75183,-66.6666666666667,4,2,1,50,0,0
75259,-200,4,2,1,50,0,0
75334,-100,4,2,1,50,0,0
75789,-71.4285714285714,4,2,1,50,0,0
75865,-166.666666666667,4,2,1,50,0,0
75941,-100,4,2,1,50,0,0
76092,-71.4285714285714,4,2,1,50,0,0
76168,-166.666666666667,4,2,1,50,0,0
76244,-100,4,2,1,50,0,0
76395,-71.4285714285714,4,2,1,50,0,0
76471,-166.666666666667,4,2,1,50,0,0
76547,-66.6666666666667,4,2,1,50,0,0
76585,-200,4,2,1,50,0,0
76623,-66.6666666666667,4,2,1,50,0,0
76661,-200,4,2,1,50,0,0
76698,-100,4,2,1,50,0,0
83971,-71.4285714285714,4,2,1,50,0,0
84047,-166.666666666667,4,2,1,50,0,0
84122,-71.4285714285714,4,2,1,50,0,0
84198,-166.666666666667,4,2,1,50,0,0
84274,-71.4285714285714,4,2,1,50,0,0
84350,-166.666666666667,4,2,1,50,0,0
84425,-71.4285714285714,4,2,1,50,0,0
84501,-166.666666666667,4,2,1,50,0,0
84577,-71.4285714285714,4,2,1,50,0,0
84653,-166.666666666667,4,2,1,50,0,0
84728,-71.4285714285714,4,2,1,50,0,0
84804,-166.666666666667,4,2,1,50,0,0
84880,-71.4285714285714,4,2,1,50,0,0
84956,-166.666666666667,4,2,1,50,0,0
85031,-100,4,2,1,50,0,0

[HitObjects]
448,192,335,128,0,486:0:0:0:0:
64,192,486,128,0,638:0:0:0:0:
448,192,638,128,0,789:0:0:0:0:
64,192,789,128,0,941:0:0:0:0:
320,192,1244,128,0,1395:0:0:0:0:
192,192,1395,128,0,1547:0:0:0:0:
320,192,1547,128,0,1698:0:0:0:0:
192,192,1698,128,0,1850:0:0:0:0:
64,192,1850,5,0,0:0:0:0:
448,192,1850,1,0,0:0:0:70:G6H.wav
320,192,1850,1,0,0:0:0:0:
192,192,1925,1,0,0:0:0:0:
320,192,2001,1,0,0:0:0:0:
192,192,2077,1,0,0:0:0:0:
64,192,2153,1,0,0:0:0:0:
448,192,2153,1,0,0:0:0:70:F#6H_Gb6H.wav
320,192,2153,1,0,0:0:0:0:
64,192,2304,1,0,0:0:0:0:
192,192,2304,1,0,0:0:0:0:
448,192,2304,1,0,0:0:0:70:G6H.wav
320,192,2607,1,0,0:0:0:0:
192,192,2607,1,0,0:0:0:0:
448,192,2607,1,0,0:0:0:70:D7H.wav
64,192,3062,128,0,3365:0:0:0:70:G6H.wav
320,192,3365,128,0,3516:0:0:0:70:F#6H_Gb6H.wav
448,192,3516,128,0,3819:0:0:0:70:G6H.wav
192,192,3819,1,0,0:0:0:0:
64,192,3819,1,0,0:0:0:70:G6H.wav
320,192,3819,1,0,0:0:0:0:
448,192,4274,128,0,4577:0:0:0:70:G6H.wav
192,192,4577,128,0,4728:0:0:0:70:F#6H_Gb6H.wav
64,192,4728,128,0,5031:0:0:0:70:G6H.wav
320,192,5031,1,0,0:0:0:0:
192,192,5031,1,0,0:0:0:0:
448,192,5031,1,0,0:0:0:70:D7H.wav
64,192,5486,1,0,0:0:0:70:G6H.wav
192,192,5789,1,0,0:0:0:0:
64,192,5789,1,0,0:0:0:0:
320,192,5789,1,0,0:0:0:70:F#6H_Gb6H.wav
448,192,5941,1,0,0:0:0:70:G6H.wav
64,192,6244,1,0,0:0:0:0:
320,192,6244,1,0,0:0:0:0:
448,192,6244,1,0,0:0:0:70:B6H.wav
192,192,6547,1,0,0:0:0:0:
448,192,6698,1,0,0:0:0:0:
64,192,6698,1,0,0:0:0:70:C7H.wav
320,192,6774,1,0,0:0:0:0:
192,192,6850,1,0,0:0:0:0:
320,192,6925,1,0,0:0:0:0:
448,192,7001,1,0,0:0:0:0:
64,192,7001,1,0,0:0:0:70:B6H.wav
64,192,7153,1,0,0:0:0:0:
192,192,7153,1,0,0:0:0:0:
320,192,7304,1,0,0:0:0:0:
192,192,7304,1,0,0:0:0:0:
320,192,7456,1,0,0:0:0:0:
64,192,7456,1,0,0:0:0:0:
448,192,7456,1,0,0:0:0:70:G6H.wav
192,192,7759,1,0,0:0:0:0:
320,192,7910,1,0,0:0:0:0:
192,192,7910,1,0,0:0:0:0:
64,192,7910,1,0,0:0:0:0:
448,192,8062,1,0,0:0:0:0:
320,192,8213,1,0,0:0:0:0:
64,192,8213,1,0,0:0:0:0:
448,192,8213,1,0,0:0:0:0:
192,192,8365,1,0,0:0:0:0:
448,192,8516,1,0,0:0:0:0:
192,192,8516,1,0,0:0:0:0:
64,192,8516,1,0,0:0:0:70:D6H.wav
320,192,8668,1,0,0:0:0:0:
448,192,8819,1,0,0:0:0:70:G6H.wav
192,192,8819,1,0,0:0:0:0:
320,192,8819,1,0,0:0:0:0:
64,192,8971,1,0,0:0:0:0:
320,192,9122,1,0,0:0:0:0:
64,192,9122,1,0,0:0:0:70:D6H.wav
192,192,9122,1,0,0:0:0:0:
448,192,9274,1,0,0:0:0:0:
448,192,9425,1,0,0:0:0:0:
320,192,9425,1,0,0:0:0:0:
64,192,9425,1,0,0:0:0:70:D7H.wav
192,192,9501,1,0,0:0:0:0:
320,192,9577,1,0,0:0:0:0:
192,192,9653,1,0,0:0:0:0:
64,192,9728,1,0,0:0:0:70:G6H.wav
448,192,9728,1,0,0:0:0:0:
64,192,9880,1,0,0:0:0:0:
448,192,9880,1,0,0:0:0:0:
192,192,9880,1,0,0:0:0:70:A6H.wav
448,192,10183,1,0,0:0:0:0:
320,192,10334,1,0,0:0:0:0:
448,192,10334,1,0,0:0:0:0:
192,192,10334,1,0,0:0:0:0:
64,192,10486,1,0,0:0:0:0:
64,192,10638,1,0,0:0:0:0:
192,192,10638,1,0,0:0:0:0:
448,192,10638,1,0,0:0:0:0:
320,192,10789,1,0,0:0:0:0:
448,192,10941,1,0,0:0:0:0:
64,192,10941,1,0,0:0:0:70:G6H.wav
320,192,10941,1,0,0:0:0:0:
192,192,11092,1,0,0:0:0:0:
192,192,11244,1,0,0:0:0:0:
320,192,11244,1,0,0:0:0:0:
64,192,11244,1,0,0:0:0:70:F#6H_Gb6H.wav
448,192,11395,1,0,0:0:0:0:
448,192,11547,1,0,0:0:0:70:G6H.wav
192,192,11547,1,0,0:0:0:0:
320,192,11547,1,0,0:0:0:0:
64,192,11698,1,0,0:0:0:0:
320,192,11850,1,0,0:0:0:0:
64,192,11850,1,0,0:0:0:70:A6H.wav
192,192,11850,1,0,0:0:0:0:
448,192,12001,1,0,0:0:0:0:
320,192,12077,1,0,0:0:0:0:
64,192,12153,1,0,0:0:0:0:
192,192,12153,1,0,0:0:0:0:
448,192,12304,1,0,0:0:0:70:G6H.wav
320,192,12304,128,0,12607:0:0:0:0:
64,192,12304,1,0,0:0:0:0:
64,192,12607,1,0,0:0:0:0:
192,192,12607,1,0,0:0:0:0:
448,192,12759,1,0,0:0:0:0:
320,192,12759,1,0,0:0:0:0:
192,192,12759,1,0,0:0:0:0:
448,192,13062,1,0,0:0:0:0:
64,192,13062,1,0,0:0:0:0:
192,192,13213,1,0,0:0:0:0:
320,192,13213,1,0,0:0:0:0:
320,192,13365,1,0,0:0:0:0:
64,192,13365,1,0,0:0:0:0:
448,192,13365,1,0,0:0:0:0:
448,192,13516,1,0,0:0:0:0:
192,192,13516,128,0,13819:0:0:0:0:
320,192,13819,1,0,0:0:0:0:
448,192,13819,1,0,0:0:0:0:
320,192,13971,1,0,0:0:0:0:
64,192,13971,1,0,0:0:0:0:
192,192,13971,1,0,0:0:0:0:
64,192,14274,1,0,0:0:0:0:
192,192,14274,1,0,0:0:0:0:
448,192,14350,1,0,0:0:0:0:
192,192,14425,1,0,0:0:0:0:
320,192,14425,1,0,0:0:0:0:
64,192,14577,1,0,0:0:0:0:
448,192,14577,1,0,0:0:0:0:
320,192,14577,1,0,0:0:0:0:
64,192,14728,1,0,0:0:0:0:
448,192,14728,128,0,15031:0:0:0:0:
64,192,15031,1,0,0:0:0:0:
192,192,15031,1,0,0:0:0:0:
320,192,15183,1,0,0:0:0:0:
448,192,15183,1,0,0:0:0:0:
192,192,15183,1,0,0:0:0:0:
448,192,15486,1,0,0:0:0:0:
64,192,15486,1,0,0:0:0:0:
192,192,15638,1,0,0:0:0:0:
320,192,15638,1,0,0:0:0:0:
64,192,15789,1,0,0:0:0:0:
448,192,15789,1,0,0:0:0:0:
320,192,15789,1,0,0:0:0:0:
192,192,15941,1,0,0:0:0:0:
64,192,15941,128,0,16244:0:0:0:0:
448,192,16244,1,0,0:0:0:0:
320,192,16244,1,0,0:0:0:0:
448,192,16395,1,0,0:0:0:0:
64,192,16395,1,0,0:0:0:0:
192,192,16395,1,0,0:0:0:0:
448,192,16698,1,0,0:0:0:0:
320,192,16698,1,0,0:0:0:0:
64,192,16774,1,0,0:0:0:0:
320,192,16850,1,0,0:0:0:0:
192,192,16850,1,0,0:0:0:0:
64,192,17001,1,0,0:0:0:0:
448,192,17001,1,0,0:0:0:0:
192,192,17001,1,0,0:0:0:0:
320,192,17153,1,0,0:0:0:0:
448,192,17153,128,0,17456:0:0:0:0:
64,192,17153,1,0,0:0:0:0:
64,192,17456,1,0,0:0:0:0:
320,192,17456,128,0,17607:0:0:0:0:
448,192,17607,1,0,0:0:0:0:
192,192,17607,128,0,17759:0:0:0:0:
64,192,17759,128,0,17910:0:0:0:0:
192,192,17910,1,0,0:0:0:0:
448,192,17910,128,0,18062:0:0:0:0:
320,192,18062,128,0,18213:0:0:0:0:
64,192,18062,1,0,0:0:0:0:
192,192,18213,128,0,18365:0:0:0:0:
448,192,18213,1,0,0:0:0:0:
320,192,18365,1,0,0:0:0:0:
64,192,18365,128,0,18668:0:0:0:0:
448,192,18668,1,0,0:0:0:0:
192,192,18668,128,0,18819:0:0:0:0:
320,192,18819,128,0,18971:0:0:0:0:
64,192,18819,1,0,0:0:0:0:
448,192,18971,128,0,19122:0:0:0:0:
64,192,19122,128,0,19274:0:0:0:0:
320,192,19122,1,0,0:0:0:0:
192,192,19274,128,0,19425:0:0:0:0:
448,192,19274,1,0,0:0:0:0:
320,192,19425,128,0,19577:0:0:0:0:
64,192,19425,1,0,0:0:0:0:
192,192,19577,1,0,0:0:0:0:
448,192,19577,128,0,19880:0:0:0:0:
64,192,19880,1,0,0:0:0:0:
320,192,19880,128,0,20031:0:0:0:0:
64,192,20031,1,0,0:0:0:0:
192,192,20031,1,0,0:0:0:0:
448,192,20031,128,0,20335:0:0:0:0:
64,192,20335,1,0,0:0:0:0:
192,192,20335,1,0,0:0:0:0:
192,192,20486,1,0,0:0:0:0:
320,192,20486,1,0,0:0:0:0:
64,192,20638,1,0,0:0:0:0:
320,192,20638,1,0,0:0:0:0:
448,192,20638,1,0,0:0:0:0:
448,192,20789,1,0,0:0:0:0:
64,192,20789,128,0,21092:0:0:0:0:
320,192,21092,1,0,0:0:0:0:
192,192,21092,128,0,21244:0:0:0:0:
320,192,21244,1,0,0:0:0:0:
64,192,21244,128,0,21547:0:0:0:0:
448,192,21244,1,0,0:0:0:0:
320,192,21547,1,0,0:0:0:0:
192,192,21547,1,0,0:0:0:0:
448,192,21547,1,0,0:0:0:70:B5H.wav
64,192,21698,1,0,0:0:0:0:
192,192,21698,1,0,0:0:0:0:
448,192,21774,1,0,0:0:0:0:
320,192,21774,1,0,0:0:0:0:
64,192,21850,1,0,0:0:0:0:
192,192,21850,1,0,0:0:0:70:C6H.wav
448,192,22001,1,0,0:0:0:0:
320,192,22001,1,0,0:0:0:0:
192,192,22077,1,0,0:0:0:0:
448,192,22153,1,0,0:0:0:0:
320,192,22153,128,0,22456:0:0:0:70:D6H.wav
64,192,22153,1,0,0:0:0:0:
64,192,22456,1,0,0:0:0:0:
448,192,22456,1,0,0:0:0:70:G6H.wav
320,192,22607,1,0,0:0:0:70:F#6H_Gb6H.wav
192,192,22759,1,0,0:0:0:0:
320,192,22759,1,0,0:0:0:0:
64,192,22910,128,0,23062:0:0:0:70:D6H.wav
320,192,23062,1,0,0:0:0:0:
192,192,23062,1,0,0:0:0:0:
64,192,23213,128,0,23365:0:0:0:70:D6H.wav
320,192,23365,1,0,0:0:0:0:
192,192,23365,1,0,0:0:0:0:
320,192,23516,1,0,0:0:0:0:
192,192,23668,1,0,0:0:0:0:
320,192,23668,1,0,0:0:0:0:
320,192,23819,1,0,0:0:0:0:
320,192,23971,1,0,0:0:0:0:
192,192,23971,1,0,0:0:0:70:B5H.wav
64,192,24122,128,0,24274:0:0:0:0:
192,192,24274,1,0,0:0:0:70:C6H.wav
320,192,24274,1,0,0:0:0:0:
448,192,24425,1,0,0:0:0:0:
64,192,24577,1,0,0:0:0:0:
320,192,24577,128,0,24880:0:0:0:70:D6H.wav
448,192,24880,1,0,0:0:0:70:G6H.wav
64,192,24880,1,0,0:0:0:0:
192,192,25031,1,0,0:0:0:70:F#6H_Gb6H.wav
320,192,25183,1,0,0:0:0:0:
192,192,25183,1,0,0:0:0:0:
448,192,25335,128,0,25486:0:0:0:70:D6H.wav
192,192,25486,1,0,0:0:0:0:
320,192,25486,1,0,0:0:0:0:
448,192,25638,128,0,25789:0:0:0:70:D6H.wav
192,192,25789,1,0,0:0:0:0:
320,192,25789,1,0,0:0:0:0:
192,192,25941,1,0,0:0:0:0:
320,192,26092,1,0,0:0:0:0:
192,192,26092,1,0,0:0:0:0:
192,192,26244,1,0,0:0:0:0:
192,192,26395,1,0,0:0:0:70:B5H.wav
320,192,26395,1,0,0:0:0:0:
64,192,26547,1,0,0:0:0:0:
448,192,26698,128,0,26850:0:0:0:0:
320,192,26698,1,0,0:0:0:70:C6H.wav
320,192,27001,1,0,0:0:0:0:
192,192,27001,128,0,27304:0:0:0:70:D6H.wav
64,192,27304,1,0,0:0:0:0:
320,192,27304,1,0,0:0:0:70:G6H.wav
448,192,27456,1,0,0:0:0:70:F#6H_Gb6H.wav
448,192,27607,1,0,0:0:0:0:
64,192,27607,1,0,0:0:0:0:
192,192,27759,128,0,27910:0:0:0:70:D6H.wav
64,192,27910,1,0,0:0:0:0:
448,192,27910,1,0,0:0:0:0:
192,192,28062,128,0,28213:0:0:0:70:D6H.wav
64,192,28213,1,0,0:0:0:0:
448,192,28213,1,0,0:0:0:0:
448,192,28365,1,0,0:0:0:0:
64,192,28516,1,0,0:0:0:0:
448,192,28516,1,0,0:0:0:70:C6H.wav
448,192,28668,1,0,0:0:0:0:
64,192,28819,1,0,0:0:0:0:
448,192,28819,1,0,0:0:0:70:B5H.wav
320,192,28971,1,0,0:0:0:0:
64,192,29122,1,0,0:0:0:70:C6H.wav
192,192,29122,128,0,29274:0:0:0:0:
320,192,29425,128,0,29728:0:0:0:0:
448,192,29425,1,0,0:0:0:70:B5H.wav
448,192,29728,1,0,0:0:0:0:
64,192,29728,1,0,0:0:0:70:G5H.wav
64,192,29880,1,0,0:0:0:70:G5H.wav
448,192,30031,1,0,0:0:0:0:
64,192,30031,1,0,0:0:0:0:
64,192,30183,1,0,0:0:0:70:B5H.wav
192,192,30183,1,0,0:0:0:0:
320,192,30183,1,0,0:0:0:0:
320,192,30334,1,0,0:0:0:0:
448,192,30486,1,0,0:0:0:70:A5H.wav
64,192,30486,1,0,0:0:0:0:
192,192,30486,1,0,0:0:0:0:
192,192,30789,1,0,0:0:0:0:
320,192,30789,1,0,0:0:0:0:
448,192,30941,1,0,0:0:0:0:
192,192,30941,1,0,0:0:0:0:
64,192,30941,1,0,0:0:0:0:
320,192,31092,1,0,0:0:0:0:
64,192,31244,1,0,0:0:0:0:
192,192,31244,1,0,0:0:0:70:B5H.wav
448,192,31395,1,0,0:0:0:0:
320,192,31395,1,0,0:0:0:0:
64,192,31547,1,0,0:0:0:0:
192,192,31547,1,0,0:0:0:70:C6H.wav
448,192,31622,1,0,0:0:0:0:
320,192,31622,1,0,0:0:0:0:
64,192,31698,1,0,0:0:0:0:
192,192,31698,1,0,0:0:0:0:
448,192,31774,1,0,0:0:0:0:
320,192,31774,1,0,0:0:0:0:
64,192,31850,1,0,0:0:0:70:D6H.wav
192,192,31850,128,0,32153:0:0:0:0:
320,192,32153,1,0,0:0:0:0:
64,192,32153,1,0,0:0:0:70:G6H.wav
448,192,32153,1,0,0:0:0:0:
192,192,32304,1,0,0:0:0:70:F#6H_Gb6H.wav
320,192,32456,1,0,0:0:0:0:
64,192,32607,1,0,0:0:0:70:D6H.wav
448,192,32607,1,0,0:0:0:0:
64,192,32759,1,0,0:0:0:0:
320,192,32759,1,0,0:0:0:0:
192,192,32759,1,0,0:0:0:0:
320,192,32910,1,0,0:0:0:0:
448,192,32910,1,0,0:0:0:70:D6H.wav
192,192,33062,1,0,0:0:0:0:
320,192,33213,1,0,0:0:0:0:
448,192,33213,1,0,0:0:0:0:
192,192,33365,1,0,0:0:0:0:
64,192,33365,1,0,0:0:0:0:
320,192,33365,1,0,0:0:0:0:
448,192,33516,1,0,0:0:0:0:
192,192,33668,1,0,0:0:0:70:B5H.wav
64,192,33668,1,0,0:0:0:0:
320,192,33819,1,0,0:0:0:0:
448,192,33819,1,0,0:0:0:0:
64,192,33971,1,0,0:0:0:0:
320,192,33971,1,0,0:0:0:70:C6H.wav
192,192,33971,1,0,0:0:0:0:
192,192,34274,1,0,0:0:0:0:
64,192,34274,128,0,34577:0:0:0:70:D6H.wav
448,192,34577,1,0,0:0:0:70:G6H.wav
192,192,34577,1,0,0:0:0:0:
320,192,34577,1,0,0:0:0:0:
64,192,34728,1,0,0:0:0:70:F#6H_Gb6H.wav
320,192,34880,1,0,0:0:0:0:
192,192,34880,1,0,0:0:0:0:
64,192,35031,1,0,0:0:0:70:D6H.wav
448,192,35031,1,0,0:0:0:0:
448,192,35183,1,0,0:0:0:0:
320,192,35183,1,0,0:0:0:0:
192,192,35183,1,0,0:0:0:0:
192,192,35334,1,0,0:0:0:0:
64,192,35334,1,0,0:0:0:70:D6H.wav
320,192,35486,1,0,0:0:0:0:
192,192,35638,1,0,0:0:0:0:
64,192,35638,1,0,0:0:0:0:
320,192,35789,1,0,0:0:0:0:
448,192,35789,1,0,0:0:0:0:
192,192,35789,1,0,0:0:0:0:
64,192,35941,1,0,0:0:0:0:
448,192,36092,1,0,0:0:0:0:
192,192,36092,1,0,0:0:0:70:B5H.wav
320,192,36168,1,0,0:0:0:0:
192,192,36244,1,0,0:0:0:0:
64,192,36244,1,0,0:0:0:0:
64,192,36395,1,0,0:0:0:70:C6H.wav
448,192,36395,1,0,0:0:0:0:
320,192,36395,1,0,0:0:0:0:
192,192,36698,1,0,0:0:0:70:D6H.wav
320,192,36698,128,0,37001:0:0:0:0:
192,192,37001,1,0,0:0:0:0:
448,192,37001,1,0,0:0:0:0:
64,192,37001,1,0,0:0:0:70:G6H.wav
320,192,37153,1,0,0:0:0:70:F#6H_Gb6H.wav
192,192,37304,1,0,0:0:0:0:
320,192,37456,1,0,0:0:0:70:D6H.wav
448,192,37456,1,0,0:0:0:0:
192,192,37607,1,0,0:0:0:0:
64,192,37607,1,0,0:0:0:0:
320,192,37607,1,0,0:0:0:0:
64,192,37759,1,0,0:0:0:70:D6H.wav
448,192,37759,1,0,0:0:0:0:
320,192,37910,1,0,0:0:0:0:
192,192,38062,1,0,0:0:0:0:
64,192,38062,1,0,0:0:0:0:
448,192,38213,1,0,0:0:0:0:
192,192,38213,1,0,0:0:0:70:C6H.wav
320,192,38213,1,0,0:0:0:0:
64,192,38365,1,0,0:0:0:0:
320,192,38516,1,0,0:0:0:70:B5H.wav
448,192,38516,1,0,0:0:0:0:
192,192,38668,1,0,0:0:0:0:
320,192,38668,1,0,0:0:0:0:
64,192,38819,1,0,0:0:0:70:C6H.wav
192,192,38819,1,0,0:0:0:0:
448,192,38819,1,0,0:0:0:0:
320,192,39122,1,0,0:0:0:70:B5H.wav
448,192,39122,128,0,39425:0:0:0:0:
320,192,39425,1,0,0:0:0:0:
64,192,39425,1,0,0:0:0:70:G5H.wav
192,192,39425,1,0,0:0:0:0:
448,192,39577,1,0,0:0:0:70:G5H.wav
64,192,39728,1,0,0:0:0:0:
192,192,39728,1,0,0:0:0:0:
64,192,39880,1,0,0:0:0:70:B5H.wav
320,192,39880,1,0,0:0:0:0:
192,192,40031,1,0,0:0:0:0:
320,192,40031,1,0,0:0:0:0:
448,192,40031,1,0,0:0:0:0:
448,192,40183,1,0,0:0:0:0:
192,192,40183,1,0,0:0:0:0:
64,192,40183,1,0,0:0:0:70:A5H.wav
320,192,40486,1,0,0:0:0:0:
192,192,40486,1,0,0:0:0:0:
320,192,40638,1,0,0:0:0:0:
448,192,40638,1,0,0:0:0:0:
64,192,40638,1,0,0:0:0:0:
64,192,40789,1,0,0:0:0:0:
192,192,40789,1,0,0:0:0:0:
448,192,40941,1,0,0:0:0:0:
192,192,40941,1,0,0:0:0:0:
320,192,40941,1,0,0:0:0:70:G5H.wav
448,192,41092,1,0,0:0:0:0:
64,192,41092,1,0,0:0:0:0:
64,192,41244,1,0,0:0:0:70:A5H.wav
192,192,41244,1,0,0:0:0:0:
320,192,41244,1,0,0:0:0:0:
448,192,41395,1,0,0:0:0:0:
320,192,41395,1,0,0:0:0:0:
192,192,41547,1,0,0:0:0:70:B5H.wav
64,192,41547,128,0,41850:0:0:0:0:
448,192,41547,128,0,41850:0:0:0:0:
320,192,41850,1,0,0:0:0:70:C6H.wav
448,192,42153,1,0,0:0:0:0:
320,192,42153,1,0,0:0:0:70:B5H.wav
64,192,42153,128,0,42456:0:0:0:0:
192,192,42304,128,0,42456:0:0:0:70:C6H.wav
320,192,42456,1,0,0:0:0:0:
448,192,42456,1,0,0:0:0:0:
64,192,42607,1,0,0:0:0:0:
448,192,42607,1,0,0:0:0:70:D6H.wav
192,192,42759,1,0,0:0:0:0:
320,192,42759,1,0,0:0:0:0:
192,192,42910,1,0,0:0:0:0:
64,192,43062,1,0,0:0:0:70:C6H.wav
320,192,43062,1,0,0:0:0:0:
320,192,43213,1,0,0:0:0:0:
64,192,43365,1,0,0:0:0:0:
448,192,43365,1,0,0:0:0:70:B5H.wav
192,192,43365,1,0,0:0:0:0:
64,192,43516,1,0,0:0:0:0:
320,192,43516,1,0,0:0:0:0:
448,192,43668,1,0,0:0:0:70:C6H.wav
448,192,43819,1,0,0:0:0:0:
64,192,43819,1,0,0:0:0:0:
192,192,43971,1,0,0:0:0:70:B5H.wav
320,192,43971,128,0,44274:0:0:0:0:
192,192,44274,1,0,0:0:0:0:
64,192,44274,1,0,0:0:0:70:C6H.wav
448,192,44274,1,0,0:0:0:0:
192,192,44577,1,0,0:0:0:70:D#6H_Eb6H.wav
448,192,44577,128,0,44880:0:0:0:0:
320,192,44728,128,0,44880:0:0:0:70:F#6H_Gb6H.wav
64,192,44728,1,0,0:0:0:0:
192,192,45031,1,0,0:0:0:70:G6H.wav
448,192,45031,128,0,45334:0:0:0:0:
64,192,45031,128,0,45334:0:0:0:0:
320,192,45334,1,0,0:0:0:0:
192,192,45486,1,0,0:0:0:0:
64,192,45486,1,0,0:0:0:70:D6H.wav
448,192,45486,1,0,0:0:0:0:
448,192,45789,1,0,0:0:0:70:C6H.wav
64,192,45789,1,0,0:0:0:0:
192,192,45941,1,0,0:0:0:70:B5H.wav
448,192,46092,1,0,0:0:0:0:
64,192,46092,1,0,0:0:0:0:
320,192,46092,1,0,0:0:0:0:
448,192,46244,1,0,0:0:0:70:C6H.wav
320,192,46244,128,0,46698:0:0:0:0:
64,192,46547,1,0,0:0:0:0:
192,192,46698,128,0,47001:0:0:0:70:B5H.wav
448,192,46850,1,0,0:0:0:0:
320,192,47001,1,0,0:0:0:0:
64,192,47001,128,0,47304:0:0:0:0:
448,192,47001,1,0,0:0:0:70:G5H.wav
192,192,47304,128,0,47607:0:0:0:0:
320,192,47304,1,0,0:0:0:70:A5H.wav
448,192,47607,1,0,0:0:0:70:A5H.wav
320,192,47607,128,0,47910:0:0:0:0:
192,192,47759,1,0,0:0:0:0:
64,192,47910,1,0,0:0:0:0:
448,192,47910,128,0,48213:0:0:0:70:B5H.wav
192,192,48062,1,0,0:0:0:0:
64,192,48213,1,0,0:0:0:70:A5H.wav
320,192,48213,128,0,48516:0:0:0:0:
192,192,48213,1,0,0:0:0:0:
448,192,48365,1,0,0:0:0:0:
64,192,48516,1,0,0:0:0:70:G5H.wav
192,192,48516,1,0,0:0:0:0:
320,192,48592,1,0,0:0:0:0:
448,192,48592,1,0,0:0:0:0:
64,192,48668,1,0,0:0:0:0:
192,192,48668,1,0,0:0:0:0:
320,192,48744,1,0,0:0:0:0:
448,192,48744,1,0,0:0:0:0:
192,192,48819,1,0,0:0:0:0:
64,192,48819,128,0,49122:0:0:0:70:G5H.wav
192,192,49122,1,0,0:0:0:0:
320,192,49122,128,0,49274:0:0:0:0:
448,192,49274,128,0,49425:0:0:0:0:
64,192,49425,1,0,0:0:0:0:
192,192,49425,1,0,0:0:0:0:
320,192,49577,128,0,49728:0:0:0:0:
448,192,49728,1,0,0:0:0:0:
64,192,49728,1,0,0:0:0:0:
192,192,49880,128,0,50031:0:0:0:0:
64,192,50031,1,0,0:0:0:0:
448,192,50031,1,0,0:0:0:0:
320,192,50183,128,0,50334:0:0:0:0:
448,192,50334,1,0,0:0:0:0:
192,192,50334,128,0,50486:0:0:0:0:
64,192,50486,128,0,50638:0:0:0:0:
320,192,50638,1,0,0:0:0:0:
448,192,50638,1,0,0:0:0:0:
320,192,50789,1,0,0:0:0:0:
448,192,50789,1,0,0:0:0:0:
192,192,50941,1,0,0:0:0:0:
64,192,50941,1,0,0:0:0:0:
192,192,51092,1,0,0:0:0:0:
64,192,51092,1,0,0:0:0:0:
448,192,51244,128,0,51547:0:0:0:0:
320,192,51244,1,0,0:0:0:0:
64,192,51395,1,0,0:0:0:0:
320,192,51547,1,0,0:0:0:0:
192,192,51547,1,0,0:0:0:0:
64,192,51698,1,0,0:0:0:0:
192,192,51850,1,0,0:0:0:0:
448,192,51850,1,0,0:0:0:0:
448,192,52001,1,0,0:0:0:0:
192,192,52001,1,0,0:0:0:0:
320,192,52153,1,0,0:0:0:0:
64,192,52153,1,0,0:0:0:0:
320,192,52304,1,0,0:0:0:0:
192,192,52304,1,0,0:0:0:0:
448,192,52304,1,0,0:0:0:0:
320,192,52607,128,0,52759:0:0:0:0:
448,192,52759,128,0,52910:0:0:0:70:G6H.wav
64,192,52759,128,0,53062:0:0:0:0:
192,192,52910,128,0,53062:0:0:0:0:
448,192,53062,128,0,53213:0:0:0:0:
320,192,53062,128,0,53213:0:0:0:70:F#6H_Gb6H.wav
192,192,53213,128,0,53365:0:0:0:70:G6H.wav
64,192,53213,128,0,53365:0:0:0:0:
192,192,53516,1,0,0:0:0:0:
320,192,53516,1,0,0:0:0:0:
448,192,53516,128,0,53819:0:0:0:100:D7H.wav
64,192,53516,128,0,53819:0:0:0:0:
192,192,53819,1,0,0:0:0:0:
320,192,53819,1,0,0:0:0:0:
64,192,53971,1,0,0:0:0:70:G6H.wav
192,192,53971,1,0,0:0:0:0:
448,192,53971,1,0,0:0:0:0:
192,192,54274,1,0,0:0:0:70:F#6H_Gb6H.wav
448,192,54274,1,0,0:0:0:0:
320,192,54425,1,0,0:0:0:0:
192,192,54425,1,0,0:0:0:70:G6H.wav
192,192,54577,1,0,0:0:0:0:
64,192,54577,1,0,0:0:0:0:
448,192,54577,1,0,0:0:0:0:
192,192,54728,1,0,0:0:0:70:G6H.wav
320,192,54728,1,0,0:0:0:0:
192,192,55031,1,0,0:0:0:0:
64,192,55031,1,0,0:0:0:0:
448,192,55183,1,0,0:0:0:0:
320,192,55183,1,0,0:0:0:0:
64,192,55183,1,0,0:0:0:70:G6H.wav
320,192,55486,1,0,0:0:0:0:
64,192,55486,1,0,0:0:0:70:F#6H_Gb6H.wav
320,192,55638,1,0,0:0:0:0:
192,192,55638,1,0,0:0:0:70:G6H.wav
320,192,55789,1,0,0:0:0:0:
448,192,55789,1,0,0:0:0:0:
64,192,55789,1,0,0:0:0:0:
320,192,55941,128,0,56244:0:0:0:100:D7H.wav
192,192,55941,128,0,56244:0:0:0:0:
448,192,56244,1,0,0:0:0:0:
64,192,56244,1,0,0:0:0:0:
192,192,56395,1,0,0:0:0:0:
448,192,56395,1,0,0:0:0:0:
64,192,56395,1,0,0:0:0:70:G6H.wav
64,192,56698,1,0,0:0:0:70:F#6H_Gb6H.wav
320,192,56698,1,0,0:0:0:0:
64,192,56850,1,0,0:0:0:70:G6H.wav
192,192,56850,1,0,0:0:0:0:
320,192,57001,1,0,0:0:0:0:
448,192,57001,1,0,0:0:0:0:
192,192,57001,1,0,0:0:0:0:
448,192,57153,1,0,0:0:0:70:B6H.wav
64,192,57153,1,0,0:0:0:0:
192,192,57456,1,0,0:0:0:0:
320,192,57456,1,0,0:0:0:0:
448,192,57607,1,0,0:0:0:0:
192,192,57607,1,0,0:0:0:0:
64,192,57607,1,0,0:0:0:70:G6H.wav
192,192,57910,1,0,0:0:0:70:F#6H_Gb6H.wav
448,192,57910,1,0,0:0:0:0:
320,192,58062,1,0,0:0:0:70:G6H.wav
448,192,58062,1,0,0:0:0:0:
192,192,58213,1,0,0:0:0:0:
320,192,58213,1,0,0:0:0:0:
64,192,58213,1,0,0:0:0:0:
64,192,58365,128,0,58668:0:0:0:100:D7H.wav
448,192,58365,128,0,58668:0:0:0:0:
320,192,58668,1,0,0:0:0:0:
192,192,58668,1,0,0:0:0:0:
64,192,58819,1,0,0:0:0:70:G6H.wav
192,192,58819,1,0,0:0:0:0:
448,192,58819,128,0,59122:0:0:0:0:
320,192,59122,1,0,0:0:0:70:F#6H_Gb6H.wav
192,192,59122,128,0,59425:0:0:0:0:
64,192,59425,1,0,0:0:0:0:
320,192,59425,1,0,0:0:0:0:
448,192,59425,1,0,0:0:0:70:G6H.wav
448,192,59728,1,0,0:0:0:100:B6H.wav
192,192,59728,1,0,0:0:0:0:
64,192,59728,1,0,0:0:0:0:
320,192,60031,1,0,0:0:0:0:
448,192,60031,1,0,0:0:0:100:A6H.wav
192,192,60031,1,0,0:0:0:0:
320,192,60334,1,0,0:0:0:0:
64,192,60334,1,0,0:0:0:100:C7H.wav
448,192,60334,1,0,0:0:0:0:
192,192,60638,1,0,0:0:0:0:
320,192,60638,1,0,0:0:0:0:
64,192,60638,1,0,0:0:0:100:B6H.wav
448,192,60941,1,0,0:0:0:0:
320,192,60941,1,0,0:0:0:0:
64,192,60941,1,0,0:0:0:70:A6H.wav
192,192,60941,1,0,0:0:0:0:
320,192,61092,1,0,0:0:0:0:
192,192,61092,1,0,0:0:0:0:
192,192,61244,1,0,0:0:0:0:
448,192,61244,1,0,0:0:0:0:
64,192,61244,1,0,0:0:0:70:B6H.wav
448,192,61395,1,0,0:0:0:70:A6H.wav
320,192,61395,1,0,0:0:0:0:
64,192,61395,1,0,0:0:0:0:
192,192,61395,1,0,0:0:0:0:
448,192,61547,1,0,0:0:0:0:
320,192,61547,1,0,0:0:0:0:
192,192,61698,1,0,0:0:0:0:
320,192,61698,1,0,0:0:0:0:
448,192,61698,1,0,0:0:0:70:G6H.wav
64,192,61698,1,0,0:0:0:0:
192,192,61850,1,0,0:0:0:0:
64,192,61850,1,0,0:0:0:0:
64,192,62001,1,0,0:0:0:70:B6H.wav
320,192,62001,1,0,0:0:0:0:
192,192,62001,128,0,62304:0:0:0:0:
448,192,62001,128,0,62304:0:0:0:0:
64,192,62304,1,0,0:0:0:0:
320,192,62304,1,0,0:0:0:0:
192,192,62456,1,0,0:0:0:0:
320,192,62456,1,0,0:0:0:0:
448,192,62456,1,0,0:0:0:70:G6H.wav
64,192,62607,1,0,0:0:0:0:
192,192,62607,1,0,0:0:0:0:
448,192,62759,1,0,0:0:0:70:F#6H_Gb6H.wav
320,192,62759,1,0,0:0:0:0:
192,192,62834,1,0,0:0:0:0:
64,192,62834,1,0,0:0:0:0:
320,192,62910,1,0,0:0:0:0:
448,192,62910,1,0,0:0:0:70:G6H.wav
192,192,62986,1,0,0:0:0:0:
64,192,62986,1,0,0:0:0:0:
320,192,63062,1,0,0:0:0:0:
448,192,63062,1,0,0:0:0:0:
192,192,63138,1,0,0:0:0:0:
320,192,63213,128,0,63516:0:0:0:100:D7H.wav
448,192,63213,128,0,63516:0:0:0:0:
64,192,63213,1,0,0:0:0:0:
192,192,63516,1,0,0:0:0:0:
64,192,63516,1,0,0:0:0:0:
192,192,63668,1,0,0:0:0:0:
320,192,63668,1,0,0:0:0:0:
448,192,63668,1,0,0:0:0:70:G6H.wav
192,192,63971,1,0,0:0:0:70:F#6H_Gb6H.wav
320,192,63971,1,0,0:0:0:0:
64,192,64122,1,0,0:0:0:70:G6H.wav
448,192,64122,1,0,0:0:0:0:
192,192,64274,1,0,0:0:0:0:
64,192,64274,1,0,0:0:0:0:
448,192,64274,1,0,0:0:0:0:
320,192,64425,1,0,0:0:0:0:
192,192,64425,1,0,0:0:0:70:G6H.wav
448,192,64728,1,0,0:0:0:0:
64,192,64728,1,0,0:0:0:0:
320,192,64880,1,0,0:0:0:0:
192,192,64880,1,0,0:0:0:0:
64,192,64880,1,0,0:0:0:70:G6H.wav
320,192,65183,1,0,0:0:0:0:
192,192,65183,1,0,0:0:0:70:F#6H_Gb6H.wav
448,192,65334,1,0,0:0:0:70:G6H.wav
64,192,65334,1,0,0:0:0:0:
320,192,65486,1,0,0:0:0:0:
448,192,65486,1,0,0:0:0:0:
64,192,65486,1,0,0:0:0:0:
320,192,65638,128,0,65941:0:0:0:100:D7H.wav
192,192,65638,128,0,65941:0:0:0:0:
64,192,65941,1,0,0:0:0:0:
448,192,65941,1,0,0:0:0:0:
448,192,66092,1,0,0:0:0:70:G6H.wav
320,192,66092,1,0,0:0:0:0:
192,192,66092,1,0,0:0:0:0:
64,192,66395,1,0,0:0:0:70:F#6H_Gb6H.wav
448,192,66395,1,0,0:0:0:0:
192,192,66547,1,0,0:0:0:70:G6H.wav
320,192,66547,1,0,0:0:0:0:
64,192,66698,1,0,0:0:0:0:
448,192,66698,1,0,0:0:0:0:
192,192,66698,1,0,0:0:0:0:
448,192,66850,128,0,67153:0:0:0:70:B6H.wav
64,192,66850,128,0,67153:0:0:0:0:
192,192,67153,1,0,0:0:0:0:
320,192,67153,1,0,0:0:0:0:
448,192,67304,1,0,0:0:0:70:C7H.wav
320,192,67304,1,0,0:0:0:0:
64,192,67304,1,0,0:0:0:0:
192,192,67456,1,0,0:0:0:0:
64,192,67456,1,0,0:0:0:0:
320,192,67607,1,0,0:0:0:0:
448,192,67607,1,0,0:0:0:70:B6H.wav
192,192,67607,1,0,0:0:0:0:
64,192,67759,1,0,0:0:0:0:
448,192,67759,1,0,0:0:0:0:
320,192,67910,1,0,0:0:0:70:A6H.wav
192,192,67910,1,0,0:0:0:0:
64,192,67910,1,0,0:0:0:0:
64,192,68062,128,0,68365:0:0:0:0:
448,192,68062,128,0,68365:0:0:0:70:G6H.wav
320,192,68062,1,0,0:0:0:0:
192,192,68365,1,0,0:0:0:0:
320,192,68365,1,0,0:0:0:0:
448,192,68516,1,0,0:0:0:0:
192,192,68516,1,0,0:0:0:0:
64,192,68516,1,0,0:0:0:0:
448,192,68819,1,0,0:0:0:0:
320,192,68819,1,0,0:0:0:0:
448,192,68971,1,0,0:0:0:0:
192,192,68971,1,0,0:0:0:0:
320,192,69122,1,0,0:0:0:0:
448,192,69122,1,0,0:0:0:0:
64,192,69122,1,0,0:0:0:70:D6H.wav
192,192,69425,1,0,0:0:0:0:
320,192,69425,1,0,0:0:0:70:G6H.wav
64,192,69728,1,0,0:0:0:70:D6H.wav
192,192,69728,1,0,0:0:0:0:
448,192,69728,1,0,0:0:0:0:
64,192,70031,1,0,0:0:0:70:D7H.wav
192,192,70031,1,0,0:0:0:0:
64,192,70183,1,0,0:0:0:0:
320,192,70183,1,0,0:0:0:0:
192,192,70334,1,0,0:0:0:0:
64,192,70334,1,0,0:0:0:70:G6H.wav
448,192,70334,1,0,0:0:0:0:
448,192,70486,128,0,70789:0:0:0:70:A6H.wav
320,192,70486,128,0,70789:0:0:0:0:
192,192,70486,1,0,0:0:0:0:
192,192,70789,1,0,0:0:0:0:
64,192,70789,1,0,0:0:0:0:
320,192,70941,1,0,0:0:0:0:
448,192,70941,1,0,0:0:0:0:
64,192,70941,1,0,0:0:0:0:
192,192,71244,1,0,0:0:0:0:
320,192,71244,1,0,0:0:0:0:
64,192,71395,1,0,0:0:0:0:
448,192,71395,1,0,0:0:0:0:
192,192,71547,1,0,0:0:0:0:
448,192,71547,1,0,0:0:0:0:
64,192,71547,1,0,0:0:0:70:G6H.wav
320,192,71850,1,0,0:0:0:0:
192,192,71850,1,0,0:0:0:70:F#6H_Gb6H.wav
64,192,72153,1,0,0:0:0:70:G6H.wav
320,192,72153,1,0,0:0:0:0:
448,192,72153,1,0,0:0:0:0:
64,192,72304,1,0,0:0:0:0:
192,192,72304,1,0,0:0:0:0:
320,192,72456,1,0,0:0:0:0:
448,192,72456,1,0,0:0:0:70:A6H.wav
192,192,72531,1,0,0:0:0:0:
64,192,72531,1,0,0:0:0:0:
320,192,72607,1,0,0:0:0:0:
448,192,72607,1,0,0:0:0:0:
64,192,72683,1,0,0:0:0:0:
192,192,72683,1,0,0:0:0:0:
448,192,72759,1,0,0:0:0:0:
320,192,72759,1,0,0:0:0:0:
64,192,72910,128,0,73213:0:0:0:70:G6H.wav
448,192,72910,128,0,73213:0:0:0:0:
192,192,72910,1,0,0:0:0:0:
320,192,73213,1,0,0:0:0:0:
192,192,73213,1,0,0:0:0:0:
320,192,73365,1,0,0:0:0:0:
64,192,73365,1,0,0:0:0:0:
448,192,73365,1,0,0:0:0:0:
192,192,73516,1,0,0:0:0:0:
320,192,73516,1,0,0:0:0:0:
192,192,73668,1,0,0:0:0:0:
64,192,73668,1,0,0:0:0:0:
448,192,73668,1,0,0:0:0:0:
64,192,73819,1,0,0:0:0:0:
192,192,73819,1,0,0:0:0:0:
64,192,73971,1,0,0:0:0:70:D6H.wav
320,192,73971,1,0,0:0:0:0:
448,192,73971,1,0,0:0:0:0:
320,192,74122,1,0,0:0:0:0:
448,192,74122,1,0,0:0:0:0:
192,192,74274,1,0,0:0:0:0:
64,192,74274,1,0,0:0:0:0:
448,192,74274,1,0,0:0:0:70:G6H.wav
192,192,74425,1,0,0:0:0:0:
320,192,74425,1,0,0:0:0:0:
320,192,74577,1,0,0:0:0:0:
64,192,74577,1,0,0:0:0:70:D6H.wav
448,192,74577,1,0,0:0:0:0:
64,192,74728,1,0,0:0:0:0:
192,192,74728,1,0,0:0:0:0:
320,192,74880,1,0,0:0:0:0:
64,192,74880,1,0,0:0:0:100:D7H.wav
448,192,74880,1,0,0:0:0:0:
192,192,74956,1,0,0:0:0:0:
320,192,75031,1,0,0:0:0:0:
448,192,75107,1,0,0:0:0:0:
192,192,75183,1,0,0:0:0:0:
320,192,75183,1,0,0:0:0:0:
64,192,75183,1,0,0:0:0:70:G6H.wav
448,192,75334,1,0,0:0:0:70:A6H.wav
192,192,75334,128,0,75638:0:0:0:0:
64,192,75334,128,0,75638:0:0:0:0:
448,192,75638,1,0,0:0:0:0:
320,192,75638,1,0,0:0:0:0:
192,192,75789,1,0,0:0:0:0:
64,192,75789,1,0,0:0:0:0:
448,192,75789,1,0,0:0:0:0:
320,192,75941,1,0,0:0:0:0:
64,192,75941,1,0,0:0:0:0:
320,192,76092,1,0,0:0:0:0:
448,192,76092,1,0,0:0:0:0:
64,192,76092,1,0,0:0:0:0:
448,192,76244,1,0,0:0:0:0:
192,192,76244,1,0,0:0:0:0:
448,192,76395,1,0,0:0:0:0:
192,192,76395,1,0,0:0:0:0:
64,192,76395,1,0,0:0:0:70:G6H.wav
320,192,76547,1,0,0:0:0:0:
448,192,76547,1,0,0:0:0:0:
192,192,76622,1,0,0:0:0:0:
64,192,76698,1,0,0:0:0:0:
320,192,76698,128,0,78516:0:0:0:70:F#6H_Gb6H.wav
448,192,76698,128,0,78516:0:0:0:0:
192,192,78516,128,0,78971:0:0:0:0:
320,192,78819,128,0,78971:0:0:0:0:
64,192,78971,128,0,79274:0:0:0:0:
448,192,78971,128,0,79274:0:0:0:0:
192,192,79274,1,0,0:0:0:0:
320,192,79274,1,0,0:0:0:0:
320,192,79425,1,0,0:0:0:0:
64,192,79425,1,0,0:0:0:0:
448,192,79425,1,0,0:0:0:0:
320,192,79728,1,0,0:0:0:0:
192,192,79728,1,0,0:0:0:0:
320,192,79880,1,0,0:0:0:0:
192,192,79880,1,0,0:0:0:0:
192,192,80031,1,0,0:0:0:0:
448,192,80031,1,0,0:0:0:0:
64,192,80031,1,0,0:0:0:0:
64,192,80183,128,0,80486:0:0:0:0:
448,192,80183,128,0,80486:0:0:0:0:
320,192,80486,1,0,0:0:0:0:
192,192,80486,1,0,0:0:0:0:
320,192,80638,1,0,0:0:0:0:
64,192,80638,1,0,0:0:0:0:
448,192,80638,1,0,0:0:0:0:
320,192,80941,1,0,0:0:0:0:
448,192,80941,1,0,0:0:0:0:
64,192,81016,1,0,0:0:0:0:
320,192,81092,1,0,0:0:0:0:
192,192,81092,1,0,0:0:0:0:
64,192,81244,1,0,0:0:0:0:
192,192,81244,1,0,0:0:0:0:
448,192,81244,1,0,0:0:0:0:
192,192,81395,128,0,81698:0:0:0:0:
320,192,81395,128,0,81698:0:0:0:0:
64,192,81698,1,0,0:0:0:0:
448,192,81698,1,0,0:0:0:0:
64,192,81850,1,0,0:0:0:0:
320,192,81850,1,0,0:0:0:0:
448,192,81850,1,0,0:0:0:0:
320,192,82153,1,0,0:0:0:0:
192,192,82153,1,0,0:0:0:0:
320,192,82304,1,0,0:0:0:0:
192,192,82304,1,0,0:0:0:0:
64,192,82456,1,0,0:0:0:0:
448,192,82456,1,0,0:0:0:0:
192,192,82456,1,0,0:0:0:0:
64,192,82607,128,0,82910:0:0:0:0:
448,192,82607,128,0,82910:0:0:0:0:
320,192,82910,1,0,0:0:0:0:
192,192,82910,1,0,0:0:0:0:
320,192,83062,1,0,0:0:0:0:
448,192,83062,1,0,0:0:0:0:
64,192,83062,1,0,0:0:0:0:
192,192,83365,1,0,0:0:0:0:
320,192,83365,1,0,0:0:0:0:
64,192,83441,1,0,0:0:0:0:
448,192,83516,1,0,0:0:0:0:
320,192,83516,1,0,0:0:0:0:
64,192,83668,1,0,0:0:0:0:
192,192,83668,1,0,0:0:0:0:
448,192,83744,1,0,0:0:0:0:
320,192,83744,1,0,0:0:0:0:
192,192,83819,1,0,0:0:0:0:
64,192,83819,1,0,0:0:0:0:
320,192,83895,1,0,0:0:0:0:
64,192,83971,1,0,0:0:0:0:
192,192,83971,1,0,0:0:0:0:
448,192,83971,1,0,0:0:0:0:
320,192,84122,1,0,0:0:0:0:
448,192,84122,1,0,0:0:0:0:
192,192,84274,1,0,0:0:0:0:
320,192,84274,1,0,0:0:0:0:
64,192,84425,1,0,0:0:0:0:
320,192,84425,1,0,0:0:0:0:
448,192,84425,1,0,0:0:0:0:
64,192,84577,1,0,0:0:0:0:
192,192,84577,1,0,0:0:0:0:
192,192,84728,1,0,0:0:0:0:
320,192,84728,1,0,0:0:0:0:
448,192,84880,1,0,0:0:0:0:
64,192,84880,1,0,0:0:0:0:
320,192,84880,1,0,0:0:0:0:
192,192,85031,128,0,86395:0:0:0:0:
320,192,85031,128,0,86395:0:0:0:0:
64,192,85031,1,0,0:0:0:0:
448,192,85031,1,0,0:0:0:0:
