osu file format v14

[General]
AudioFilename: audio.mp3
AudioLeadIn: 500
PreviewTime: 52595
Countdown: 0
SampleSet: Soft
StackLeniency: 0.5
Mode: 0
LetterboxInBreaks: 0
EpilepsyWarning: 1
WidescreenStoryboard: 1

[Editor]
Bookmarks: 84413
DistanceSpacing: 1
BeatDivisor: 4
GridSize: 4
TimelineZoom: 2.200001

[Metadata]
Title:Twintail Dreamer! (TV Size)
TitleUnicode:ツインテール・ドリーマー! (TV Size)
Artist:Twin-Tails
ArtistUnicode:ツインテイルズ
Creator:Moecho
Version:yf's Low Ponytail Extra
Source:俺、ツインテールになります。
Tags:Twintails OreTwi Ore, Tsuinteru Tsuintēru ni Narimasu. Gonna be the Twin-Tail!! テイルレッド Tail Red 上坂すみれ Uesaka Sumire テイルブルー Blue 相坂優歌 Aisaka Yuuka テイルイエロー Yellow 赤﨑千夏 Akasaki Chinatsu Ending Theme ED TV Size edit Anime papiyon japanese pop j-pop jpop Kodora Laurier Natteke Kite HabiHolic Loneight L18 Lecana Giralda captin1 jonathanlfj apaffy kisata Nyquill RLC LunarSakuya Mythol meiikyuu Syameimaru-Aya Ayaya caren_sk CRN kiddly Axarious Delis ShirohaMyMommy SMM Koiyuki Minakami Yuki yf_bmp yf Skystar Amamiya Yuko rui rustbell spro sprosive Snow Note 7odoa bakabaka Hollow Wings HW
BeatmapID:3592569
BeatmapSetID:1115213

[Difficulty]
HPDrainRate:7
CircleSize:4.1
OverallDifficulty:8.2
ApproachRate:9.3
SliderMultiplier:1.8
SliderTickRate:1

[Events]
//Background and Video events
0,0,"bg.jpg",0,0
//Break Periods
//Storyboard Layer 0 (Background)
Sprite,Background,Centre,"sb\sprites\pixel-white.png",320,240 F,0,-75,,0,1 C,0,-75,,0,0,0 V,0,-75,,880,480 F,0,89604,,1,0
Sprite,Background,Centre,"bg.jpg",320,240 F,0,-2574,-1574,0,0.75 S,0,-1574,,0.4444444 F,0,322,472,0.75,0
Sprite,Background,Centre,"bg.jpg",320,240 F,0,88110,89110,0,0.75 S,0,89110,,0.4444444 F,0,89769,89919,0.75,0
Sprite,Background,Centre,"sb\sprites\bg-alt.jpg",320,240 F,0,172,322,0,0.75 S,0,322,,0.4444444 F,0,21141,22291,0.75,0
Sprite,Background,Centre,"sb\sprites\bg-alt.jpg",320,240 F,0,53354,53504,0,0.75 S,0,53504,,0.4444444 F,0,88110,89260,0.75,0
Sprite,Background,Centre,"sb\sprites\bg-alt-bw.jpg",320,240 F,0,21991,22291,0,0.75 S,0,22141,,0.4444444 F,0,39671,40471,0.75,0
Sprite,Background,Centre,"sb\sprites\bg-alt-bw.jpg",320,240 F,0,50476,50776,0,0.75 S,0,50626,,0.4444444 F,0,51792,52592,0.75,0
Sprite,Background,Centre,"sb\sprites\tail-red-ci.jpg",320,240 F,0,40779,41079,0,0.75 S,0,40929,,0.4444444 F,0,48807,50307,0.75,0
Sprite,Background,Centre,"sb\sprites\tail-blue-ci.jpg",320,240 F,0,42900,43200,0,0.75 S,0,43050,,0.4444444 F,0,48807,50307,0.75,0
Sprite,Background,Centre,"sb\sprites\tail-yellow-ci.jpg",320,240 F,0,45324,45624,0,0.75 S,0,45474,,0.4444444 F,0,48807,50307,0.75,0
Sprite,Background,Centre,"sb\sprites\pixel-white.png",320,240 V,0,2595,,854,480 F,0,2595,3195,0.15,0
Sprite,Background,Centre,"sb\sprites\pixel-white.png",320,240 V,0,3807,,854,480 F,0,3807,4407,0.15,0
Sprite,Background,Centre,"sb\sprites\pixel-white.png",320,240 V,0,5019,,854,480 F,0,5019,5619,0.15,0
Sprite,Background,Centre,"sb\sprites\pixel-white.png",320,240 V,0,5777,,854,480 F,0,5777,6377,0.15,0
Sprite,Background,Centre,"sb\sprites\pixel-white.png",320,240 V,0,6232,,854,480 F,0,6232,6832,0.15,0
Sprite,Background,Centre,"sb\sprites\pixel-white.png",320,240 V,0,6989,,854,480 F,0,6989,7589,0.15,0
Sprite,Background,Centre,"sb\sprites\pixel-white.png",320,240 V,0,7444,,854,480 F,0,7444,8044,0.15,0
Sprite,Background,Centre,"sb\sprites\pixel-white.png",320,240 V,0,9868,,854,480 F,0,9868,10468,0.15,0
Sprite,Background,Centre,"sb\sprites\pixel-white.png",320,240 V,0,12292,,854,480 F,0,12292,12892,0.15,0
Sprite,Background,Centre,"sb\sprites\pixel-white.png",320,240 V,0,13504,,854,480 F,0,13504,14104,0.15,0
Sprite,Background,Centre,"sb\sprites\pixel-white.png",320,240 V,0,14716,,854,480 F,0,14716,15316,0.15,0
Sprite,Background,Centre,"sb\sprites\pixel-white.png",320,240 V,0,15929,,854,480 F,0,15929,16529,0.15,0
Sprite,Background,Centre,"sb\sprites\pixel-white.png",320,240 V,0,17141,,854,480 F,0,17141,17741,0.15,0
Sprite,Background,Centre,"sb\sprites\pixel-white.png",320,240 V,0,18353,,854,480 F,0,18353,18953,0.15,0
Sprite,Background,Centre,"sb\sprites\pixel-white.png",320,240 V,0,19565,,854,480 F,0,19565,20165,0.15,0
Sprite,Background,Centre,"sb\sprites\pixel-white.png",320,240 V,0,20019,,854,480 F,0,20019,20619,0.15,0
Sprite,Background,Centre,"sb\sprites\pixel-white.png",320,240 V,0,20777,,854,480 F,0,20777,21377,0.15,0
Sprite,Background,Centre,"sb\sprites\pixel-white.png",320,240 V,0,21232,,854,480 F,0,21232,21832,0.15,0
Sprite,Background,Centre,"sb\sprites\pixel-white.png",320,240 V,0,22141,,854,480 F,0,22141,22741,0.15,0
Sprite,Background,Centre,"sb\sprites\pixel-white.png",320,240 V,0,30474,,854,480 F,0,30474,31074,0.15,0
Sprite,Background,Centre,"sb\sprites\pixel-white.png",320,240 V,0,31838,,854,480 F,0,31838,32438,0.15,0
Sprite,Background,Centre,"sb\sprites\pixel-white.png",320,240 V,0,39110,,854,480 F,0,39110,39710,0.15,0
Sprite,Background,Centre,"sb\sprites\pixel-white.png",320,240 V,0,40171,,854,480 F,0,40171,40771,0.15,0
Sprite,Background,Centre,"sb\sprites\pixel-white.png",320,240 V,0,41535,,854,480 F,0,41535,42135,0.15,0
Sprite,Background,Centre,"sb\sprites\pixel-white.png",320,240 V,0,46232,,854,480 F,0,46232,46832,0.15,0
Sprite,Background,Centre,"sb\sprites\pixel-white.png",320,240 V,0,48807,,854,480 F,0,48807,49407,0.15,0
Sprite,Background,Centre,"sb\sprites\pixel-white.png",320,240 V,0,53504,,854,480 F,0,53504,54104,0.15,0
Sprite,Background,Centre,"sb\sprites\pixel-white.png",320,240 V,0,54716,,854,480 F,0,54716,55316,0.15,0
Sprite,Background,Centre,"sb\sprites\pixel-white.png",320,240 V,0,55929,,854,480 F,0,55929,56529,0.15,0
Sprite,Background,Centre,"sb\sprites\pixel-white.png",320,240 V,0,57141,,854,480 F,0,57141,57741,0.15,0
Sprite,Background,Centre,"sb\sprites\pixel-white.png",320,240 V,0,58353,,854,480 F,0,58353,58953,0.15,0
Sprite,Background,Centre,"sb\sprites\pixel-white.png",320,240 V,0,60929,,854,480 F,0,60929,61529,0.15,0
Sprite,Background,Centre,"sb\sprites\pixel-white.png",320,240 V,0,61383,,854,480 F,0,61383,61983,0.15,0
Sprite,Background,Centre,"sb\sprites\pixel-white.png",320,240 V,0,61686,,854,480 F,0,61686,62286,0.15,0
Sprite,Background,Centre,"sb\sprites\pixel-white.png",320,240 V,0,61989,,854,480 F,0,61989,62589,0.15,0
Sprite,Background,Centre,"sb\sprites\pixel-white.png",320,240 V,0,63201,,854,480 F,0,63201,63801,0.15,0
Sprite,Background,Centre,"sb\sprites\pixel-white.png",320,240 V,0,64413,,854,480 F,0,64413,65013,0.15,0
Sprite,Background,Centre,"sb\sprites\pixel-white.png",320,240 V,0,65626,,854,480 F,0,65626,66226,0.15,0
Sprite,Background,Centre,"sb\sprites\pixel-white.png",320,240 V,0,66838,,854,480 F,0,66838,67438,0.15,0
Sprite,Background,Centre,"sb\sprites\pixel-white.png",320,240 V,0,68050,,854,480 F,0,68050,68650,0.15,0
Sprite,Background,Centre,"sb\sprites\pixel-white.png",320,240 V,0,69413,,854,480 F,0,69413,70013,0.15,0
Sprite,Background,Centre,"sb\sprites\pixel-white.png",320,240 V,0,70019,,854,480 F,0,70019,70619,0.15,0
Sprite,Background,Centre,"sb\sprites\pixel-white.png",320,240 V,0,70474,,854,480 F,0,70474,71074,0.15,0
Sprite,Background,Centre,"sb\sprites\pixel-white.png",320,240 V,0,71838,,854,480 F,0,71838,72438,0.15,0
Sprite,Background,Centre,"sb\sprites\pixel-white.png",320,240 V,0,72141,,854,480 F,0,72141,72741,0.15,0
Sprite,Background,Centre,"sb\sprites\pixel-white.png",320,240 V,0,72898,,854,480 F,0,72898,73498,0.15,0
Sprite,Background,Centre,"sb\sprites\pixel-white.png",320,240 V,0,75322,,854,480 F,0,75322,75922,0.15,0
Sprite,Background,Centre,"sb\sprites\pixel-white.png",320,240 V,0,76686,,854,480 F,0,76686,77286,0.15,0
Sprite,Background,Centre,"sb\sprites\pixel-white.png",320,240 V,0,78959,,854,480 F,0,78959,79559,0.15,0
Sprite,Background,Centre,"sb\sprites\pixel-white.png",320,240 V,0,80171,,854,480 F,0,80171,80771,0.15,0
Sprite,Background,Centre,"sb\sprites\pixel-white.png",320,240 V,0,81383,,854,480 F,0,81383,81983,0.15,0
Sprite,Background,Centre,"sb\sprites\pixel-white.png",320,240 V,0,82595,,854,480 F,0,82595,83195,0.15,0
Sprite,Background,Centre,"sb\sprites\pixel-white.png",320,240 V,0,83959,,854,480 F,0,83959,84559,0.15,0
Sprite,Background,Centre,"sb\sprites\pixel-white.png",320,240 V,0,84413,,854,480 F,0,84413,85013,0.15,0
Sprite,Background,Centre,"sb\sprites\pixel-white.png",320,240 V,0,85019,,854,480 F,0,85019,85619,0.15,0
//Storyboard Layer 1 (Fail)
//Storyboard Layer 2 (Pass)
//Storyboard Layer 3 (Foreground)
Sprite,Foreground,Centre,"sb\lyrics\0079.png",0,0 F,0,12192,12392,0,0.8 M,0,12292,,678.75,397 S,0,12292,,0.5 C,0,12292,,255,255,255 F,0,86889,87089,0.8,0
Sprite,Foreground,Centre,"sb\lyrics\0066.png",0,0 F,0,12192,12392,0,0.8 M,0,12292,,690,394 S,0,12292,,0.5 C,0,12292,,255,255,255 F,0,86889,87089,0.8,0
Sprite,Foreground,Centre,"sb\lyrics\005f.png",0,0 F,0,12192,12392,0,0.8 M,0,12292,,701,404.5 S,0,12292,,0.5 C,0,12292,,255,255,255 F,0,86889,87089,0.8,0
Sprite,Foreground,Centre,"sb\lyrics\0062.png",0,0 F,0,12192,12392,0,0.8 M,0,12292,,712.75,394 S,0,12292,,0.5 C,0,12292,,255,255,255 F,0,86889,87089,0.8,0
Sprite,Foreground,Centre,"sb\lyrics\006d.png",0,0 F,0,12192,12392,0,0.8 M,0,12292,,723.75,396.25 S,0,12292,,0.5 C,0,12292,,255,255,255 F,0,86889,87089,0.8,0
Sprite,Foreground,Centre,"sb\lyrics\0070.png",0,0 F,0,12192,12392,0,0.8 M,0,12292,,735,396.75 S,0,12292,,0.5 C,0,12292,,255,255,255 F,0,86889,87089,0.8,0
Sprite,Foreground,Centre,"sb\lyrics\0079.png",0,0 F,0,12192,12392,0,0.8 M,0,12292,,591.545,435.44 S,0,12292,,0.31 C,0,12292,,255,255,255 F,0,86889,87089,0.8,0
Sprite,Foreground,Centre,"sb\lyrics\0066.png",0,0 F,0,12192,12392,0,0.8 M,0,12292,,598.52,433.58 S,0,12292,,0.31 C,0,12292,,255,255,255 F,0,86889,87089,0.8,0
Sprite,Foreground,Centre,"sb\lyrics\0027.png",0,0 F,0,12192,12392,0,0.8 M,0,12292,,603.945,430.325 S,0,12292,,0.31 C,0,12292,,255,255,255 F,0,86889,87089,0.8,0
Sprite,Foreground,Centre,"sb\lyrics\0073.png",0,0 F,0,12192,12392,0,0.8 M,0,12292,,612.16,435.13 S,0,12292,,0.31 C,0,12292,,255,255,255 F,0,86889,87089,0.8,0
Sprite,Foreground,Centre,"sb\lyrics\004c.png",0,0 F,0,12192,12392,0,0.8 M,0,12292,,623.475,433.735 S,0,12292,,0.31 C,0,12292,,255,255,255 F,0,86889,87089,0.8,0
Sprite,Foreground,Centre,"sb\lyrics\006f.png",0,0 F,0,12192,12392,0,0.8 M,0,12292,,629.985,434.82 S,0,12292,,0.31 C,0,12292,,255,255,255 F,0,86889,87089,0.8,0
Sprite,Foreground,Centre,"sb\lyrics\0077.png",0,0 F,0,12192,12392,0,0.8 M,0,12292,,636.8051,434.975 S,0,12292,,0.31 C,0,12292,,255,255,255 F,0,86889,87089,0.8,0
Sprite,Foreground,Centre,"sb\lyrics\0050.png",0,0 F,0,12192,12392,0,0.8 M,0,12292,,648.2751,433.58 S,0,12292,,0.31 C,0,12292,,255,255,255 F,0,86889,87089,0.8,0
Sprite,Foreground,Centre,"sb\lyrics\006f.png",0,0 F,0,12192,12392,0,0.8 M,0,12292,,654.7851,434.82 S,0,12292,,0.31 C,0,12292,,255,255,255 F,0,86889,87089,0.8,0
Sprite,Foreground,Centre,"sb\lyrics\006e.png",0,0 F,0,12192,12392,0,0.8 M,0,12292,,661.9151,434.82 S,0,12292,,0.31 C,0,12292,,255,255,255 F,0,86889,87089,0.8,0
Sprite,Foreground,Centre,"sb\lyrics\0079.png",0,0 F,0,12192,12392,0,0.8 M,0,12292,,668.4251,435.44 S,0,12292,,0.31 C,0,12292,,255,255,255 F,0,86889,87089,0.8,0
Sprite,Foreground,Centre,"sb\lyrics\0074.png",0,0 F,0,12192,12392,0,0.8 M,0,12292,,675.2451,433.89 S,0,12292,,0.31 C,0,12292,,255,255,255 F,0,86889,87089,0.8,0
Sprite,Foreground,Centre,"sb\lyrics\0061.png",0,0 F,0,12192,12392,0,0.8 M,0,12292,,682.3751,434.975 S,0,12292,,0.31 C,0,12292,,255,255,255 F,0,86889,87089,0.8,0
Sprite,Foreground,Centre,"sb\lyrics\0069.png",0,0 F,0,12192,12392,0,0.8 M,0,12292,,688.8851,433.58 S,0,12292,,0.31 C,0,12292,,255,255,255 F,0,86889,87089,0.8,0
Sprite,Foreground,Centre,"sb\lyrics\006c.png",0,0 F,0,12192,12392,0,0.8 M,0,12292,,695.8601,433.58 S,0,12292,,0.31 C,0,12292,,255,255,255 F,0,86889,87089,0.8,0
Sprite,Foreground,Centre,"sb\lyrics\0045.png",0,0 F,0,12192,12392,0,0.8 M,0,12292,,707.1752,433.735 S,0,12292,,0.31 C,0,12292,,255,255,255 F,0,86889,87089,0.8,0
Sprite,Foreground,Centre,"sb\lyrics\0078.png",0,0 F,0,12192,12392,0,0.8 M,0,12292,,713.8401,434.975 S,0,12292,,0.31 C,0,12292,,255,255,255 F,0,86889,87089,0.8,0
Sprite,Foreground,Centre,"sb\lyrics\0074.png",0,0 F,0,12192,12392,0,0.8 M,0,12292,,720.5052,433.89 S,0,12292,,0.31 C,0,12292,,255,255,255 F,0,86889,87089,0.8,0
Sprite,Foreground,Centre,"sb\lyrics\0072.png",0,0 F,0,12192,12392,0,0.8 M,0,12292,,727.4802,434.82 S,0,12292,,0.31 C,0,12292,,255,255,255 F,0,86889,87089,0.8,0
Sprite,Foreground,Centre,"sb\lyrics\0061.png",0,0 F,0,12192,12392,0,0.8 M,0,12292,,734.4552,434.975 S,0,12292,,0.31 C,0,12292,,255,255,255 F,0,86889,87089,0.8,0
//Storyboard Layer 4 (Overlay)
//Storyboard Sound Samples

[TimingPoints]
323,303.030303030303,4,2,50,60,1,0
1838,-100,4,2,50,60,0,0
2595,-133.333333333333,4,2,50,60,0,0
6232,-100,4,2,50,60,0,0
7444,-83.3333333333333,4,2,50,60,0,0
7898,-100,4,2,50,60,0,0
10095,-100,4,2,50,30,0,0
10171,-100,4,2,50,60,0,0
12292,-83.3333333333333,4,2,50,60,0,0
12595,-100,4,2,50,60,0,0
20777,-83.3333333333333,4,2,50,60,0,0
21080,-100,4,2,50,60,0,0
22141,-111.111111111111,4,2,50,60,0,0
30171,-100,4,2,50,60,0,0
30929,-83.3333333333333,4,2,50,60,0,0
31535,-76.9230769230769,4,2,50,60,0,0
31686,-66.6666666666667,4,2,50,60,0,0
31838,-90.9090909090909,4,2,50,60,0,0
39565,-83.3333333333333,4,2,50,60,0,0
41459,-133.333333333333,4,2,50,60,0,0
52292,-50,4,2,50,60,0,0
52519,-200,4,2,50,60,0,0
53504,-83.3333333333333,4,2,50,70,0,1
78504,-83.3333333333333,4,2,50,5,0,1
78580,-83.3333333333333,4,2,50,70,0,1
79262,-100,4,2,50,60,0,0
85019,-200,4,2,50,60,0,0
86232,-200,4,2,50,5,0,0
86383,-57.1428571428571,4,2,50,60,0,0
86661,-83.3333333333333,4,2,50,60,0,0

[Colours]
Combo1 : 192,192,192
Combo2 : 255,50,50
Combo3 : 255,125,125
Combo4 : 25,100,255
Combo5 : 50,150,255
Combo6 : 255,255,50
Combo7 : 255,255,150
Combo8 : 128,128,128

[HitObjects]
236,328,323,101,2,0:0:0:0:
264,212,474,1,0,0:0:0:0:
252,364,626,1,0,0:0:0:0:
280,248,777,1,0,0:0:0:0:
192,256,1232,5,2,0:0:0:0:
356,308,1383,1,0,0:0:0:0:
156,272,1535,1,0,0:0:0:0:
320,324,1686,1,0,0:0:0:0:
336,92,1838,70,0,P|328:113|329:135,1,45,8|8,0:0|0:0,0:0:0:0:
364,224,1989,1,8,1:2:0:0:
388,184,2065,1,8,1:2:0:0:
412,144,2141,1,8,1:2:0:0:
168,16,2292,1,10,1:2:0:0:
168,16,2595,54,0,P|164:84|56:64,2,202.500007724762,6|2|2,1:2|0:0|0:0,0:0:0:0:
168,16,3807,2,0,P|154:82|263:91,1,202.500007724762,6|2,1:2|0:0,0:0:0:0:
256,8,4868,1,0,0:0:0:0:
356,100,5019,6,0,P|260:128|206:211,1,202.500007724762,6|2,1:2|0:0,0:0:0:0:
512,359,5777,2,0,P|506:325|504:283,1,67.5000025749208,6|2,1:2|0:2,0:0:0:0:
504,292,6232,2,0,P|448:284|368:348,1,135,6|0,1:2|0:0,0:0:0:0:
312,368,6535,2,0,P|279:365|260:352,1,45,0|0,1:0|0:0,0:0:0:0:
232,272,6686,101,10,0:0:0:0:
267,225,6762,1,8,0:0:0:0:
324,216,6838,1,8,1:2:0:0:
373,249,6913,1,8,0:0:0:0:
384,307,6989,1,14,1:2:0:0:
296,352,7141,1,0,1:2:0:0:
348,112,7292,1,0,1:2:0:0:
296,352,7444,22,0,P|244:320|212:208,1,161.999995056153,6|0,1:2|0:0,0:0:0:0:
212,200,7747,1,0,1:0:0:0:
160,32,7898,2,0,P|168:72|160:124,1,90,10|0,1:2|1:0,0:0:0:0:
211,317,8201,2,0,P|203:277|211:225,1,90,10|0,1:2|1:0,0:0:0:0:
32,184,8504,2,0,B|67:207|67:207|114:205,1,90,10|0,1:2|1:0,0:0:0:0:
340,132,8807,22,0,B|304:108|304:108|257:110,1,90,10|0,1:2|1:0,0:0:0:0:
211,317,9110,2,0,L|315:321,1,90,10|0,1:2|1:0,0:0:0:0:
424,184,9413,6,0,P|432:205|431:227,1,45,10|8,1:2|1:2,0:0:0:0:
396,304,9565,1,8,1:2:0:0:
396,304,9641,1,8,1:2:0:0:
396,304,9716,2,0,P|388:283|389:261,1,45,10|0,1:2|1:0,0:0:0:0:
340,132,9868,70,0,L|204:140,1,135.000005149841,6|0,1:2|0:0,0:0:0:0:
173,141,10171,1,0,1:0:0:0:
436,0,10322,2,0,L|424:96,1,90,10|0,1:2|1:0,0:0:0:0:
304,209,10626,2,0,B|310:162|310:162|341:132,1,90,10|0,1:2|1:0,0:0:0:0:
512,216,10929,2,0,B|505:262|505:262|474:292,1,90,10|0,1:2|1:0,0:0:0:0:
392,312,11156,1,0,1:0:0:0:
392,312,11232,21,10,1:2:0:0:
260,384,11383,1,0,1:0:0:0:
182,245,11535,2,0,B|137:233|137:233|95:248,1,90,10|0,1:2|1:0,0:0:0:0:
120,384,11838,2,0,P|110:363|99:343,1,45,10|0,1:2|0:0,0:0:0:0:
0,156,11989,1,8,0:0:0:0:
0,156,12065,1,8,0:0:0:0:
0,156,12141,2,0,P|10:175|16:197,1,45,10|8,1:2|0:0,0:0:0:0:
2,370,12292,86,0,P|22:310|114:242,1,161.999995056153,4|0,1:2|0:0,0:0:0:0:
144,248,12595,1,2,1:2:0:0:
344,384,12747,2,0,P|337:341|304:292,1,90,8|0,1:2|0:0,0:0:0:0:
192,356,13050,1,0,1:2:0:0:
428,300,13201,1,2,1:2:0:0:
272,204,13353,1,8,1:2:0:0:
192,356,13504,6,0,P|258:358|316:304,1,135,4|0,1:2|0:0,0:0:0:0:
328,272,13807,1,2,1:2:0:0:
460,132,13959,2,0,P|482:175|476:231,1,90,8|0,1:2|0:0,0:0:0:0:
384,384,14262,1,0,1:0:0:0:
384,384,14338,1,2,0:0:0:0:
384,384,14413,1,2,1:2:0:0:
192,232,14565,1,8,1:2:0:0:
388,80,14716,102,0,P|332:128|340:192,1,135.000005149841,4|0,1:2|0:0,0:0:0:0:
372,212,15019,1,2,1:2:0:0:
208,280,15171,2,0,P|201:327|184:368,1,90,10|0,1:2|0:0,0:0:0:0:
40,312,15474,1,2,1:2:0:0:
96,76,15626,1,0,1:2:0:0:
192,232,15777,1,8,1:2:0:0:
40,312,15929,6,0,P|37:245|91:187,1,135,4|0,1:2|0:0,0:0:0:0:
124,176,16232,1,2,1:2:0:0:
272,32,16383,2,0,P|228:55|172:49,1,90,10|0,1:2|0:0,0:0:0:0:
12,120,16686,1,0,1:0:0:0:
12,120,16762,1,2,0:0:0:0:
12,120,16838,1,2,1:2:0:0:
164,312,16989,1,8,1:2:0:0:
312,120,17141,102,0,P|377:120|416:172,1,135.000005149841,4|0,1:2|0:0,0:0:0:0:
404,220,17444,1,2,1:2:0:0:
248,368,17595,2,0,P|244:323|265:284,1,90,10|0,1:2|0:0,0:0:0:0:
484,352,17898,1,0,1:0:0:0:
484,352,17974,1,2,0:0:0:0:
484,352,18050,1,2,1:2:0:0:
344,356,18201,1,8,1:2:0:0:
472,268,18353,6,0,B|425:250|432:294|383:297|385:253|343:271,1,135,4|0,1:2|0:0,0:0:0:0:
320,232,18656,1,2,1:2:0:0:
224,72,18807,2,0,P|228:48|244:28,1,45,8|0,1:2|0:0,0:0:0:0:
268,144,18959,2,0,P|264:168|248:188,1,45,2|0,0:0|0:0,0:0:0:0:
80,64,19110,2,0,P|100:56|128:56,1,45,0|0,1:2|0:0,0:0:0:0:
200,168,19262,2,0,P|211:182|240:188,1,45,2|0,1:2|0:0,0:0:0:0:
384,152,19413,2,0,P|392:136|396:108,1,45,8|0,1:2|0:0,0:0:0:0:
512,20,19565,102,0,P|448:-12|384:4,1,135.000005149841,14|0,1:2|0:0,0:0:0:0:
352,32,19868,1,0,1:0:0:0:
319,231,20019,2,0,P|281:274|223:271,1,90,14|0,1:2|0:0,0:0:0:0:
389,1,20322,2,0,P|445:11|471:64,1,90,8|2,1:2|1:2,0:0:0:0:
152,44,20626,1,8,1:2:0:0:
319,231,20777,6,0,P|349:306|342:386,1,161.999995056153,6|0,1:2|0:0,0:1:0:0:
267,321,21080,2,0,P|261:299|251:279,1,45,0|0,1:0|0:0,0:0:0:0:
408,220,21232,2,0,P|418:239|423:261,1,45,14|0,1:2|0:0,0:0:0:0:
180,240,21383,2,0,P|156:228|124:228,1,45,2|0,0:2|0:0,0:0:0:0:
416,140,21535,5,8,0:0:0:0:
456,128,21610,1,8,0:0:0:0:
424,116,21686,1,8,0:0:0:0:
464,104,21762,1,8,0:0:0:0:
440,64,21838,5,8,0:0:0:0:
408,28,21913,1,8,0:0:0:0:
360,20,21989,1,8,0:0:0:0:
316,40,22065,1,8,0:0:0:0:
295,88,22141,22,0,P|220:111|152:72,1,161.999995056153,6|0,1:2|1:0,0:0:0:0:
116,184,22595,1,0,3:0:0:0:
64,0,22747,2,0,P|70:40|66:84,1,80.9999975280763,0|2,1:0|0:0,0:0:0:0:
16,232,23050,2,0,P|9:191|13:147,1,80.9999975280763,0|2,1:0|0:0,0:0:0:0:
116,184,23353,1,0,1:0:0:0:
88,372,23504,85,0,3:0:0:0:
152,356,23656,1,0,1:0:0:0:
216,340,23807,1,0,3:0:0:0:
152,356,23959,1,0,1:0:0:0:
336,248,24110,21,2,3:2:0:0:
300,384,24262,1,0,1:0:0:0:
336,248,24413,1,0,3:2:0:0:
436,364,24565,86,0,P|459:288|420:220,1,161.999995056153,2|0,1:2|1:0,0:0:0:0:
512,180,25019,1,0,3:0:0:0:
312,128,25171,2,0,P|352:134|396:130,1,80.9999975280763,0|2,1:0|0:0,0:0:0:0:
512,48,25474,2,0,P|471:41|427:45,1,80.9999975280763,0|2,1:0|0:0,0:0:0:0:
512,180,25777,1,0,1:0:0:0:
392,131,25929,21,0,0:0:0:0:
376,195,26080,1,0,1:0:0:0:
360,259,26232,1,0,3:0:0:0:
376,195,26383,1,0,1:0:0:0:
268,379,26535,85,0,3:0:0:0:
403,343,26686,1,2,1:2:0:0:
268,379,26838,1,0,3:0:0:0:
188,264,26989,22,0,P|133:215|45:223,1,161.999995056153,2|0,1:2|1:0,0:0:0:0:
0,304,27444,1,0,3:0:0:0:
131,214,27595,2,0,P|134:170|153:118,1,80.9999975280763,0|2,1:0|0:0,0:0:0:0:
68,16,27898,2,0,P|64:59|46:112,1,80.9999975280763,0|2,1:0|0:0,0:0:0:0:
208,8,28201,1,0,1:0:0:0:
259,182,28353,85,0,3:0:0:0:
195,198,28504,1,0,1:0:0:0:
131,214,28656,1,0,3:0:0:0:
195,198,28807,1,0,1:0:0:0:
11,306,28959,21,0,3:0:0:0:
47,171,29110,1,2,1:2:0:0:
11,306,29262,1,0,3:0:0:0:
144,328,29413,86,0,P|238:335|308:308,1,161.999995056153,2|0,1:2|1:0,0:0:0:0:
216,216,29868,1,0,3:0:0:0:
232,376,30019,1,0,1:0:0:0:
360,208,30171,2,0,P|387:242|392:287,1,90,10|0,0:0|1:0,0:0:0:0:
48,332,30474,22,0,P|57:241|125:186,1,180.000006866455,6|0,1:2|1:0,0:0:0:0:
56,0,30929,2,0,P|60:56|104:96,1,107.999996704102,8|0,1:2|1:0,0:0:0:0:
188,120,31156,1,0,3:0:0:0:
188,120,31232,1,0,1:0:0:0:
8,172,31383,1,0,1:0:0:0:
252,68,31535,86,0,B|293:83|293:83|269:159,1,116.999994644165,8|8,1:2|1:2,0:0:0:0:
244,232,31762,1,8,1:2:0:0:
236,256,31838,1,6,1:2:0:0:
512,48,32141,101,8,1:2:0:0:
380,284,32292,2,0,L|392:392,1,99.0000030212403,2|0,0:1|0:0,0:0:0:0:
364,288,32595,2,0,L|352:180,1,99.0000030212403,2|8,1:1|1:2,0:0:0:0:
500,64,32898,1,2,0:1:0:0:
48,4,33201,5,2,1:2:0:0:
16,104,33353,1,8,1:2:0:0:
48,4,33504,1,2,0:0:0:0:
172,48,33656,101,0,0:0:0:0:
0,80,33807,1,2,0:0:0:0:
172,48,33959,2,0,P|112:80|112:176,1,148.50000453186,8|0,1:2|0:0,0:0:0:0:
128,192,34262,1,2,1:2:0:0:
512,336,34565,5,8,1:2:0:0:
288,160,34716,2,0,L|396:172,1,99.0000030212403,2|0,0:1|1:0,0:0:0:0:
300,148,35019,2,0,L|192:136,1,99.0000030212403,2|8,0:1|1:2,0:0:0:0:
500,320,35322,1,8,1:2:0:0:
48,380,35626,101,2,1:2:0:0:
16,280,35777,1,10,1:2:0:0:
48,380,35929,1,2,0:2:0:0:
199,298,36080,5,0,1:2:0:0:
0,304,36232,1,2,1:2:0:0:
199,298,36383,2,0,P|209:219|160:176,1,148.50000453186,8|0,1:2|0:0,0:0:0:0:
117,176,36686,1,2,1:2:0:0:
272,8,36989,101,8,1:2:0:0:
320,264,37141,2,0,L|308:372,1,99.0000030212403,2|0,0:1|1:2,0:0:0:0:
332,276,37444,2,0,L|344:168,1,99.0000030212403,2|8,0:1|1:2,0:0:0:0:
256,40,37747,5,2,0:1:0:0:
256,40,38050,1,0,1:0:0:0:
231,228,38201,2,0,P|191:254|143:251,1,99.0000030212403,10|2,1:2|0:0,0:0:0:0:
112,144,38504,2,0,P|153:117|201:120,1,99.0000030212403,0|2,1:0|0:0,0:0:0:0:
380,92,38807,2,0,P|369:139|377:188,1,99.0000030212403,10|0,1:2|0:0,0:0:0:0:
368,276,39035,1,8,0:0:0:0:
368,276,39110,101,6,1:2:0:0:
472,148,39262,1,0,0:0:0:0:
272,320,39413,1,10,1:2:0:0:
496,260,39565,2,0,P|469:249|432:244,1,53.9999983520508,2|0,0:0|0:0,0:0:0:0:
296,220,39716,2,0,P|269:230|232:236,1,53.9999983520508,2|0,1:1|0:0,0:0:0:0:
108,216,39868,1,2,1:1:0:0:
108,216,39944,1,2,1:2:0:0:
108,216,40019,1,8,1:2:0:0:
108,216,40095,1,2,1:2:0:0:
108,216,40171,6,0,P|108:111|216:40,1,215.999993408203,6|2,1:2|1:2,0:0:0:0:
20,0,40626,2,0,P|37:20|50:43,1,53.9999983520508,10|0,1:2|0:0,0:0:0:0:
20,224,40777,1,2,0:0:0:0:
4,124,40929,54,0,P|28:135|55:136,1,53.9999983520508,10|0,1:2|0:0,0:0:0:0:
216,128,41080,2,0,P|194:143|180:166,1,53.9999983520508,2|0,1:2|0:0,0:0:0:0:
72,300,41232,1,10,1:2:0:0:
239,250,41383,1,2,1:2:0:0:
239,250,41459,1,8,1:2:0:0:
239,250,41535,102,0,P|306:247|369:269,1,135.000005149842,6|0,1:2|0:0,0:0:0:0:
344,356,41989,1,0,0:0:0:0:
460,296,42141,2,0,P|462:268|444:216,1,67.5000025749208,10|0,1:2|0:0,0:0:0:0:
400,152,42444,1,0,1:0:0:0:
444,28,42595,2,0,L|528:16,2,67.5000025749208,2|0|8,0:0|0:0|1:2,0:0:0:0:
324,104,43050,37,0,1:0:0:0:
356,20,43201,1,0,0:0:0:0:
324,104,43353,1,10,1:2:0:0:
356,20,43504,1,0,0:0:0:0:
464,148,43656,2,0,P|426:158|384:140,1,67.5000025749208,0|8,1:0|1:2,0:0:0:0:
236,112,43959,102,0,P|233:179|255:242,1,135.000005149842,2|8,1:2|1:2,0:0:0:0:
342,217,44413,1,0,0:0:0:0:
280,332,44565,2,0,P|252:334|200:316,1,67.5000025749208,2|0,1:2|1:0,0:0:0:0:
138,273,44868,1,0,0:0:0:0:
14,317,45019,2,0,L|2:401,2,67.5000025749208,10|0|0,1:2|0:0|1:0,0:0:0:0:
88,196,45474,37,8,1:2:0:0:
6,229,45626,1,0,0:0:0:0:
120,96,45777,1,2,1:2:0:0:
138,273,45929,1,0,1:0:0:0:
6,229,46080,1,8,3:2:0:0:
204,56,46232,1,6,1:2:0:0:
512,384,46686,101,2,0:0:0:0:
512,0,46989,1,10,1:2:0:0:
422,341,47292,1,2,1:2:0:0:
445,73,47595,1,2,1:2:0:0:
328,328,47898,1,2,0:0:0:0:
362,129,48201,1,10,1:2:0:0:
200,240,48353,1,0,0:0:0:0:
512,312,48504,1,10,1:2:0:0:
512,312,48580,1,8,0:2:0:0:
512,312,48656,1,0,1:2:0:0:
512,312,48732,1,0,1:2:0:0:
512,312,48807,37,6,1:2:0:0:
432,252,48959,1,0,0:0:0:0:
424,332,49110,1,0,1:0:0:0:
356,284,49262,101,2,0:0:0:0:
340,288,49413,1,0,1:0:0:0:
200,240,49565,5,2,0:0:0:0:
184,244,49716,1,0,1:0:0:0:
184,84,49868,101,2,0:0:0:0:
112,104,50019,1,0,1:0:0:0:
264,148,50171,5,2,0:0:0:0:
71,200,50322,1,2,1:2:0:0:
264,148,50474,1,2,0:0:0:0:
236,376,50626,101,0,1:2:0:0:
240,360,50777,1,0,3:2:0:0:
188,296,50929,1,0,3:2:0:0:
192,280,51080,1,0,3:2:0:0:
376,96,51232,101,2,1:2:0:0:
440,329,51383,1,0,0:0:0:0:
364,56,51535,1,0,1:2:0:0:
428,289,51686,1,2,0:0:0:0:
264,96,51838,101,0,1:0:0:0:
420,168,51989,1,2,1:2:0:0:
92,216,52141,1,0,1:2:0:0:
248,288,52292,2,0,L|240:364,1,45,10|0,1:2|0:0,0:0:0:0:
256,192,52595,21,0,0:0:0:0:
264,96,52747,2,0,P|263:73|257:51,1,45,2|0,0:2|0:0,0:0:0:0:
12,72,53050,5,2,0:2:0:0:
32,164,53201,2,0,P|39:186|60:212,1,45,2|0,0:2|0:0,0:0:0:0:
248,24,53504,6,0,P|144:8|168:160,1,269.999991760254,6|0,1:2|0:0,0:0:0:0:
176,216,53959,2,0,B|220:232|260:200|232:192|268:152|316:163,1,161.999995056153,10|0,1:2|0:0,0:0:0:0:
392,212,54262,1,2,1:2:0:0:
192,308,54413,1,2,1:2:0:0:
220,104,54565,1,8,1:2:0:0:
376,252,54716,6,0,P|336:336|224:324,1,215.999993408203,6|0,0:2|1:0,0:0:0:0:
504,148,55171,2,0,P|491:195|488:268,1,107.999996704102,10|0,1:2|0:0,0:0:0:0:
392,128,55474,1,2,1:2:0:0:
328,344,55626,1,2,1:2:0:0:
304,116,55777,1,8,1:2:0:0:
496,224,55929,102,0,P|394:215|296:373,1,269.999991760254,6|0,0:2|0:0,0:0:0:0:
204,360,56383,2,0,B|154:387|95:378|108:326|50:342,1,161.999995056153,10|0,1:2|0:0,0:0:0:0:
140,280,56686,1,2,1:2:0:0:
164,88,56838,1,2,1:2:0:0:
140,280,56989,1,8,1:2:0:0:
0,76,57141,6,0,P|109:93|55:223,1,269.999991760254,6|0,1:2|0:0,0:0:0:0:
140,280,57595,2,0,P|183:294|244:176,1,161.999995056153,10|0,1:2|0:0,0:0:0:0:
439,196,57898,2,0,P|391:218|344:196,1,107.999996704102,2|2,1:2|0:2,0:0:0:0:
256,56,58201,1,8,1:2:0:0:
340,344,58353,101,6,1:2:0:0:
0,228,58656,1,0,1:0:0:0:
136,104,58807,2,0,P|168:140|176:264,1,161.999995056153,10|0,1:2|0:0,0:0:0:0:
239,339,59110,2,0,P|254:294|358:225,1,161.999995056153,2|0,1:2|0:0,0:0:0:0:
392,132,59413,2,0,P|345:141|233:86,1,161.999995056153,10|0,1:2|0:0,0:0:0:0:
184,32,59716,6,0,B|150:43|130:36|130:36|135:57|117:87,1,107.999996704102,2|0,1:2|0:0,0:0:0:0:
124,236,60019,2,0,P|136:308|220:328,1,161.999995056153,10|0,1:2|0:0,0:0:0:0:
328,352,60322,2,0,B|361:340|381:347|381:347|376:326|394:296,1,107.999996704102,2|0,1:2|1:0,0:0:0:0:
298,53,60626,2,0,P|373:72|388:148,1,161.999995056153,10|0,1:2|0:0,0:0:0:0:
256,192,60929,101,6,1:2:0:0:
432,8,61080,1,2,1:2:0:0:
256,192,61232,1,10,0:0:0:0:
208,172,61307,1,0,1:2:0:0:
156,152,61383,1,6,1:2:0:0:
80,376,61686,5,6,1:2:0:0:
256,192,61838,1,0,1:0:0:0:
44,264,61989,2,0,P|96:340|180:308,1,161.999995056153,6|0,1:2|0:0,0:0:0:0:
232,276,62292,1,0,1:0:0:0:
380,132,62444,2,0,P|350:176|340:229,1,107.999996704102,10|0,1:2|1:0,0:0:0:0:
472,344,62747,2,0,P|472:316|481:293,1,53.9999983520508,8|0,1:2|1:2,0:0:0:0:
492,180,62898,2,0,P|492:152|483:129,1,53.9999983520508,8|0,0:2|1:2,0:0:0:0:
376,60,63050,1,8,0:2:0:0:
368,96,63126,1,8,0:0:0:0:
380,132,63201,102,0,P|396:28|244:52,1,269.999991760254,6|0,1:2|0:0,0:0:0:0:
188,60,63656,2,0,B|172:104|204:144|212:116|252:152|241:200,1,161.999995056153,10|0,1:2|0:0,0:0:0:0:
192,276,63959,1,2,1:2:0:0:
96,76,64110,1,2,1:2:0:0:
300,104,64262,1,8,1:2:0:0:
152,260,64413,6,0,P|68:220|80:108,1,215.999993408203,6|0,1:2|1:0,0:0:0:0:
239,0,64868,2,0,P|292:13|345:16,1,107.999996704102,10|0,1:2|0:0,0:0:0:0:
220,112,65171,1,2,1:2:0:0:
436,176,65322,1,2,1:2:0:0:
208,200,65474,1,8,1:2:0:0:
316,8,65626,102,0,P|307:110|465:208,1,269.999991760254,6|0,1:2|0:0,0:0:0:0:
476,291,66080,2,0,P|411:330|357:278,1,161.999995056153,10|0,1:2|0:0,0:0:0:0:
427,209,66383,1,10,1:2:0:0:
450,17,66535,1,2,1:2:0:0:
427,209,66686,1,8,1:2:0:0:
276,84,66838,6,0,P|163:43|134:160,1,269.999991760254,6|0,1:2|0:0,0:0:0:0:
205,213,67292,2,0,P|176:284|100:292,1,161.999995056153,10|0,1:2|0:0,0:0:0:0:
280,172,67595,2,0,P|330:185|373:156,1,107.999996704102,10|0,1:2|1:2,0:0:0:0:
308,308,67898,1,10,1:2:0:0:
161,45,68050,101,6,1:2:0:0:
161,45,68353,1,0,1:0:0:0:
16,136,68504,2,0,P|24:174|24:252,1,107.999996704102,8|0,1:2|0:0,0:0:0:0:
228,364,68807,1,0,1:0:0:0:
228,364,68959,1,0,1:0:0:0:
84,380,69110,2,0,P|87:332|169:238,1,161.999995056153,10|0,1:2|0:0,0:0:0:0:
240,208,69413,6,0,B|284:240|284:240|334:221,1,107.999996704102,6|0,1:2|0:0,0:0:0:0:
364,36,69716,2,0,B|320:4|320:4|269:22,1,107.999996704102,10|0,1:2|0:0,0:0:0:0:
300,124,70019,1,2,1:2:0:0:
300,124,70171,1,2,1:2:0:0:
192,108,70322,1,10,1:2:0:0:
409,139,70474,102,0,P|449:208|444:288,1,161.999995056153,6|0,1:2|0:0,0:0:0:0:
396,352,70777,1,0,1:0:0:0:
228,300,70929,2,0,P|174:310|121:312,1,107.999996704102,8|0,1:2|0:0,0:0:0:0:
168,152,71232,1,0,1:0:0:0:
168,152,71383,1,0,1:0:0:0:
152,8,71535,2,0,P|200:11|294:93,1,161.999995056153,10|0,1:2|0:0,0:0:0:0:
324,164,71838,6,0,B|292:208|292:208|311:258,1,107.999996704102,14|0,1:2|0:0,0:0:0:0:
496,288,72141,2,0,B|528:244|528:244|510:193,1,107.999996704102,10|0,1:2|0:0,0:0:0:0:
434,87,72444,2,0,P|432:120|424:140,1,53.9999983520508,10|8,1:2|1:2,0:0:0:0:
400,284,72595,2,0,P|382:263|359:249,1,53.9999983520508,8|8,1:2|1:2,0:0:0:0:
236,304,72747,1,8,0:0:0:0:
72,384,72898,5,6,1:2:0:0:
256,192,73201,1,0,1:0:0:0:
112,96,73353,21,10,1:2:0:0:
272,176,73504,1,0,1:0:0:0:
267,19,73656,85,10,1:2:0:0:
277,197,73807,1,0,1:0:0:0:
411,115,73959,21,10,1:2:0:0:
261,213,74110,1,0,1:0:0:0:
400,288,74262,85,10,1:2:0:0:
240,208,74413,1,0,1:0:0:0:
244,364,74565,21,10,1:2:0:0:
234,186,74716,1,0,1:0:0:0:
100,268,74868,1,10,1:2:0:0:
92,276,74944,1,8,1:2:0:0:
84,284,75019,1,8,1:2:0:0:
76,292,75095,1,8,1:2:0:0:
68,300,75171,1,10,1:2:0:0:
400,288,75322,85,6,1:2:0:0:
400,288,75626,1,0,1:0:0:0:
372,16,75777,21,10,1:2:0:0:
256,192,75929,1,0,1:0:0:0:
80,76,76080,85,10,1:2:0:0:
256,192,76232,2,0,P|237:212|225:235,1,53.9999983520508,0|0,1:0|1:0,0:0:0:0:
140,368,76383,21,10,1:2:0:0:
432,308,76535,1,0,1:2:0:0:
432,308,76610,1,8,1:2:0:0:
432,308,76686,1,6,1:2:0:0:
256,192,76762,8,0,78504,1:0:0:0:
416,368,78580,38,2,B|416:397|466:395|447:354|390:324|352:313|352:313|394:308|406:275,1,215.999993408203,0|0,0:0|0:0,0:1:0:0:
388,184,78959,38,0,P|328:204|260:296,1,161.999995056153,4|0,1:2|0:0,0:0:0:0:
266,326,79262,1,2,1:2:0:0:
1,232,79413,2,0,P|44:239|93:272,1,90,8|0,1:2|0:0,0:0:0:0:
29,384,79716,1,2,1:2:0:0:
85,148,79868,1,0,1:2:0:0:
181,304,80019,1,8,1:2:0:0:
29,384,80171,6,0,P|27:318|81:260,1,135,4|0,1:2|0:0,0:0:0:0:
113,248,80474,1,2,1:2:0:0:
253,116,80626,2,0,P|210:94|154:100,1,90,10|0,1:2|0:0,0:0:0:0:
1,192,80929,1,0,1:0:0:0:
1,192,81004,1,2,0:2:0:0:
1,192,81080,1,2,1:2:0:0:
153,384,81232,1,8,1:2:0:0:
305,188,81383,102,0,P|257:244|193:236,1,135.000005149841,4|0,1:2|0:0,0:0:0:0:
173,204,81686,1,2,1:2:0:0:
376,272,81838,2,0,P|423:265|464:248,1,90,10|0,1:2|0:0,0:0:0:0:
476,8,82141,1,2,1:2:0:0:
216,84,82292,1,0,1:2:0:0:
392,168,82444,1,8,1:2:0:0:
476,8,82595,6,0,P|409:5|351:59,1,135,4|0,1:2|0:0,0:0:0:0:
340,92,82898,1,2,1:2:0:0:
200,240,83050,2,0,P|199:195|177:156,1,90,10|0,1:2|0:0,0:0:0:0:
260,0,83353,1,0,1:0:0:0:
260,0,83429,1,2,0:2:0:0:
260,0,83504,2,0,P|256:32|240:56,1,45,2|0,1:2|0:0,0:0:0:0:
48,116,83656,1,8,0:0:0:0:
48,116,83732,1,8,0:0:0:0:
48,116,83807,1,8,0:0:0:0:
48,116,83883,1,0,1:0:0:0:
48,116,83959,69,14,1:2:0:0:
220,164,84110,1,0,1:2:0:0:
392,212,84262,1,2,1:2:0:0:
31,217,84413,5,12,1:2:0:0:
248,64,84565,1,2,1:2:0:0:
348,308,84716,1,0,1:2:0:0:
148,48,84868,1,10,1:2:0:0:
164,352,85019,1,14,1:2:0:0:
256,192,85095,12,0,86232,0:0:0:0:
186,343,86383,38,2,B|186:372|136:370|155:329|212:299|250:288|250:288|212:284|194:255,1,210.000002002716,0|8,0:0|0:0,0:1:0:0:
256,192,86661,2,0,P|261:211|247:197,1,53.9999983520508,8|0,0:0|1:0,0:0:0:0:
