osu file format v14

[General]
AudioFilename: audio.mp3
AudioLeadIn: 500
PreviewTime: 52595
Countdown: 0
SampleSet: Soft
StackLeniency: 0.3
Mode: 0
LetterboxInBreaks: 0
EpilepsyWarning: 1
WidescreenStoryboard: 1

[Editor]
Bookmarks: 2595,13959,22141,31838,41535,53504,63201,73353,73656,78959
DistanceSpacing: 1.2
BeatDivisor: 4
GridSize: 32
TimelineZoom: 2.2

[Metadata]
Title:Twintail Dreamer! (TV Size)
TitleUnicode:ツインテール・ドリーマー! (TV Size)
Artist:Twin-Tails
ArtistUnicode:ツインテイルズ
Creator:Moecho
Version:rui's Sidetail Extra
Source:俺、ツインテールになります。
Tags:Twintails OreTwi Ore, Tsuinteru Tsuintēru ni Narimasu. Gonna be the Twin-Tail!! テイルレッド Tail Red 上坂すみれ Uesaka Sumire テイルブルー Blue 相坂優歌 Aisaka Yuuka テイルイエロー Yellow 赤﨑千夏 Akasaki Chinatsu Ending Theme ED TV Size edit Anime papiyon japanese pop j-pop jpop Kodora Laurier Natteke Kite HabiHolic Loneight L18 Lecana Giralda captin1 jonathanlfj apaffy kisata Nyquill RLC LunarSakuya Mythol meiikyuu Syameimaru-Aya Ayaya caren_sk CRN kiddly Axarious Delis ShirohaMyMommy SMM Koiyuki Minakami Yuki yf_bmp yf Skystar Amamiya Yuko rui rustbell spro sprosive Snow Note 7odoa bakabaka Hollow Wings HW
BeatmapID:2329710
BeatmapSetID:1115213

[Difficulty]
HPDrainRate:5
CircleSize:4
OverallDifficulty:8
ApproachRate:9.3
SliderMultiplier:1.8
SliderTickRate:1

[Events]
//Background and Video events
0,0,"bg.jpg",0,0
//Break Periods
//Storyboard Layer 0 (Background)
Sprite,Background,Centre,"sb\sprites\pixel-white.png",320,240 F,0,-60,,0,1 C,0,-60,,0,0,0 V,0,-60,,880,480 F,0,89619,,1,0
Sprite,Background,Centre,"bg.jpg",320,240 F,0,-2559,-1559,0,0.75 S,0,-1559,,0.4444444 F,0,337,487,0.75,0
Sprite,Background,Centre,"bg.jpg",320,240 F,0,88125,89125,0,0.75 S,0,89125,,0.4444444 F,0,89784,89934,0.75,0
Sprite,Background,Centre,"sb\sprites\bg-alt.jpg",320,240 F,0,187,337,0,0.75 S,0,337,,0.4444444 F,0,21156,22306,0.75,0
Sprite,Background,Centre,"sb\sprites\bg-alt.jpg",320,240 F,0,53369,53519,0,0.75 S,0,53519,,0.4444444 F,0,88125,89275,0.75,0
Sprite,Background,Centre,"sb\sprites\bg-alt-bw.jpg",320,240 F,0,22006,22306,0,0.75 S,0,22156,,0.4444444 F,0,39686,40486,0.75,0
Sprite,Background,Centre,"sb\sprites\bg-alt-bw.jpg",320,240 F,0,50491,50791,0,0.75 S,0,50641,,0.4444444 F,0,51807,52607,0.75,0
Sprite,Background,Centre,"sb\sprites\tail-red-ci.jpg",320,240 F,0,40794,41094,0,0.75 S,0,40944,,0.4444444 F,0,48822,50322,0.75,0
Sprite,Background,Centre,"sb\sprites\tail-blue-ci.jpg",320,240 F,0,42915,43215,0,0.75 S,0,43065,,0.4444444 F,0,48822,50322,0.75,0
Sprite,Background,Centre,"sb\sprites\tail-yellow-ci.jpg",320,240 F,0,45339,45639,0,0.75 S,0,45489,,0.4444444 F,0,48822,50322,0.75,0
Sprite,Background,Centre,"sb\sprites\pixel-white.png",320,240 V,0,2610,,854,480 F,0,2610,3210,0.15,0
Sprite,Background,Centre,"sb\sprites\pixel-white.png",320,240 V,0,3822,,854,480 F,0,3822,4422,0.15,0
Sprite,Background,Centre,"sb\sprites\pixel-white.png",320,240 V,0,5034,,854,480 F,0,5034,5634,0.15,0
Sprite,Background,Centre,"sb\sprites\pixel-white.png",320,240 V,0,5792,,854,480 F,0,5792,6392,0.15,0
Sprite,Background,Centre,"sb\sprites\pixel-white.png",320,240 V,0,7459,,854,480 F,0,7459,8059,0.15,0
Sprite,Background,Centre,"sb\sprites\pixel-white.png",320,240 V,0,9883,,854,480 F,0,9883,10483,0.15,0
Sprite,Background,Centre,"sb\sprites\pixel-white.png",320,240 V,0,12307,,854,480 F,0,12307,12907,0.15,0
Sprite,Background,Centre,"sb\sprites\pixel-white.png",320,240 V,0,22156,,854,480 F,0,22156,22756,0.15,0
Sprite,Background,Centre,"sb\sprites\pixel-white.png",320,240 V,0,31853,,854,480 F,0,31853,32453,0.15,0
Sprite,Background,Centre,"sb\sprites\pixel-white.png",320,240 V,0,41550,,854,480 F,0,41550,42150,0.15,0
Sprite,Background,Centre,"sb\sprites\pixel-white.png",320,240 V,0,53519,,854,480 F,0,53519,54119,0.15,0
Sprite,Background,Centre,"sb\sprites\pixel-white.png",320,240 V,0,54731,,854,480 F,0,54731,55331,0.15,0
Sprite,Background,Centre,"sb\sprites\pixel-white.png",320,240 V,0,55944,,854,480 F,0,55944,56544,0.15,0
Sprite,Background,Centre,"sb\sprites\pixel-white.png",320,240 V,0,57156,,854,480 F,0,57156,57756,0.15,0
Sprite,Background,Centre,"sb\sprites\pixel-white.png",320,240 V,0,58368,,854,480 F,0,58368,58968,0.15,0
Sprite,Background,Centre,"sb\sprites\pixel-white.png",320,240 V,0,63216,,854,480 F,0,63216,63816,0.15,0
Sprite,Background,Centre,"sb\sprites\pixel-white.png",320,240 V,0,64428,,854,480 F,0,64428,65028,0.15,0
Sprite,Background,Centre,"sb\sprites\pixel-white.png",320,240 V,0,65641,,854,480 F,0,65641,66241,0.15,0
Sprite,Background,Centre,"sb\sprites\pixel-white.png",320,240 V,0,68065,,854,480 F,0,68065,68665,0.15,0
Sprite,Background,Centre,"sb\sprites\pixel-white.png",320,240 V,0,70489,,854,480 F,0,70489,71089,0.15,0
Sprite,Background,Centre,"sb\sprites\pixel-white.png",320,240 V,0,72913,,854,480 F,0,72913,73513,0.15,0
Sprite,Background,Centre,"sb\sprites\pixel-white.png",320,240 V,0,75338,,854,480 F,0,75338,75938,0.15,0
Sprite,Background,Centre,"sb\sprites\pixel-white.png",320,240 V,0,76701,,854,480 F,0,76701,77301,0.15,0
Sprite,Background,Centre,"sb\sprites\pixel-white.png",320,240 V,0,78974,,854,480 F,0,78974,79574,0.15,0
Sprite,Background,Centre,"sb\sprites\pixel-white.png",320,240 V,0,85034,,854,480 F,0,85034,85634,0.15,0
//Storyboard Layer 1 (Fail)
//Storyboard Layer 2 (Pass)
//Storyboard Layer 3 (Foreground)
Sprite,Foreground,Centre,"sb\lyrics\0072.png",0,0 F,0,12207,12407,0,0.8 M,0,12307,,713,396 S,0,12307,,0.5 C,0,12307,,255,255,255 F,0,86904,87104,0.8,0
Sprite,Foreground,Centre,"sb\lyrics\0075.png",0,0 F,0,12207,12407,0,0.8 M,0,12307,,724,396 S,0,12307,,0.5 C,0,12307,,255,255,255 F,0,86904,87104,0.8,0
Sprite,Foreground,Centre,"sb\lyrics\0069.png",0,0 F,0,12207,12407,0,0.8 M,0,12307,,734.75,394 S,0,12307,,0.5 C,0,12307,,255,255,255 F,0,86904,87104,0.8,0
Sprite,Foreground,Centre,"sb\lyrics\0072.png",0,0 F,0,12207,12407,0,0.8 M,0,12307,,577.625,436.25 S,0,12307,,0.375 C,0,12307,,255,255,255 F,0,86904,87104,0.8,0
Sprite,Foreground,Centre,"sb\lyrics\0075.png",0,0 F,0,12207,12407,0,0.8 M,0,12307,,585.875,436.25 S,0,12307,,0.375 C,0,12307,,255,255,255 F,0,86904,87104,0.8,0
Sprite,Foreground,Centre,"sb\lyrics\0069.png",0,0 F,0,12207,12407,0,0.8 M,0,12307,,593.9375,434.75 S,0,12307,,0.375 C,0,12307,,255,255,255 F,0,86904,87104,0.8,0
Sprite,Foreground,Centre,"sb\lyrics\0027.png",0,0 F,0,12207,12407,0,0.8 M,0,12307,,600.6875,430.8125 S,0,12307,,0.375 C,0,12307,,255,255,255 F,0,86904,87104,0.8,0
Sprite,Foreground,Centre,"sb\lyrics\0073.png",0,0 F,0,12207,12407,0,0.8 M,0,12307,,610.625,436.625 S,0,12307,,0.375 C,0,12307,,255,255,255 F,0,86904,87104,0.8,0
Sprite,Foreground,Centre,"sb\lyrics\0053.png",0,0 F,0,12207,12407,0,0.8 M,0,12307,,626.9375,434.75 S,0,12307,,0.375 C,0,12307,,255,255,255 F,0,86904,87104,0.8,0
Sprite,Foreground,Centre,"sb\lyrics\0069.png",0,0 F,0,12207,12407,0,0.8 M,0,12307,,635.1875,434.75 S,0,12307,,0.375 C,0,12307,,255,255,255 F,0,86904,87104,0.8,0
Sprite,Foreground,Centre,"sb\lyrics\0064.png",0,0 F,0,12207,12407,0,0.8 M,0,12307,,643.4375,434.9375 S,0,12307,,0.375 C,0,12307,,255,255,255 F,0,86904,87104,0.8,0
Sprite,Foreground,Centre,"sb\lyrics\0065.png",0,0 F,0,12207,12407,0,0.8 M,0,12307,,651.6875,436.8125 S,0,12307,,0.375 C,0,12307,,255,255,255 F,0,86904,87104,0.8,0
Sprite,Foreground,Centre,"sb\lyrics\0074.png",0,0 F,0,12207,12407,0,0.8 M,0,12307,,659.9375,435.125 S,0,12307,,0.375 C,0,12307,,255,255,255 F,0,86904,87104,0.8,0
Sprite,Foreground,Centre,"sb\lyrics\0061.png",0,0 F,0,12207,12407,0,0.8 M,0,12307,,668.5625,436.4375 S,0,12307,,0.375 C,0,12307,,255,255,255 F,0,86904,87104,0.8,0
Sprite,Foreground,Centre,"sb\lyrics\0069.png",0,0 F,0,12207,12407,0,0.8 M,0,12307,,676.4375,434.75 S,0,12307,,0.375 C,0,12307,,255,255,255 F,0,86904,87104,0.8,0
Sprite,Foreground,Centre,"sb\lyrics\006c.png",0,0 F,0,12207,12407,0,0.8 M,0,12307,,684.875,434.75 S,0,12307,,0.375 C,0,12307,,255,255,255 F,0,86904,87104,0.8,0
Sprite,Foreground,Centre,"sb\lyrics\0045.png",0,0 F,0,12207,12407,0,0.8 M,0,12307,,701.5625,434.9375 S,0,12307,,0.375 C,0,12307,,255,255,255 F,0,86904,87104,0.8,0
Sprite,Foreground,Centre,"sb\lyrics\0078.png",0,0 F,0,12207,12407,0,0.8 M,0,12307,,709.625,436.4375 S,0,12307,,0.375 C,0,12307,,255,255,255 F,0,86904,87104,0.8,0
Sprite,Foreground,Centre,"sb\lyrics\0074.png",0,0 F,0,12207,12407,0,0.8 M,0,12307,,717.6875,435.125 S,0,12307,,0.375 C,0,12307,,255,255,255 F,0,86904,87104,0.8,0
Sprite,Foreground,Centre,"sb\lyrics\0072.png",0,0 F,0,12207,12407,0,0.8 M,0,12307,,726.125,436.25 S,0,12307,,0.375 C,0,12307,,255,255,255 F,0,86904,87104,0.8,0
Sprite,Foreground,Centre,"sb\lyrics\0061.png",0,0 F,0,12207,12407,0,0.8 M,0,12307,,734.5625,436.4375 S,0,12307,,0.375 C,0,12307,,255,255,255 F,0,86904,87104,0.8,0
//Storyboard Layer 4 (Overlay)
//Storyboard Sound Samples

[TimingPoints]
323,303.030303030303,4,2,1,50,1,0
323,-100,4,2,1,50,0,0
7444,-100,4,2,1,55,0,0
12292,-100,4,2,1,55,0,0
22141,-133.333333333333,4,2,1,60,0,0
30171,-100,4,2,1,60,0,0
31838,-100,4,1,1,45,0,0
40171,-100,4,1,1,50,0,0
40929,-100,4,1,1,55,0,0
41232,-100,4,1,1,55,0,0
41535,-200,4,2,1,50,0,0
48807,-200,4,2,1,60,0,0
50019,-200,4,2,1,65,0,0
51232,-200,4,2,1,68,0,0
51535,-200,4,2,1,71,0,0
51838,-200,4,2,1,74,0,0
52141,-200,4,2,1,77,0,0
52292,-200,4,2,1,70,0,0
53504,-83.3333333333333,4,1,1,60,0,1
76686,-125,4,1,1,60,0,0
76838,-125,4,2,1,60,0,0
77292,-166.666666666667,4,2,2,60,0,0
77747,-200,4,2,2,60,0,0
78959,-100,4,2,1,55,0,0
85019,-133.333333333333,4,2,1,55,0,0
86585,-133.333333333333,4,2,1,27,0,0

[Colours]
Combo1 : 192,192,192
Combo2 : 255,50,50
Combo3 : 255,125,125
Combo4 : 25,100,255
Combo5 : 50,150,255
Combo6 : 255,255,50
Combo7 : 255,255,150
Combo8 : 128,128,128

[HitObjects]
126,41,323,101,2,0:0:0:0:
40,68,474,1,0,0:0:0:0:
40,158,626,1,2,0:0:0:0:
125,186,777,1,0,0:0:0:0:
386,343,1232,5,2,0:0:0:0:
472,316,1383,1,0,0:0:0:0:
472,226,1535,1,2,0:0:0:0:
387,198,1686,1,0,0:0:0:0:
300,168,1838,69,2,0:0:0:0:
255,163,1913,1,2,0:0:0:0:
211,173,1989,1,2,0:0:0:0:
167,180,2065,1,2,0:0:0:0:
123,169,2141,5,10,0:0:0:0:
368,112,2292,1,8,0:0:0:0:
216,372,2595,37,4,2:1:0:0:
296,8,3807,5,4,2:1:0:0:
32,152,5019,101,4,2:1:0:0:
480,232,5777,5,4,2:1:0:0:
32,152,6232,102,0,B|76:132|76:132|120:148|120:148|164:156|208:128,1,180,8|0,0:0|0:0,0:0:0:0:
400,32,6686,1,8,0:0:0:0:
420,71,6762,1,8,0:0:0:0:
424,116,6838,1,8,0:0:0:0:
412,159,6913,1,8,0:0:0:0:
386,195,6989,1,8,0:0:0:0:
240,360,7141,1,0,0:0:0:0:
468,304,7292,1,8,0:0:0:0:
268,204,7444,22,0,P|180:192|88:224,1,180,4|2,1:0|0:0,0:0:0:0:
60,360,7898,2,0,P|100:360|156:348,1,90,8|2,0:0|0:0,0:0:0:0:
213,118,8201,2,0,P|173:118|117:130,1,90,8|2,0:0|0:0,0:0:0:0:
339,297,8504,2,0,P|384:297|428:288,1,90,8|2,0:0|0:0,0:0:0:0:
491,61,8807,2,0,P|451:61|395:73,1,90,8|2,0:0|0:0,0:0:0:0:
84,240,9110,2,0,P|124:240|180:228,1,90,8|2,0:0|0:0,0:0:0:0:
392,196,9413,21,8,3:2:0:0:
432,178,9489,1,8,3:2:0:0:
460,143,9565,1,8,3:2:0:0:
468,99,9641,1,8,3:2:0:0:
453,57,9716,1,8,0:0:0:0:
420,27,9792,1,8,3:2:0:0:
377,16,9868,1,12,3:2:0:0:
334,27,9944,1,8,3:2:0:0:
302,58,10019,1,8,3:2:0:0:
288,100,10095,1,8,3:2:0:0:
296,144,10171,1,8,0:2:0:0:
356,276,10322,86,0,P|351:325|340:376,1,90,8|2,0:0|0:0,0:0:0:0:
108,304,10626,2,0,P|112:254|124:204,1,90,8|2,0:0|0:0,0:0:0:0:
296,144,10929,2,0,P|292:192|281:243,1,90,8|2,0:0|0:0,0:0:0:0:
108,304,11232,2,0,P|68:275|29:240,1,90,8|2,0:0|0:0,0:0:0:0:
64,60,11535,2,0,P|108:39|158:23,1,90,8|2,0:0|0:0,0:0:0:0:
448,52,11838,2,0,P|404:73|354:89,1,90,8|10,0:0|0:0,0:0:0:0:
276,80,12065,1,8,0:0:0:0:
231,87,12141,1,10,0:0:0:0:
193,110,12216,1,8,0:0:0:0:
160,140,12292,6,0,P|157:238|236:269,1,180,4|2,0:0|0:0,0:0:0:0:
387,362,12747,2,0,P|363:318|351:270,1,90,8|0,0:0|0:0,0:0:0:0:
384,136,13050,1,2,0:0:0:0:
428,272,13201,1,0,0:0:0:0:
420,68,13353,1,8,0:0:0:0:
352,280,13504,102,0,B|312:304|300:356|300:356|264:320|224:296,1,180,0|2,0:0|0:0,0:0:0:0:
51,252,13959,2,0,P|92:232|128:205,1,90,8|0,0:0|0:0,0:0:0:0:
208,84,14262,1,2,0:0:0:0:
271,243,14413,1,0,0:0:0:0:
344,124,14565,1,8,0:0:0:0:
128,205,14716,6,0,P|128:296|196:360,1,180,0|2,0:0|0:0,0:0:0:0:
385,292,15171,2,0,P|392:248|384:204,1,90,8|0,0:0|0:0,0:0:0:0:
324,72,15474,1,2,0:0:0:0:
436,160,15626,1,0,0:0:0:0:
384,292,15777,1,8,0:0:0:0:
324,72,15929,102,0,B|300:44|244:36|244:36|200:52|172:96,1,180,0|2,0:0|0:0,0:0:0:0:
101,312,16383,2,0,P|90:268|84:224,1,90,8|0,0:0|0:0,0:0:0:0:
80,80,16686,1,2,0:0:0:0:
155,200,16838,1,0,0:0:0:0:
16,48,16989,1,8,0:0:0:0:
84,224,17141,6,0,P|150:278|223:234,1,180,0|2,0:0|0:0,0:0:0:0:
320,60,17595,2,0,P|363:54|401:77,1,90,8|0,0:0|0:0,0:0:0:0:
444,216,17898,1,2,0:0:0:0:
300,192,18050,1,0,0:0:0:0:
160,240,18201,1,8,0:0:0:0:
20,192,18353,102,0,B|108:160|108:160|200:172,1,180,0|2,0:0|0:0,0:0:0:0:
416,128,18807,2,0,L|320:112,1,90,8|0,0:0|0:0,0:0:0:0:
184,88,19110,1,2,0:0:0:0:
372,196,19262,1,0,0:0:0:0:
96,244,19413,1,8,0:0:0:0:
432,288,19565,6,0,P|480:208|460:128,1,180,8|0,0:0|0:0,0:0:0:0:
184,88,20019,2,0,P|136:168|156:248,1,180,8|0,0:0|0:0,0:0:0:0:
12,260,20474,1,0,0:0:0:0:
144,316,20626,1,8,0:0:0:0:
284,344,20777,2,0,B|332:340|372:320|372:320|392:272|392:232,1,180
236,56,21232,2,0,P|268:87|303:115,1,90,8|0,0:0|0:0,0:0:0:0:
448,100,21535,1,8,0:0:0:0:
316,196,21686,5,8,3:2:0:0:
265,215,21762,1,8,3:2:0:0:
213,227,21838,1,8,3:2:0:0:
159,233,21913,1,8,3:2:0:0:
106,245,21989,1,8,3:2:0:0:
56,265,22065,1,8,3:2:0:0:
10,293,22141,38,0,P|44:296|80:304,1,67.5000025749208,6|0,0:0|0:0,0:0:0:0:
192,372,22444,2,0,P|195:338|203:302,1,67.5000025749208,2|0,0:0|0:0,0:0:0:0:
308,224,22747,2,0,P|273:221|238:213,1,67.5000025749208,2|0,0:0|0:0,0:0:0:0:
128,144,23050,2,0,P|125:178|117:214,1,67.5000025749208,2|0,0:0|0:0,0:0:0:0:
192,372,23353,1,2,0:0:0:0:
10,293,23656,1,2,0:0:0:0:
308,224,23959,2,0,P|380:220|424:180,1,135.000005149842,2|2,0:0|0:0,0:0:0:0:
232,40,24565,86,0,P|196:48|161:69,1,67.5000025749208,2|0,0:0|0:0,0:0:0:0:
56,196,24868,2,0,P|92:188|127:167,1,67.5000025749208,2|0,0:0|0:0,0:0:0:0:
72,32,25171,2,0,P|80:68|101:103,1,67.5000025749208,2|0,0:0|0:0,0:0:0:0:
228,208,25474,2,0,P|220:172|199:137,1,67.5000025749208,2|0,0:0|0:0,0:0:0:0:
72,32,25777,1,2,0:0:0:0:
228,208,26080,1,2,0:0:0:0:
416,312,26383,2,0,P|452:264|440:188,1,135.000005149842,2|2,0:0|0:0,0:0:0:0:
224,36,26989,22,0,P|224:72|220:116,1,67.5000025749208,2|0,0:0|0:0,0:0:0:0:
288,348,27292,2,0,P|288:312|292:268,1,67.5000025749208,2|0,0:0|0:0,0:0:0:0:
104,141,27595,2,0,P|136:159|172:185,1,67.5000025749208,2|0,0:0|0:0,0:0:0:0:
407,242,27898,2,0,P|375:224|339:198,1,67.5000025749208,2|0,0:0|0:0,0:0:0:0:
136,297,28201,2,0,P|168:279|208:261,1,67.5000025749208,2|0,0:0|0:0,0:0:0:0:
375,86,28504,85,2,0:0:0:0:
464,148,28656,1,0,0:0:0:0:
407,242,28807,1,2,0:0:0:0:
300,228,28959,1,0,0:0:0:0:
212,156,29110,1,2,0:0:0:0:
104,141,29262,1,0,0:0:0:0:
48,236,29413,2,0,P|52:288|80:336,1,101.250003862381,2|0,0:0|0:0,0:0:0:0:
104,376,29716,1,2,0:0:0:0:
300,228,29868,1,2,0:0:0:0:
300,228,30171,22,0,P|344:240|392:248,1,90,8|0,0:0|0:0,0:0:0:0:
500,96,30474,2,0,P|408:72|324:60,1,180,2|0,0:0|0:0,0:0:0:0:
144,32,30929,1,8,0:0:0:0:
144,32,31232,85,8,0:0:0:0:
160,144,31383,1,0,0:0:0:0:
220,240,31535,1,8,0:0:0:0:
368,112,31686,1,8,0:0:0:0:
368,112,31762,1,8,0:0:0:0:
368,112,31838,102,0,B|405:172|409:228|409:228|365:284,1,180,4|8,0:0|0:0,0:0:0:0:
224,308,32292,2,0,B|196:332|176:356|176:356|120:368|64:348,1,180
32,208,32747,1,8,0:0:0:0:
164,148,32898,2,0,P|209:157|264:172,1,90
364,260,33201,1,0,0:0:0:0:
508,276,33353,2,0,P|500:232|481:189,1,90,8|0,0:0|0:0,0:0:0:0:
400,72,33656,5,0,0:0:0:0:
376,212,33807,1,0,0:0:0:0:
164,148,33959,1,8,0:0:0:0:
213,281,34110,1,0,0:0:0:0:
24,352,34262,2,0,P|112:344|208:356,1,180,0|8,0:0|0:0,0:0:0:0:
256,188,34716,1,0,0:0:0:0:
256,188,35019,2,0,P|208:200|152:212,1,90,0|8,0:0|0:0,0:0:0:0:
64,112,35322,2,0,B|-10:71|-10:71|37:57|81:47,1,180
224,20,35777,2,0,P|216:64|200:124,1,90,8|0,0:0|0:0,0:0:0:0:
348,215,36080,102,0,P|356:171|367:128,1,90
412,28,36383,1,8,0:0:0:0:
300,84,36535,1,0,0:0:0:0:
180,116,36686,2,0,B|132:148|80:140|80:140|52:160|32:200,1,180,0|8,0:0|0:0,0:0:0:0:
152,236,37141,2,0,P|199:246|240:264,1,90
356,304,37444,2,0,P|397:277|429:247,1,90,0|8,0:0|0:0,0:0:0:0:
368,24,37747,2,0,P|277:81|207:148,1,180
152,236,38201,5,8,0:0:0:0:
184,360,38353,1,0,0:0:0:0:
252,192,38504,1,0,0:0:0:0:
120,312,38656,1,0,0:0:0:0:
180,160,38807,2,0,P|236:116|328:164,1,180,8|0,0:0|0:0,0:0:0:0:
356,280,39262,1,0,0:0:0:0:
256,356,39413,1,8,0:0:0:0:
172,180,39565,1,0,0:0:0:0:
140,300,39716,1,8,0:0:0:0:
296,168,39868,2,0,P|335:154|388:132,1,90,0|8,0:0|0:0,0:0:0:0:
172,180,40171,102,2,B|116:200|116:200|100:264|100:264|140:300,1,180,0|0,0:0|0:0,0:0:0:0:
352,368,40626,5,2,0:0:0:0:
212,376,40777,1,0,0:0:0:0:
360,276,40929,37,2,0:0:0:0:
155,324,41080,1,0,0:0:0:0:
388,152,41232,5,2,0:0:0:0:
97,276,41383,1,0,0:0:0:0:
448,8,41535,102,0,P|456:52|460:104,1,90,4|0,0:0|0:0,0:0:0:0:
304,188,42141,1,8,0:0:0:0:
232,192,42292,2,0,P|184:192|132:184,1,90
72,172,42747,1,2,0:0:0:0:
44,104,42898,1,0,0:0:0:0:
76,36,43050,22,0,L|132:28,1,45,2|0,0:0|0:0,0:0:0:0:
160,88,43353,2,0,L|216:80,1,45,8|0,0:0|0:0,0:0:0:0:
244,140,43656,2,0,L|300:132,1,45,2|0,0:0|0:0,0:0:0:0:
416,184,43959,2,0,P|369:188|320:196,1,90,2|8,0:0|0:0,0:0:0:0:
188,240,44565,2,0,P|143:233|98:229,1,90,2|0,0:0|0:0,0:0:0:0:
244,140,45019,1,8,0:0:0:0:
244,140,45474,22,0,P|288:152|344:160,1,90,8|2,0:0|0:0,0:0:0:0:
404,160,45929,1,0,0:0:0:0:
472,140,46080,1,2,0:0:0:0:
500,72,46232,2,0,P|428:56|360:32,1,135,8|0,0:0|0:0,0:0:0:0:
300,20,46838,1,0,0:0:0:0:
224,28,46989,6,0,L|220:84,1,45,8|0,0:0|0:0,0:0:0:0:
316,152,47292,2,0,L|312:107,1,45,2|0,0:0|0:0,0:0:0:0:
144,136,47595,2,0,L|140:180,1,45,2|0,0:0|0:0,0:0:0:0:
351,268,47898,2,0,L|348:224,1,45,2|0,0:0|0:0,0:0:0:0:
103,251,48201,2,0,L|100:296,1,45,8|0,0:0|0:0,0:0:0:0:
387,376,48504,2,0,L|384:332,1,45,8|0,0:0|0:0,0:0:0:0:
424,256,48807,21,2,3:0:0:0:
395,174,48959,1,0,0:0:0:0:
313,150,49110,1,2,3:0:0:0:
241,203,49262,1,2,3:0:0:0:
184,265,49413,1,0,3:0:0:0:
111,318,49565,1,2,3:0:0:0:
30,294,49716,1,0,0:0:0:0:
1,212,49868,1,2,3:0:0:0:
20,128,50019,101,2,3:0:0:0:
77,59,50171,1,0,0:0:0:0:
95,148,50322,1,2,3:0:0:0:
165,66,50474,1,0,0:0:0:0:
163,183,50626,1,2,3:0:0:0:
246,83,50777,1,0,0:0:0:0:
217,233,50929,1,2,3:0:0:0:
310,121,51080,1,0,0:0:0:0:
256,300,51232,101,10,0:0:0:0:
246,83,51383,1,2,0:0:0:0:
360,316,51535,101,10,0:0:0:0:
143,73,51686,1,2,0:0:0:0:
444,239,51838,5,10,0:0:0:0:
62,155,51989,1,10,0:0:0:0:
498,123,52141,101,2,0:0:0:0:
13,260,52292,1,0,1:0:0:0:
13,260,52747,22,0,P|84:312|168:260,1,180
168,268,53504,22,0,P|264:224|380:244,1,215.999993408203,4|0,0:0|0:0,0:0:0:0:
468,324,53959,2,0,P|492:284|500:216,1,107.999996704102,8|0,0:0|0:0,0:0:0:0:
492,96,54262,2,0,P|447:111|398:158,1,107.999996704102
324,256,54565,1,8,0:0:0:0:
232,96,54716,2,0,B|192:64|156:24|156:24|152:96|132:140,1,215.999993408203,4|0,0:0|0:0,0:0:0:0:
128,272,55171,5,8,0:0:0:0:
204,168,55322,1,0,0:0:0:0:
252,308,55474,1,0,0:0:0:0:
232,96,55626,1,0,0:0:0:0:
372,256,55777,1,8,0:0:0:0:
440,40,55929,2,0,P|400:16|312:120,1,215.999993408203,4|0,0:0|0:0,0:0:0:0:
372,256,56383,102,0,P|352:309|326:356,1,107.999996704102,8|0,0:0|0:0,0:0:0:0:
180,324,56686,1,0,0:0:0:0:
32,292,56838,1,0,0:0:0:0:
64,144,56989,1,8,0:0:0:0:
180,324,57141,2,0,B|208:356|260:368|260:368|268:304|300:240,1,215.999993408203,4|0,0:0|0:0,0:0:0:0:
336,104,57595,6,0,P|380:76|452:96,1,107.999996704102,8|0,0:0|0:0,0:0:0:0:
500,200,57898,1,0,0:0:0:0:
336,104,58050,1,0,0:0:0:0:
408,260,58201,1,8,0:0:0:0:
244,164,58353,2,0,B|188:128|96:124|96:124|136:188,1,215.999993408203,4|0,0:0|0:0,0:0:0:0:
212,276,58807,102,0,P|200:332|180:384,1,107.999996704102,8|0,0:0|0:0,0:0:0:0:
300,108,59110,2,0,P|312:52|332:0,1,107.999996704102
336,242,59413,2,0,P|374:285|417:320,1,107.999996704102,8|0,0:0|0:0,0:0:0:0:
175,141,59716,2,0,P|137:98|94:63,1,107.999996704102
336,242,60019,6,0,P|377:274|413:315,1,107.999996704102,8|0,0:0|0:0,0:0:0:0:
300,108,60322,2,0,P|306:54|323:2,1,107.999996704102,8|0,0:0|0:0,0:0:0:0:
175,141,60626,2,0,P|123:160|71:171,1,107.999996704102,8|0,0:0|0:0,0:0:0:0:
16,328,60929,101,8,0:0:0:0:
144,336,61080,1,0,0:0:0:0:
268,368,61232,1,10,0:0:0:0:
396,356,61383,2,0,P|448:340|484:301,1,107.999996704102,2|0,0:0|0:0,0:0:0:0:
488,108,61686,2,0,P|451:69|400:53,1,107.999996704102,2|0,0:0|0:0,0:0:0:0:
268,196,61989,2,0,P|165:234|50:230,1,215.999993408203,2|0,0:0|0:0,0:0:0:0:
2,115,62444,5,8,0:0:0:0:
199,39,62595,1,0,0:0:0:0:
72,8,62747,2,0,P|76:44|80:84,1,53.9999983520508,8|0,0:0|0:0,0:0:0:0:
200,152,62898,2,0,P|194:180|190:208,1,53.9999983520508
36,224,63050,2,0,P|42:252|46:280,1,53.9999983520508,8|0,0:0|0:0,0:0:0:0:
220,356,63201,102,0,B|284:360|328:340|328:340|388:352|456:324,1,215.999993408203,4|0,0:0|0:0,0:0:0:0:
488,192,63656,2,0,B|456:168|420:160|420:160|408:116|360:76|304:76,1,215.999993408203,8|0,0:0|0:0,0:0:0:0:
168,44,64110,1,0,0:0:0:0:
296,204,64262,1,8,0:0:0:0:
76,16,64413,2,0,P|4:96|48:192,1,215.999993408203,4|0,0:0|0:0,0:0:0:0:
168,212,64868,5,8,0:0:0:0:
291,381,65019,1,0,0:0:0:0:
291,171,65171,1,0,0:0:0:0:
167,341,65322,1,0,0:0:0:0:
367,276,65474,1,8,0:0:0:0:
168,212,65626,2,0,B|83:184|83:184|52:144|64:96|104:76,1,215.999993408203,4|0,0:0|0:0,0:0:0:0:
228,40,66080,102,0,P|332:32|432:92,1,215.999993408203,8|0,0:0|0:0,0:0:0:0:
412,316,66535,1,0,0:0:0:0:
476,204,66686,1,8,0:0:0:0:
284,348,66838,2,0,P|165:365|53:322,1,215.999993408203
8,180,67292,6,0,P|80:169|149:195,1,107.999996704102,8|0,0:0|0:0,0:0:0:0:
268,256,67595,1,0,0:0:0:0:
112,104,67747,1,0,0:0:0:0:
336,192,67898,1,8,0:0:0:0:
63,268,68050,2,0,P|167:291|268:256,1,215.999993408203,4|0,0:0|0:0,0:0:0:0:
348,156,68504,2,0,P|364:108|372:32,1,107.999996704102,8|0,0:0|0:0,0:0:0:0:
112,104,68807,2,0,P|119:157|135:208,1,107.999996704102
348,156,69110,102,0,P|364:272|304:356,2,215.999993408203,8|0|0,0:0|0:0|0:0,0:0:0:0:
296,36,69868,1,0,0:0:0:0:
404,104,70019,2,0,P|436:156|448:216,1,107.999996704102,8|0,0:0|0:0,0:0:0:0:
428,332,70322,1,0,0:0:0:0:
227,93,70474,6,0,B|171:57|79:53|79:53|119:117,1,215.999993408203,4|0,0:0|0:0,0:0:0:0:
334,289,70929,2,0,P|403:209|403:103,1,215.999993408203,0|8,0:0|0:0,0:0:0:0:
296,36,71383,1,0,0:0:0:0:
403,103,71535,102,0,L|295:115,1,107.999996704102
334,289,71838,2,0,L|226:301,1,107.999996704102,8|0,0:0|0:0,0:0:0:0:
4,117,72141,2,0,L|112:105,1,107.999996704102
316,203,72444,5,8,0:0:0:0:
162,219,72595,1,0,0:0:0:0:
126,384,72747,1,0,0:0:0:0:
111,105,72898,6,0,B|82:52|82:52|55:139|55:139|94:212,1,215.999993408203,4|0,0:0|0:0,0:0:0:0:
276,312,73353,21,8,0:0:0:0:
364,164,73504,1,0,0:0:0:0:
260,324,73656,5,8,0:0:0:0:
262,116,73807,1,0,0:0:0:0:
244,336,73959,101,8,0:0:0:0:
121,118,74110,1,0,0:0:0:0:
228,348,74262,5,8,0:0:0:0:
262,116,74413,1,0,0:0:0:0:
320,370,74565,101,8,0:0:0:0:
192,84,74716,1,0,0:0:0:0:
430,339,74868,5,8,3:2:0:0:
404,292,74944,1,8,3:2:0:0:
360,264,75019,1,8,3:2:0:0:
308,256,75095,1,8,3:2:0:0:
256,276,75171,1,8,3:2:0:0:
196,272,75247,1,8,3:2:0:0:
152,240,75322,70,0,P|100:160|184:104,1,215.999993408203,12|0,0:0|0:0,0:0:0:0:
440,152,75777,21,8,0:0:0:0:
440,152,75929,1,0,0:0:0:0:
324,356,76080,1,8,0:0:0:0:
324,356,76232,1,0,0:0:0:0:
236,176,76383,1,8,0:0:0:0:
236,176,76535,1,0,0:0:0:0:
68,220,76686,86,0,P|52:276|192:332,1,216,4|0,0:0|0:0,0:0:0:0:
264,300,77292,22,0,B|304:280|344:296|344:296|312:240,1,134.999995880127,2|0,0:0|0:0,0:0:0:0:
291,211,77747,6,0,B|271:152|312:60|312:60|271:152|209:176,1,315,2|0,0:0|0:0,0:0:0:0:
108,216,78959,70,0,P|111:301|199:334,1,180,4|2,0:0|0:0,0:0:0:0:
379,231,79413,2,0,P|336:218|292:212,1,90,8|0,0:0|0:0,0:0:0:0:
108,216,79716,1,2,0:0:0:0:
268,136,79868,1,0,0:0:0:0:
128,56,80019,1,8,0:0:0:0:
108,216,80171,6,0,P|140:268|252:260,1,180,0|2,0:0|0:0,0:0:0:0:
442,167,80626,2,0,P|412:200|380:231,1,90,8|0,0:0|0:0,0:0:0:0:
196,184,80929,1,2,0:0:0:0:
128,56,81080,1,0,0:0:0:0:
92,288,81232,1,8,0:0:0:0:
248,128,81383,102,0,B|296:104|324:56|324:56|364:84|424:88,1,180,0|2,0:0|0:0,0:0:0:0:
500,180,81838,2,0,P|459:199|415:209,1,90,8|0,0:0|0:0,0:0:0:0:
272,200,82141,1,2,0:0:0:0:
364,328,82292,1,0,0:0:0:0:
328,144,82444,1,8,0:0:0:0:
184,308,82595,6,0,P|120:292|108:188,1,180,0|2,0:0|0:0,0:0:0:0:
160,16,83050,2,0,P|200:40|236:76,1,90,8|0,0:0|0:0,0:0:0:0:
272,200,83353,1,2,0:0:0:0:
184,308,83504,1,0,0:0:0:0:
344,352,83656,1,8,0:0:0:0:
328,144,83807,1,0,0:0:0:0:
228,372,83959,70,0,P|180:384|136:368,2,90,8|0|0,0:0|0:0|0:0,0:0:0:0:
284,80,84413,2,0,P|332:68|376:84,2,90,8|0|0,0:0|0:0|0:0,0:0:0:0:
188,132,84868,1,8,0:0:0:0:
140,244,85019,6,0,B|116:312|164:368|164:368|224:248|284:208|388:232|416:276|404:336|360:372|320:380|248:344|264:280|304:236|303:167|367:157,1,697.500026607514,4|8,2:1|0:0,0:0:0:0:
363,84,86661,2,0,L|323:92,1,33.7500012874604,8|0,0:0|0:0,0:0:0:0:
