osu file format v14

[General]
AudioFilename: audio.mp3
AudioLeadIn: 500
PreviewTime: 52595
Countdown: 0
SampleSet: Normal
StackLeniency: 0.3
Mode: 0
LetterboxInBreaks: 0
EpilepsyWarning: 1
WidescreenStoryboard: 1

[Editor]
Bookmarks: 7595,36383,41535
DistanceSpacing: 0.6
BeatDivisor: 4
GridSize: 4
TimelineZoom: 1.6

[Metadata]
Title:Twintail Dreamer! (TV Size)
TitleUnicode:ツインテール・ドリーマー! (TV Size)
Artist:Twin-Tails
ArtistUnicode:ツインテイルズ
Creator:Moecho
Version:kiddly's Mythic Extra
Source:俺、ツインテールになります。
Tags:Twintails OreTwi Ore, Tsuinteru Tsuintēru ni Narimasu. Gonna be the Twin-Tail!! テイルレッド Tail Red 上坂すみれ Uesaka Sumire テイルブルー Blue 相坂優歌 Aisaka Yuuka テイルイエロー Yellow 赤﨑千夏 Akasaki Chinatsu Ending Theme ED TV Size edit Anime papiyon japanese pop j-pop jpop Kodora Laurier Natteke Kite HabiHolic Loneight L18 Lecana Giralda captin1 jonathanlfj apaffy kisata Nyquill RLC LunarSakuya Mythol meiikyuu Syameimaru-Aya Ayaya caren_sk CRN kiddly Axarious Delis ShirohaMyMommy SMM Koiyuki Minakami Yuki yf_bmp yf Skystar Amamiya Yuko rui rustbell spro sprosive Snow Note 7odoa bakabaka Hollow Wings HW
BeatmapID:2329709
BeatmapSetID:1115213

[Difficulty]
HPDrainRate:7
CircleSize:5
OverallDifficulty:8.5
ApproachRate:9.3
SliderMultiplier:1.6
SliderTickRate:1

[Events]
//Background and Video events
0,0,"bg.jpg",0,0
//Break Periods
//Storyboard Layer 0 (Background)
Sprite,Background,Centre,"sb\sprites\pixel-white.png",320,240 F,0,-60,,0,1 C,0,-60,,0,0,0 V,0,-60,,880,480 F,0,89619,,1,0
Sprite,Background,Centre,"bg.jpg",320,240 F,0,-2559,-1559,0,0.75 S,0,-1559,,0.4444444 F,0,337,487,0.75,0
Sprite,Background,Centre,"bg.jpg",320,240 F,0,88125,89125,0,0.75 S,0,89125,,0.4444444 F,0,89784,89934,0.75,0
Sprite,Background,Centre,"sb\sprites\bg-alt.jpg",320,240 F,0,187,337,0,0.75 S,0,337,,0.4444444 F,0,21156,22306,0.75,0
Sprite,Background,Centre,"sb\sprites\bg-alt.jpg",320,240 F,0,53369,53519,0,0.75 S,0,53519,,0.4444444 F,0,88125,89275,0.75,0
Sprite,Background,Centre,"sb\sprites\bg-alt-bw.jpg",320,240 F,0,22006,22306,0,0.75 S,0,22156,,0.4444444 F,0,39686,40486,0.75,0
Sprite,Background,Centre,"sb\sprites\bg-alt-bw.jpg",320,240 F,0,50491,50791,0,0.75 S,0,50641,,0.4444444 F,0,51807,52607,0.75,0
Sprite,Background,Centre,"sb\sprites\tail-red-ci.jpg",320,240 F,0,40794,41094,0,0.75 S,0,40944,,0.4444444 F,0,48822,50322,0.75,0
Sprite,Background,Centre,"sb\sprites\tail-blue-ci.jpg",320,240 F,0,42915,43215,0,0.75 S,0,43065,,0.4444444 F,0,48822,50322,0.75,0
Sprite,Background,Centre,"sb\sprites\tail-yellow-ci.jpg",320,240 F,0,45339,45639,0,0.75 S,0,45489,,0.4444444 F,0,48822,50322,0.75,0
Sprite,Background,Centre,"sb\sprites\pixel-white.png",320,240 V,0,2610,,854,480 F,0,2610,3210,0.15,0
Sprite,Background,Centre,"sb\sprites\pixel-white.png",320,240 V,0,5034,,854,480 F,0,5034,5634,0.15,0
Sprite,Background,Centre,"sb\sprites\pixel-white.png",320,240 V,0,6247,,854,480 F,0,6247,6847,0.15,0
Sprite,Background,Centre,"sb\sprites\pixel-white.png",320,240 V,0,7004,,854,480 F,0,7004,7604,0.15,0
Sprite,Background,Centre,"sb\sprites\pixel-white.png",320,240 V,0,7307,,854,480 F,0,7307,7907,0.15,0
Sprite,Background,Centre,"sb\sprites\pixel-white.png",320,240 V,0,7459,,854,480 F,0,7459,8059,0.15,0
Sprite,Background,Centre,"sb\sprites\pixel-white.png",320,240 V,0,9883,,854,480 F,0,9883,10483,0.15,0
Sprite,Background,Centre,"sb\sprites\pixel-white.png",320,240 V,0,12307,,854,480 F,0,12307,12907,0.15,0
Sprite,Background,Centre,"sb\sprites\pixel-white.png",320,240 V,0,14731,,854,480 F,0,14731,15331,0.15,0
Sprite,Background,Centre,"sb\sprites\pixel-white.png",320,240 V,0,17156,,854,480 F,0,17156,17756,0.15,0
Sprite,Background,Centre,"sb\sprites\pixel-white.png",320,240 V,0,22156,,854,480 F,0,22156,22756,0.15,0
Sprite,Background,Centre,"sb\sprites\pixel-white.png",320,240 V,0,27004,,854,480 F,0,27004,27604,0.15,0
Sprite,Background,Centre,"sb\sprites\pixel-white.png",320,240 V,0,52307,,854,480 F,0,52307,52907,0.15,0
Sprite,Background,Centre,"sb\sprites\pixel-white.png",320,240 V,0,62004,,854,480 F,0,62004,62604,0.15,0
Sprite,Background,Centre,"sb\sprites\pixel-white.png",320,240 V,0,76701,,854,480 F,0,76701,77301,0.15,0
Sprite,Background,Centre,"sb\sprites\pixel-white.png",320,240 V,0,85034,,854,480 F,0,85034,85634,0.15,0
//Storyboard Layer 1 (Fail)
//Storyboard Layer 2 (Pass)
//Storyboard Layer 3 (Foreground)
Sprite,Foreground,Centre,"sb\lyrics\006b.png",0,0 F,0,12207,12407,0,0.8 M,0,12307,,679.5,394 S,0,12307,,0.5 C,0,12307,,255,255,255 F,0,86904,87104,0.8,0
Sprite,Foreground,Centre,"sb\lyrics\0069.png",0,0 F,0,12207,12407,0,0.8 M,0,12307,,690.25,394 S,0,12307,,0.5 C,0,12307,,255,255,255 F,0,86904,87104,0.8,0
Sprite,Foreground,Centre,"sb\lyrics\0064.png",0,0 F,0,12207,12407,0,0.8 M,0,12307,,701.25,394.25 S,0,12307,,0.5 C,0,12307,,255,255,255 F,0,86904,87104,0.8,0
Sprite,Foreground,Centre,"sb\lyrics\0064.png",0,0 F,0,12207,12407,0,0.8 M,0,12307,,712.25,394.25 S,0,12307,,0.5 C,0,12307,,255,255,255 F,0,86904,87104,0.8,0
Sprite,Foreground,Centre,"sb\lyrics\006c.png",0,0 F,0,12207,12407,0,0.8 M,0,12307,,723.5,394 S,0,12307,,0.5 C,0,12307,,255,255,255 F,0,86904,87104,0.8,0
Sprite,Foreground,Centre,"sb\lyrics\0079.png",0,0 F,0,12207,12407,0,0.8 M,0,12307,,734.25,397 S,0,12307,,0.5 C,0,12307,,255,255,255 F,0,86904,87104,0.8,0
Sprite,Foreground,Centre,"sb\lyrics\006b.png",0,0 F,0,12207,12407,0,0.8 M,0,12307,,581,434.3 S,0,12307,,0.35 C,0,12307,,255,255,255 F,0,86904,87104,0.8,0
Sprite,Foreground,Centre,"sb\lyrics\0069.png",0,0 F,0,12207,12407,0,0.8 M,0,12307,,588.525,434.3 S,0,12307,,0.35 C,0,12307,,255,255,255 F,0,86904,87104,0.8,0
Sprite,Foreground,Centre,"sb\lyrics\0064.png",0,0 F,0,12207,12407,0,0.8 M,0,12307,,596.225,434.475 S,0,12307,,0.35 C,0,12307,,255,255,255 F,0,86904,87104,0.8,0
Sprite,Foreground,Centre,"sb\lyrics\0064.png",0,0 F,0,12207,12407,0,0.8 M,0,12307,,603.925,434.475 S,0,12307,,0.35 C,0,12307,,255,255,255 F,0,86904,87104,0.8,0
Sprite,Foreground,Centre,"sb\lyrics\006c.png",0,0 F,0,12207,12407,0,0.8 M,0,12307,,611.8,434.3 S,0,12307,,0.35 C,0,12307,,255,255,255 F,0,86904,87104,0.8,0
Sprite,Foreground,Centre,"sb\lyrics\0079.png",0,0 F,0,12207,12407,0,0.8 M,0,12307,,619.3251,436.4 S,0,12307,,0.35 C,0,12307,,255,255,255 F,0,86904,87104,0.8,0
Sprite,Foreground,Centre,"sb\lyrics\0027.png",0,0 F,0,12207,12407,0,0.8 M,0,12307,,625.6251,430.625 S,0,12307,,0.35 C,0,12307,,255,255,255 F,0,86904,87104,0.8,0
Sprite,Foreground,Centre,"sb\lyrics\0073.png",0,0 F,0,12207,12407,0,0.8 M,0,12307,,634.9001,436.05 S,0,12307,,0.35 C,0,12307,,255,255,255 F,0,86904,87104,0.8,0
Sprite,Foreground,Centre,"sb\lyrics\004d.png",0,0 F,0,12207,12407,0,0.8 M,0,12307,,650.3001,434.3 S,0,12307,,0.35 C,0,12307,,255,255,255 F,0,86904,87104,0.8,0
Sprite,Foreground,Centre,"sb\lyrics\0079.png",0,0 F,0,12207,12407,0,0.8 M,0,12307,,657.8251,436.4 S,0,12307,,0.35 C,0,12307,,255,255,255 F,0,86904,87104,0.8,0
Sprite,Foreground,Centre,"sb\lyrics\0074.png",0,0 F,0,12207,12407,0,0.8 M,0,12307,,665.5251,434.65 S,0,12307,,0.35 C,0,12307,,255,255,255 F,0,86904,87104,0.8,0
Sprite,Foreground,Centre,"sb\lyrics\0068.png",0,0 F,0,12207,12407,0,0.8 M,0,12307,,673.4001,434.475 S,0,12307,,0.35 C,0,12307,,255,255,255 F,0,86904,87104,0.8,0
Sprite,Foreground,Centre,"sb\lyrics\0069.png",0,0 F,0,12207,12407,0,0.8 M,0,12307,,680.9252,434.3 S,0,12307,,0.35 C,0,12307,,255,255,255 F,0,86904,87104,0.8,0
Sprite,Foreground,Centre,"sb\lyrics\0063.png",0,0 F,0,12207,12407,0,0.8 M,0,12307,,688.4502,435.7 S,0,12307,,0.35 C,0,12307,,255,255,255 F,0,86904,87104,0.8,0
Sprite,Foreground,Centre,"sb\lyrics\0045.png",0,0 F,0,12207,12407,0,0.8 M,0,12307,,704.3752,434.475 S,0,12307,,0.35 C,0,12307,,255,255,255 F,0,86904,87104,0.8,0
Sprite,Foreground,Centre,"sb\lyrics\0078.png",0,0 F,0,12207,12407,0,0.8 M,0,12307,,711.9002,435.875 S,0,12307,,0.35 C,0,12307,,255,255,255 F,0,86904,87104,0.8,0
Sprite,Foreground,Centre,"sb\lyrics\0074.png",0,0 F,0,12207,12407,0,0.8 M,0,12307,,719.4252,434.65 S,0,12307,,0.35 C,0,12307,,255,255,255 F,0,86904,87104,0.8,0
Sprite,Foreground,Centre,"sb\lyrics\0072.png",0,0 F,0,12207,12407,0,0.8 M,0,12307,,727.3002,435.7 S,0,12307,,0.35 C,0,12307,,255,255,255 F,0,86904,87104,0.8,0
Sprite,Foreground,Centre,"sb\lyrics\0061.png",0,0 F,0,12207,12407,0,0.8 M,0,12307,,735.1753,435.875 S,0,12307,,0.35 C,0,12307,,255,255,255 F,0,86904,87104,0.8,0
//Storyboard Layer 4 (Overlay)
//Storyboard Sound Samples

[TimingPoints]
323,303.030303030303,4,2,1,50,1,0
323,-100,4,2,1,50,0,0
1838,-100,4,1,1,50,0,0
2898,-100,4,2,0,50,0,0
6686,-100,4,1,1,50,0,0
22141,-125,4,2,1,50,0,0
31535,-125,4,2,1,40,0,0
31838,-100,4,2,1,50,0,0
41535,-166.666666666667,4,2,0,50,0,0
48504,-166.666666666667,4,1,1,40,0,0
48807,-100,4,2,0,50,0,0
52292,-100,4,2,1,50,0,0
53504,-100,4,1,1,50,0,1
59716,-166.666666666667,4,1,1,50,0,1
60019,-125,4,1,1,50,0,1
60322,-100,4,1,1,50,0,1
60626,-66.6666666666667,4,1,1,50,0,1
61383,-100,4,1,1,50,0,1
76686,-133.333333333333,4,1,1,50,0,0
78504,-100,4,2,1,50,0,0
78959,-100,4,1,1,50,0,0
83959,-200,4,1,1,50,0,0
85095,-200,4,1,1,20,0,0

[Colours]
Combo1 : 192,192,192
Combo2 : 255,50,50
Combo3 : 255,125,125
Combo4 : 25,100,255
Combo5 : 50,150,255
Combo6 : 255,255,50
Combo7 : 255,255,150
Combo8 : 128,128,128

[HitObjects]
280,268,323,101,2,0:0:0:0:
344,236,474,1,0,0:0:0:0:
284,196,626,1,0,0:0:0:0:
184,344,777,1,0,0:0:0:0:
140,164,1232,5,2,0:0:0:0:
112,37,1383,1,0,0:0:0:0:
79,109,1535,1,0,0:0:0:0:
192,45,1686,1,0,0:0:0:0:
284,196,1838,69,0,0:0:0:0:
292,208,1913,1,0,0:0:0:0:
300,220,1989,2,0,L|344:212,1,40,8|0,0:3|0:0,0:0:0:0:
308,116,2141,1,4,0:3:0:0:
244,292,2292,1,4,0:3:0:0:
244,292,2595,54,0,B|192:284|192:284|144:312|144:312|64:300,1,160,4|0,1:2|0:0,0:0:0:0:
40,244,3050,2,0,P|39:204|81:166,1,80,2|0,0:0|0:0,0:0:0:0:
208,356,3353,2,0,B|245:364|245:364|285:352,2,80
192,240,3807,6,0,P|148:228|168:320,1,160,0|0,1:0|0:0,0:0:0:0:
208,356,4262,2,0,L|300:348,1,80,2|0,0:0|0:0,0:0:0:0:
416,296,4565,1,0,0:0:0:0:
488,308,4716,1,0,0:0:0:0:
440,364,4868,1,0,0:0:0:0:
438,101,5019,102,0,B|454:69|454:69|482:121|482:121|482:121|466:169|466:169|450:185,1,160,4|0,1:2|0:0,0:0:0:0:
442,174,5398,1,0,0:0:0:0:
429,169,5474,2,0,P|381:175|347:206,1,80,2|0,0:0|0:0,0:0:0:0:
312,295,5777,2,0,P|312:335|331:370,2,80,0|0|0,1:0|0:0|0:0,0:0:0:0:
232,176,6232,6,0,B|224:132|224:132|240:100|240:100|224:22,1,160,4|0,1:2|0:0,0:0:0:0:
124,156,6686,1,8,0:0:0:0:
120,172,6762,1,0,0:0:0:0:
116,188,6838,1,8,0:0:0:0:
112,204,6913,1,0,0:0:0:0:
108,220,6989,2,0,L|120:280,1,40,4|0,0:0|0:0,0:0:0:0:
172,332,7141,2,0,L|180:284,1,40,8|0,0:0|0:0,0:0:0:0:
232,176,7292,2,0,L|240:224,1,40,4|0,0:0|0:0,0:0:0:0:
344,328,7444,6,0,P|420:340|464:268,1,160,4|0,0:0|0:0,0:0:0:0:
436,200,7898,21,8,0:0:0:0:
464,279,8050,1,0,0:0:0:0:
336,188,8201,85,8,0:0:0:0:
436,200,8353,1,0,0:0:0:0:
224,236,8504,21,8,0:0:0:0:
336,188,8656,1,0,0:0:0:0:
72,184,8807,85,8,0:0:0:0:
224,236,8959,1,0,0:0:0:0:
12,4,9110,21,8,0:0:0:0:
72,184,9262,1,0,0:0:0:0:
146,196,9413,101,8,0:3:0:0:
139,217,9489,1,0,0:0:0:0:
126,235,9565,1,8,0:3:0:0:
110,250,9641,1,0,0:0:0:0:
89,258,9716,1,8,0:0:0:0:
66,258,9792,1,0,0:0:0:0:
44,254,9868,102,0,B|80:262|80:262|104:290|104:290|216:302,1,160,4|0,0:0|0:0,0:0:0:0:
190,299,10247,1,0,0:0:0:0:
190,299,10322,1,8,0:0:0:0:
254,217,10474,21,0,0:0:0:0:
254,217,10550,1,0,0:0:0:0:
254,217,10626,1,8,0:0:0:0:
331,365,10777,85,0,0:0:0:0:
331,365,10853,1,0,0:0:0:0:
331,365,10929,1,8,0:0:0:0:
411,268,11080,21,0,0:0:0:0:
415,264,11156,1,0,0:0:0:0:
419,260,11232,1,8,0:0:0:0:
368,88,11383,85,0,0:0:0:0:
372,104,11459,1,0,0:0:0:0:
376,120,11535,1,8,0:0:0:0:
256,188,11686,5,0,0:0:0:0:
224,176,11762,1,0,0:0:0:0:
192,164,11838,2,0,L|184:112,1,40,8|0,0:0|0:0,0:0:0:0:
124,196,11989,2,0,L|112:248,1,40,8|0,0:0|0:0,0:0:0:0:
64,116,12141,2,0,L|56:64,1,40,8|0,0:0|0:0,0:0:0:0:
8,184,12292,102,2,P|64:152|164:168,1,160,6|0,0:0|0:0,0:0:0:0:
208,296,12747,2,2,B|200:332|200:332|220:380,1,80,10|0,0:0|0:0,0:0:0:0:
270,247,13050,1,0,0:0:0:0:
336,277,13201,1,0,0:0:0:0:
276,320,13353,1,8,0:0:0:0:
398,324,13504,6,2,P|411:247|334:200,1,160,2|0,0:0|0:0,2:0:0:0:
208,296,13959,2,0,B|200:332|200:332|220:380,1,80,8|0,0:0|0:0,0:0:0:0:
304,240,14262,1,2,0:0:0:0:
299,228,14338,1,0,0:0:0:0:
294,216,14413,1,0,0:0:0:0:
197,189,14565,1,10,0:0:0:0:
208,296,14716,102,2,B|157:283|157:283|129:298|129:298|31:279,1,160,6|0,0:0|0:0,0:0:0:0:
83,202,15171,2,2,P|61:167|69:122,1,80,10|0,0:0|0:0,0:0:0:0:
199,30,15474,2,0,P|222:61|223:101,1,80
83,202,15777,1,0,0:0:0:0:
154,152,15929,6,2,B|188:125|188:125|231:154|232:193|190:230,1,160,2|0,0:0|0:0,0:0:0:0:
109,279,16383,2,0,L|23:274,1,80,8|0,0:0|0:0,0:0:0:0:
239,341,16686,1,2,0:0:0:0:
247,332,16762,1,0,0:0:0:0:
255,323,16838,2,0,L|341:318,1,80,0|8,0:0|0:0,0:0:0:0:
191,279,17141,102,2,P|175:216|259:183,1,160,6|0,0:0|0:0,0:0:0:0:
279,264,17595,1,10,0:0:0:0:
279,264,17747,1,0,0:0:0:0:
373,204,17898,5,0,0:0:0:0:
384,205,17974,1,0,0:0:0:0:
395,206,18050,1,0,0:0:0:0:
334,325,18201,1,8,0:0:0:0:
279,264,18353,2,0,B|265:224|265:224|278:188,1,80,0|2,0:0|0:0,0:0:0:0:
485,204,18656,2,0,B|492:243|492:243|475:287,1,80,0|10,0:0|0:0,0:0:0:0:
278,189,18959,101,0,0:0:0:0:
278,189,19110,1,2,0:0:0:0:
313,125,19262,1,2,0:0:0:0:
272,64,19413,1,8,0:0:0:0:
309,1,19565,2,2,P|391:29|378:114,1,160,2|0,0:0|0:0,0:0:0:0:
272,64,20019,2,2,B|228:58|228:58|201:73|201:73|99:57,1,160,10|2,0:0|0:0,0:0:0:0:
205,199,20474,6,0,P|257:203|285:183,1,80,0|8,0:0|0:0,0:0:0:0:
313,125,20777,1,2,0:0:0:0:
148,237,20929,2,0,P|142:277|171:317,1,80
313,125,21232,2,0,B|323:84|323:84|296:31,1,80,8|0,0:0|0:0,0:0:0:0:
384,308,21535,5,8,0:0:0:0:
385,311,21610,1,0,0:0:0:0:
387,314,21686,1,8,0:0:0:0:
388,317,21762,1,0,0:0:0:0:
390,321,21838,5,8,0:0:0:0:
352,309,21913,1,0,0:0:0:0:
325,278,21989,1,0,0:0:0:0:
326,237,22065,1,0,0:0:0:0:
351,205,22141,22,0,L|444:193,1,64,4|0,1:2|0:0,0:0:0:0:
478,255,22444,1,0,1:0:0:0:
277,149,22595,2,0,P|252:94|294:43,1,128
394,124,23050,1,0,1:0:0:0:
342,177,23201,86,0,B|303:182|303:182|273:173|273:173|190:190,1,128
153,231,23656,1,0,1:0:0:0:
263,262,23807,1,0,0:0:0:0:
342,177,23959,2,0,B|349:139|349:139|333:107,1,64
456,281,24262,2,0,B|449:319|449:319|465:351,1,64,0|0,1:0|0:0,0:0:0:0:
370,251,24565,22,0,P|321:218|247:237,1,128,0|0,0:0|1:0,0:0:0:0:
212,286,25019,2,0,P|206:317|224:355,1,64
341,178,25322,2,0,P|347:147|329:109,1,64,0|0,0:0|1:0,0:0:0:0:
279,226,25626,1,0,0:0:0:0:
279,226,25929,85,0,0:0:0:0:
293,295,26080,1,0,1:0:0:0:
308,364,26232,1,0,0:0:0:0:
346,246,26383,1,0,0:0:0:0:
293,295,26535,1,0,0:0:0:0:
241,345,26686,2,0,P|219:309|230:274,1,64,0|0,1:0|3:3,0:0:0:0:
346,246,26989,22,0,B|385:251|385:251|415:242|415:242|471:253,1,128,4|0,1:2|1:0,0:0:0:0:
312,174,27444,1,0,0:0:0:0:
256,217,27595,1,0,0:0:0:0:
185,209,27747,2,0,P|174:179|197:134,1,64,0|0,0:0|1:0,0:0:0:0:
82,257,28050,86,0,B|58:268|58:268|33:294|37:346|90:359,1,128
145,332,28504,2,0,L|227:338,1,64,0|0,1:0|0:0,0:0:0:0:
352,368,28807,2,0,L|434:362,1,64
290,322,29110,2,0,P|277:284|293:249,1,64,0|0,1:0|0:0,0:0:0:0:
461,193,29413,22,0,B|422:198|422:198|392:189|392:189|336:200,1,128,0|0,0:0|1:0,0:0:0:0:
290,322,29868,1,0,0:0:0:0:
336,200,30019,1,0,0:0:0:0:
290,322,30171,2,0,P|277:284|293:249,1,64,8|0,1:0|1:0,0:0:0:0:
428,129,30474,86,0,P|437:78|357:46,1,128,0|0,1:0|0:0,0:0:0:0:
331,92,30929,2,0,L|340:165,1,64,0|0,1:0|0:0,0:0:0:0:
474,273,31232,2,0,L|483:200,1,64
358,226,31535,1,0,1:0:0:0:
327,241,31610,1,0,1:0:0:0:
293,250,31686,1,0,1:0:0:0:
257,248,31762,1,0,1:0:0:0:
224,233,31838,102,0,P|203:197|226:141,1,80,0|0,1:0|0:0,0:0:0:0:
255,103,32141,1,8,1:0:0:0:
293,250,32292,2,0,B|247:255|247:255|217:279|217:279|109:292,1,160
87,351,32747,1,8,1:0:0:0:
119,212,32898,1,0,0:0:0:0:
119,212,33201,5,0,0:0:0:0:
69,156,33353,2,0,L|81:69,1,80,8|0,1:0|0:0,0:0:0:0:
213,243,33656,101,0,1:0:0:0:
274,294,33807,1,0,0:0:0:0:
203,319,33959,1,8,1:0:0:0:
119,212,34110,1,0,0:0:0:0:
69,156,34262,6,0,P|66:93|153:71,1,160,0|8,1:0|1:0,0:0:0:0:
119,212,34716,2,0,B|124:255|124:255|105:296,1,80,0|0,0:0|1:0,0:0:0:0:
147,67,35019,2,0,L|159:149,1,80,0|8,0:0|1:0,0:0:0:0:
187,317,35322,1,0,0:0:0:0:
187,317,35626,102,0,B|219:338|219:338|273:329,1,80,0|8,0:0|1:0,0:0:0:0:
365,268,35929,1,0,0:0:0:0:
369,259,36004,1,0,0:0:0:0:
374,250,36080,2,0,L|461:258,1,80,0|0,1:0|0:0,0:0:0:0:
328,129,36383,2,0,P|308:162|319:200,1,80,8|0,1:0|0:0,0:0:0:0:
509,291,36686,6,0,B|462:287|462:287|428:304|428:304|320:297,1,160,0|8,1:0|1:0,0:0:0:0:
283,277,37141,1,0,0:0:0:0:
296,348,37292,1,0,1:0:0:0:
202,247,37444,101,0,0:0:0:0:
292,357,37595,1,8,1:0:0:0:
102,265,37747,6,0,P|101:198|190:184,1,160
202,247,38201,2,0,B|286:238,1,80,8|0,1:0|0:0,0:0:0:0:
402,302,38504,2,0,B|322:310,1,80,0|0,1:0|0:0,0:0:0:0:
423,162,38807,2,0,B|507:153,1,80,8|0,1:0|0:0,0:0:0:0:
397,229,39110,101,0,1:0:0:0:
386,99,39262,1,0,0:0:0:0:
503,153,39413,1,8,1:0:0:0:
478,229,39565,6,0,P|417:180|321:203,1,160
207,229,40019,1,8,1:0:0:0:
269,256,40171,2,0,B|288:352|288:352|233:385,1,160
141,219,40626,21,8,1:0:0:0:
144,97,40777,1,0,0:0:0:0:
141,219,40929,1,8,1:0:0:0:
46,156,41080,1,0,0:0:0:0:
144,97,41232,1,8,1:0:0:0:
57,240,41383,5,0,0:0:0:0:
63,250,41459,1,0,0:0:0:0:
70,260,41535,2,0,B|110:268|110:268|170:250,1,95.9999970703126,0|2,0:0|0:0,0:0:0:0:
209,200,41989,2,0,P|206:169|189:145,1,47.9999985351563,0|0,0:0|1:0,0:0:0:0:
264,335,42292,2,0,L|211:343,1,47.9999985351563
238,269,42595,6,0,P|281:251|343:264,1,95.9999970703126,2|2,0:0|0:0,0:0:0:0:
370,311,43050,2,0,L|380:359,1,47.9999985351563
499,290,43353,2,0,B|528:242|489:193,1,95.9999970703126,0|0,1:0|0:0,0:0:0:0:
442,248,43807,5,2,0:0:0:0:
398,303,43959,2,0,L|338:298,1,47.9999985351563,0|2,0:0|0:0,0:0:0:0:
289,224,44262,2,0,P|273:175|308:141,1,95.9999970703126,0|0,1:0|0:0,0:0:0:0:
398,303,44716,2,0,L|338:298,1,47.9999985351563,0|2,0:0|0:0,0:0:0:0:
261,316,45019,1,0,1:0:0:0:
261,316,45322,37,0,0:0:0:0:
186,346,45474,1,0,1:0:0:0:
192,269,45626,1,0,0:0:0:0:
195,260,45701,1,0,0:0:0:0:
199,250,45777,1,0,0:0:0:0:
46,302,45929,101,0,0:0:0:0:
122,301,46080,1,0,1:0:0:0:
192,269,46232,2,0,P|197:208|167:170,1,95.9999970703126,2|0,0:0|0:0,0:0:0:0:
129,60,46686,6,0,L|77:67,1,47.9999985351563
179,180,46989,2,0,P|203:129|189:90,1,95.9999970703126,0|2,1:0|0:0,0:0:0:0:
294,125,47444,1,0,0:0:0:0:
283,140,47519,1,0,0:0:0:0:
272,156,47595,102,0,L|299:205,1,47.9999985351563
364,80,47898,2,0,L|356:143,1,47.9999985351563,2|0,0:0|0:0,0:0:0:0:
487,61,48201,2,0,L|437:97,1,47.9999985351563,0|0,1:0|0:0,0:0:0:0:
478,210,48504,5,0,0:0:0:0:
480,218,48580,1,0,0:0:0:0:
481,226,48656,101,0,0:0:0:0:
450,207,48732,1,0,0:0:0:0:
421,199,48807,38,0,B|374:195|374:195|340:212|340:212|232:205,1,160,0|2,0:0|0:0,0:0:0:0:
436,338,49262,2,0,B|465:309|465:309|472:249,1,80
389,68,49565,2,0,B|360:97|360:97|353:157,1,80,2|0,0:0|0:0,0:0:0:0:
401,275,49868,102,0,P|366:238|263:264,1,160,2|0,0:0|0:0,0:0:0:0:
223,337,50322,1,2,0:0:0:0:
165,265,50474,1,0,0:0:0:0:
168,258,50550,1,0,0:0:0:0:
171,250,50626,2,0,B|158:211|158:211|111:200,1,80
39,328,50929,2,0,B|52:367|52:367|99:378,1,80,2|0,0:0|0:0,0:0:0:0:
103,286,51232,101,0,0:0:0:0:
161,164,51383,1,0,0:0:0:0:
223,337,51535,1,2,0:0:0:0:
69,226,51686,102,0,B|115:218|115:218|147:234|147:234|243:216,1,160,0|2,0:0|0:0,0:0:0:0:
223,337,52141,1,2,0:0:0:0:
294,114,52292,1,4,0:2:0:0:
234,64,52747,22,0,B|222:119|222:119|235:162|235:162|219:239,1,160
172,269,53201,2,0,B|128:261|128:261|96:293,1,80
368,264,53504,22,2,P|404:236|332:208,1,160
296,268,53959,2,0,B|288:312|288:312|320:344,1,80,8|0,0:0|0:0,0:0:0:0:
424,176,54262,1,2,0:0:0:0:
424,176,54413,2,0,B|432:132|432:132|400:100,1,80,0|8,0:0|0:0,0:0:0:0:
336,68,54716,6,2,B|240:52|276:128|160:92,1,160,2|0,0:0|0:0,0:0:0:0:
172,92,55095,1,0,0:0:0:0:
162,82,55171,2,0,P|170:50|210:54,1,80,8|0,0:0|0:0,0:0:0:0:
229,186,55474,1,0,0:0:0:0:
161,82,55626,1,0,0:0:0:0:
229,186,55777,1,8,0:0:0:0:
154,294,55929,102,0,B|121:250|121:250|142:148,1,160,2|2,0:0|0:0,0:0:0:0:
134,137,56307,1,0,0:0:0:0:
126,124,56383,2,0,P|103:169|112:213,1,80,8|0,0:0|0:0,0:0:0:0:
154,294,56686,1,2,0:0:0:0:
226,311,56838,1,0,0:0:0:0:
174,366,56989,1,10,0:0:0:0:
296,349,57141,2,2,P|302:273|239:231,1,160,2|0,0:0|0:0,0:0:0:0:
407,253,57595,6,0,B|382:276|382:276|322:286,1,80,10|0,0:0|0:0,0:0:0:0:
464,208,57898,2,0,B|504:220|504:220|468:248,1,80,2|0,0:0|0:0,0:0:0:0:
276,248,58201,1,8,0:0:0:0:
317,180,58353,102,2,B|304:137|304:137|312:81|312:81|276:93|288:145,1,160,2|0,0:0|0:0,0:0:0:0:
282,236,58732,1,0,0:0:0:0:
276,249,58807,2,0,P|296:285|340:300,1,80,8|0,0:0|0:0,0:0:0:0:
431,185,59110,1,2,0:0:0:0:
352,232,59262,1,0,0:0:0:0:
384,344,59413,5,10,0:0:0:0:
344,240,59565,1,0,0:0:0:0:
360,108,59716,6,0,P|372:74|408:79,1,71.9999978027344,2|0,0:0|2:0,0:0:0:0:
384,98,60019,6,0,B|421:85|450:111|450:111|410:131,1,96,10|0,0:0|2:0,0:0:0:0:
409,114,60322,6,0,B|425:160|425:160|407:204|407:204|389:176,1,120,2|0,0:0|2:0,0:0:0:0:
401,161,60626,6,0,P|347:193|282:176,1,120.000004577637,10|0,0:0|0:0,0:0:0:0:
448,219,60929,1,10,0:0:0:0:
298,262,61080,1,8,0:3:0:0:
336,111,61232,1,4,0:3:0:0:
412,352,61383,38,2,P|404:296|472:284,1,120,10|0,0:0|0:0,0:0:0:0:
464,284,61686,2,0,B|414:295|414:295|375:284|375:284|302:297,1,160,0|4,0:0|0:0,0:0:0:0:
308,296,62292,5,0,0:0:0:0:
236,244,62444,2,0,P|220:208|248:168,1,80,8|0,0:0|0:0,0:0:0:0:
248,180,62671,1,0,0:0:0:0:
260,184,62747,2,0,L|312:180,1,40,8|0,0:0|0:0,0:0:0:0:
245,111,62898,101,8,0:0:0:0:
221,111,62974,1,0,0:0:0:0:
199,121,63050,1,8,0:0:0:0:
182,138,63126,1,0,0:0:0:0:
175,161,63201,2,2,B|161:202|182:243|221:257|221:257|260:226,1,160,2|0,0:0|0:0,0:0:0:0:
306,129,63656,2,0,P|292:67|248:52,1,80,8|0,0:0|0:0,0:0:0:0:
225,315,63959,2,0,P|259:344|314:333,1,80,2|0,0:0|0:0,0:0:0:0:
368,318,64262,1,8,0:0:0:0:
424,260,64413,6,2,B|438:219|417:178|378:164|378:164|339:195,1,160
342,201,64792,1,0,0:0:0:0:
337,212,64868,2,0,B|306:228|306:228|246:215,1,80,8|0,0:0|0:0,0:0:0:0:
236,151,65171,1,2,0:0:0:0:
162,281,65322,2,0,B|131:265|131:265|71:278,1,80,0|8,0:0|0:0,0:0:0:0:
117,119,65626,102,2,P|187:137|177:210,1,160,2|0,0:0|0:0,0:0:0:0:
162,281,66004,1,0,0:0:0:0:
156,271,66080,2,0,B|125:255|125:255|65:268,1,80,8|0,0:0|0:0,0:0:0:0:
241,240,66383,2,0,L|250:291,1,40,2|0,0:0|0:0,0:0:0:0:
249,329,66535,2,0,L|288:295,1,40,2|0,0:0|0:0,0:0:0:0:
321,278,66686,2,0,L|272:260,1,40,8|0,0:0|0:0,0:0:0:0:
242,240,66838,6,2,B|239:189|297:168|336:180|336:180|327:213,1,160,2|0,0:0|0:0,0:0:0:0:
367,333,67292,2,2,P|400:354|446:344,1,80,10|0,0:0|0:0,0:0:0:0:
390,203,67595,101,8,0:0:0:0:
368,212,67671,1,0,0:0:0:0:
352,230,67747,1,8,0:0:0:0:
341,251,67822,1,0,0:0:0:0:
338,275,67898,1,8,0:0:0:0:
342,299,67974,1,0,0:0:0:0:
352,322,68050,2,2,P|418:360|489:329,1,160,2|0,0:0|0:0,0:0:0:0:
368,211,68504,6,0,L|267:204,1,80,8|0,0:0|0:0,0:0:0:0:
58,40,68807,1,2,0:0:0:0:
5,93,68959,1,0,0:0:0:0:
73,111,69110,2,0,L|174:104,1,80,8|0,0:0|0:0,0:0:0:0:
306,209,69413,102,2,B|258:214|258:214|220:203|220:203|126:211,1,160,2|8,0:0|0:0,0:0:0:0:
160,373,69868,1,0,0:0:0:0:
96,256,70019,2,0,B|87:296|87:296|102:337,1,80,2|0,0:0|0:0,0:0:0:0:
42,206,70322,1,8,0:0:0:0:
159,125,70474,6,2,P|173:55|99:46,1,160,2|0,0:0|0:0,0:0:0:0:
107,53,70853,1,0,0:0:0:0:
114,62,70929,2,0,L|209:52,1,80,8|0,0:0|0:0,0:0:0:0:
68,125,71232,1,0,0:0:0:0:
191,198,71383,1,0,0:0:0:0:
194,54,71535,102,0,L|114:62,1,80,8|0,0:0|0:0,0:0:0:0:
237,1,71838,2,0,P|260:32|258:72,1,80
219,264,72141,2,0,P|191:237|191:198,1,80,8|0,0:0|0:0,0:0:0:0:
362,123,72444,1,8,0:0:0:0:
362,155,72519,1,0,0:0:0:0:
350,185,72595,1,8,0:0:0:0:
326,206,72671,1,0,0:0:0:0:
296,215,72747,2,0,L|256:211,1,40,8|0,0:0|0:0,0:0:0:0:
191,198,72898,22,2,B|157:181|157:181|124:209|118:258|164:281,1,160,2|0,0:0|0:0,0:0:0:0:
255,261,73353,21,8,0:0:0:0:
164,281,73504,1,0,0:0:0:0:
347,313,73656,85,8,0:0:0:0:
255,261,73807,1,0,0:0:0:0:
476,265,73959,21,8,0:0:0:0:
347,313,74110,1,0,0:0:0:0:
453,90,74262,85,8,0:0:0:0:
476,265,74413,1,0,0:0:0:0:
231,25,74565,21,8,0:0:0:0:
453,90,74716,1,0,0:0:0:0:
339,133,74868,101,8,0:3:0:0:
366,126,74944,1,0,0:0:0:0:
393,134,75019,1,8,0:3:0:0:
413,155,75095,1,0,0:0:0:0:
419,181,75171,1,8,0:0:0:0:
412,208,75247,1,0,0:0:0:0:
392,228,75322,102,0,B|343:208|343:208|225:241,1,160
234,251,75701,1,0,0:0:0:0:
228,266,75777,1,8,0:0:0:0:
159,187,75929,21,0,0:0:0:0:
159,187,76004,1,0,0:0:0:0:
159,187,76080,1,8,0:0:0:0:
316,289,76232,85,0,0:0:0:0:
342,294,76307,1,0,0:0:0:0:
368,298,76383,1,8,0:0:0:0:
178,359,76535,21,0,0:0:0:0:
130,364,76610,1,0,0:0:0:0:
82,369,76686,2,0,B|107:290|107:290|62:274|62:274|49:248|49:248|94:262|94:262|124:173|124:173|116:139|116:139|157:14|157:14|199:56|212:110|212:110|162:261,1,720.000027465821,4|0,0:0|0:0,0:0:0:0:
168,243,78959,86,2,B|201:211|201:211|237:249|241:289|209:314,1,160
98,247,79413,2,0,P|98:207|132:181,1,80,10|0,0:0|0:0,0:0:0:0:
212,311,79716,2,0,P|212:349|183:375,1,80
155,278,80019,1,10,0:0:0:0:
214,242,80171,6,2,B|253:236|253:236|297:254|297:254|379:246,1,160
340,318,80626,2,0,L|261:327,1,80,8|0,0:0|0:0,0:0:0:0:
456,275,80929,1,2,0:0:0:0:
464,266,81004,1,0,0:0:0:0:
472,257,81080,2,0,P|467:215|438:192,1,80,0|8,0:0|0:0,0:0:0:0:
337,82,81383,102,2,B|363:112|363:112|442:120|442:120|487:91,1,160
311,213,81838,2,0,P|266:211|232:242,1,80,10|0,0:0|0:0,0:0:0:0:
293,278,82141,1,0,0:0:0:0:
318,148,82292,1,0,0:0:0:0:
188,190,82444,1,10,0:0:0:0:
293,278,82595,6,2,B|301:232|301:232|284:197|284:197|299:109,1,160
230,250,83050,2,0,L|145:267,1,80,8|0,0:0|0:0,0:0:0:0:
297,124,83353,1,2,0:0:0:0:
293,143,83429,1,0,0:0:0:0:
287,161,83504,2,0,P|303:201|279:248,2,80,0|10|0,0:0|0:0|0:0,0:0:0:0:
92,168,83959,69,2,0:0:0:0:
69,258,84110,2,2,L|99:288,1,40,0|0,0:0|0:0,0:0:0:0:
227,107,84413,5,2,0:0:0:0:
194,228,84565,2,2,L|224:258,1,40,0|0,0:0|0:0,0:0:0:0:
377,22,84868,101,2,0:0:0:0:
329,187,85019,2,0,B|377:161|437:174|467:243|445:303|380:319|380:319|319:291|319:291|187:335,1,453.333333333333,4|8,0:0|0:3,0:0:0:0:
