osu file format v14

[General]
AudioFilename: audio.mp3
AudioLeadIn: 500
PreviewTime: 52595
Countdown: 0
SampleSet: Normal
StackLeniency: 0.2
Mode: 0
LetterboxInBreaks: 0
EpilepsyWarning: 1
WidescreenStoryboard: 1

[Editor]
DistanceSpacing: 1.5
BeatDivisor: 4
GridSize: 32
TimelineZoom: 2.200001

[Metadata]
Title:Twintail Dreamer! (TV Size)
TitleUnicode:ツインテール・ドリーマー! (TV Size)
Artist:Twin-Tails
ArtistUnicode:ツインテイルズ
Creator:Moecho
Version:Snow Note's Ultra
Source:俺、ツインテールになります。
Tags:Twintails OreTwi Ore, Tsuinteru Tsuintēru ni Narimasu. Gonna be the Twin-Tail!! テイルレッド Tail Red 上坂すみれ Uesaka Sumire テイルブルー Blue 相坂優歌 Aisaka Yuuka テイルイエロー Yellow 赤﨑千夏 Akasaki Chinatsu Ending Theme ED TV Size edit Anime papiyon japanese pop j-pop jpop Kodora Laurier Natteke Kite HabiHolic Loneight L18 Lecana Giralda captin1 jonathanlfj apaffy kisata Nyquill RLC LunarSakuya Mythol meiikyuu Syameimaru-Aya Ayaya caren_sk CRN kiddly Axarious Delis ShirohaMyMommy SMM Koiyuki Minakami Yuki yf_bmp yf Skystar Amamiya Yuko rui rustbell spro sprosive Snow Note 7odoa bakabaka Hollow Wings HW
BeatmapID:2332966
BeatmapSetID:1115213

[Difficulty]
HPDrainRate:5
CircleSize:4.5
OverallDifficulty:8.8
ApproachRate:9.1
SliderMultiplier:2.1
SliderTickRate:1

[Events]
//Background and Video events
0,0,"bg.jpg",0,0
//Break Periods
//Storyboard Layer 0 (Background)
Sprite,Background,Centre,"sb\sprites\pixel-white.png",320,240 F,0,-60,,0,1 C,0,-60,,0,0,0 V,0,-60,,880,480 F,0,89619,,1,0
Sprite,Background,Centre,"bg.jpg",320,240 F,0,-2559,-1559,0,0.75 S,0,-1559,,0.4444444 F,0,337,487,0.75,0
Sprite,Background,Centre,"bg.jpg",320,240 F,0,88125,89125,0,0.75 S,0,89125,,0.4444444 F,0,89784,89934,0.75,0
Sprite,Background,Centre,"sb\sprites\bg-alt.jpg",320,240 F,0,187,337,0,0.75 S,0,337,,0.4444444 F,0,21156,22306,0.75,0
Sprite,Background,Centre,"sb\sprites\bg-alt.jpg",320,240 F,0,53369,53519,0,0.75 S,0,53519,,0.4444444 F,0,88125,89275,0.75,0
Sprite,Background,Centre,"sb\sprites\bg-alt-bw.jpg",320,240 F,0,22006,22306,0,0.75 S,0,22156,,0.4444444 F,0,39686,40486,0.75,0
Sprite,Background,Centre,"sb\sprites\bg-alt-bw.jpg",320,240 F,0,50491,50791,0,0.75 S,0,50641,,0.4444444 F,0,51807,52607,0.75,0
Sprite,Background,Centre,"sb\sprites\tail-red-ci.jpg",320,240 F,0,40794,41094,0,0.75 S,0,40944,,0.4444444 F,0,48822,50322,0.75,0
Sprite,Background,Centre,"sb\sprites\tail-blue-ci.jpg",320,240 F,0,42915,43215,0,0.75 S,0,43065,,0.4444444 F,0,48822,50322,0.75,0
Sprite,Background,Centre,"sb\sprites\tail-yellow-ci.jpg",320,240 F,0,45339,45639,0,0.75 S,0,45489,,0.4444444 F,0,48822,50322,0.75,0
Sprite,Background,Centre,"sb\sprites\pixel-white.png",320,240 V,0,2610,,854,480 F,0,2610,3210,0.15,0
Sprite,Background,Centre,"sb\sprites\pixel-white.png",320,240 V,0,3822,,854,480 F,0,3822,4422,0.15,0
Sprite,Background,Centre,"sb\sprites\pixel-white.png",320,240 V,0,5034,,854,480 F,0,5034,5634,0.15,0
Sprite,Background,Centre,"sb\sprites\pixel-white.png",320,240 V,0,5792,,854,480 F,0,5792,6392,0.15,0
Sprite,Background,Centre,"sb\sprites\pixel-white.png",320,240 V,0,6247,,854,480 F,0,6247,6847,0.15,0
Sprite,Background,Centre,"sb\sprites\pixel-white.png",320,240 V,0,7459,,854,480 F,0,7459,8059,0.15,0
Sprite,Background,Centre,"sb\sprites\pixel-white.png",320,240 V,0,9883,,854,480 F,0,9883,10483,0.15,0
Sprite,Background,Centre,"sb\sprites\pixel-white.png",320,240 V,0,12307,,854,480 F,0,12307,12907,0.15,0
Sprite,Background,Centre,"sb\sprites\pixel-white.png",320,240 V,0,13519,,854,480 F,0,13519,14119,0.15,0
Sprite,Background,Centre,"sb\sprites\pixel-white.png",320,240 V,0,14731,,854,480 F,0,14731,15331,0.15,0
Sprite,Background,Centre,"sb\sprites\pixel-white.png",320,240 V,0,15944,,854,480 F,0,15944,16544,0.15,0
Sprite,Background,Centre,"sb\sprites\pixel-white.png",320,240 V,0,17156,,854,480 F,0,17156,17756,0.15,0
Sprite,Background,Centre,"sb\sprites\pixel-white.png",320,240 V,0,18368,,854,480 F,0,18368,18968,0.15,0
Sprite,Background,Centre,"sb\sprites\pixel-white.png",320,240 V,0,19580,,854,480 F,0,19580,20180,0.15,0
Sprite,Background,Centre,"sb\sprites\pixel-white.png",320,240 V,0,20792,,854,480 F,0,20792,21392,0.15,0
Sprite,Background,Centre,"sb\sprites\pixel-white.png",320,240 V,0,22156,,854,480 F,0,22156,22756,0.15,0
Sprite,Background,Centre,"sb\sprites\pixel-white.png",320,240 V,0,24580,,854,480 F,0,24580,25180,0.15,0
Sprite,Background,Centre,"sb\sprites\pixel-white.png",320,240 V,0,27004,,854,480 F,0,27004,27604,0.15,0
Sprite,Background,Centre,"sb\sprites\pixel-white.png",320,240 V,0,29428,,854,480 F,0,29428,30028,0.15,0
Sprite,Background,Centre,"sb\sprites\pixel-white.png",320,240 V,0,30489,,854,480 F,0,30489,31089,0.15,0
Sprite,Background,Centre,"sb\sprites\pixel-white.png",320,240 V,0,31853,,854,480 F,0,31853,32453,0.15,0
Sprite,Background,Centre,"sb\sprites\pixel-white.png",320,240 V,0,40186,,854,480 F,0,40186,40786,0.15,0
Sprite,Background,Centre,"sb\sprites\pixel-white.png",320,240 V,0,41550,,854,480 F,0,41550,42150,0.15,0
Sprite,Background,Centre,"sb\sprites\pixel-white.png",320,240 V,0,48822,,854,480 F,0,48822,49422,0.15,0
Sprite,Background,Centre,"sb\sprites\pixel-white.png",320,240 V,0,51247,,854,480 F,0,51247,51847,0.15,0
Sprite,Background,Centre,"sb\sprites\pixel-white.png",320,240 V,0,53519,,854,480 F,0,53519,54119,0.15,0
Sprite,Background,Centre,"sb\sprites\pixel-white.png",320,240 V,0,54731,,854,480 F,0,54731,55331,0.15,0
Sprite,Background,Centre,"sb\sprites\pixel-white.png",320,240 V,0,55944,,854,480 F,0,55944,56544,0.15,0
Sprite,Background,Centre,"sb\sprites\pixel-white.png",320,240 V,0,57156,,854,480 F,0,57156,57756,0.15,0
Sprite,Background,Centre,"sb\sprites\pixel-white.png",320,240 V,0,58368,,854,480 F,0,58368,58968,0.15,0
Sprite,Background,Centre,"sb\sprites\pixel-white.png",320,240 V,0,59731,,854,480 F,0,59731,60331,0.15,0
Sprite,Background,Centre,"sb\sprites\pixel-white.png",320,240 V,0,60944,,854,480 F,0,60944,61544,0.15,0
Sprite,Background,Centre,"sb\sprites\pixel-white.png",320,240 V,0,61398,,854,480 F,0,61398,61998,0.15,0
Sprite,Background,Centre,"sb\sprites\pixel-white.png",320,240 V,0,61701,,854,480 F,0,61701,62301,0.15,0
Sprite,Background,Centre,"sb\sprites\pixel-white.png",320,240 V,0,62004,,854,480 F,0,62004,62604,0.15,0
Sprite,Background,Centre,"sb\sprites\pixel-white.png",320,240 V,0,63216,,854,480 F,0,63216,63816,0.15,0
Sprite,Background,Centre,"sb\sprites\pixel-white.png",320,240 V,0,64428,,854,480 F,0,64428,65028,0.15,0
Sprite,Background,Centre,"sb\sprites\pixel-white.png",320,240 V,0,65641,,854,480 F,0,65641,66241,0.15,0
Sprite,Background,Centre,"sb\sprites\pixel-white.png",320,240 V,0,66853,,854,480 F,0,66853,67453,0.15,0
Sprite,Background,Centre,"sb\sprites\pixel-white.png",320,240 V,0,68065,,854,480 F,0,68065,68665,0.15,0
Sprite,Background,Centre,"sb\sprites\pixel-white.png",320,240 V,0,70489,,854,480 F,0,70489,71089,0.15,0
Sprite,Background,Centre,"sb\sprites\pixel-white.png",320,240 V,0,71853,,854,480 F,0,71853,72453,0.15,0
Sprite,Background,Centre,"sb\sprites\pixel-white.png",320,240 V,0,72913,,854,480 F,0,72913,73513,0.15,0
Sprite,Background,Centre,"sb\sprites\pixel-white.png",320,240 V,0,75338,,854,480 F,0,75338,75938,0.15,0
Sprite,Background,Centre,"sb\sprites\pixel-white.png",320,240 V,0,76701,,854,480 F,0,76701,77301,0.15,0
Sprite,Background,Centre,"sb\sprites\pixel-white.png",320,240 V,0,78974,,854,480 F,0,78974,79574,0.15,0
Sprite,Background,Centre,"sb\sprites\pixel-white.png",320,240 V,0,80186,,854,480 F,0,80186,80786,0.15,0
Sprite,Background,Centre,"sb\sprites\pixel-white.png",320,240 V,0,81398,,854,480 F,0,81398,81998,0.15,0
Sprite,Background,Centre,"sb\sprites\pixel-white.png",320,240 V,0,82610,,854,480 F,0,82610,83210,0.15,0
Sprite,Background,Centre,"sb\sprites\pixel-white.png",320,240 V,0,83974,,854,480 F,0,83974,84574,0.15,0
Sprite,Background,Centre,"sb\sprites\pixel-white.png",320,240 V,0,84428,,854,480 F,0,84428,85028,0.15,0
Sprite,Background,Centre,"sb\sprites\pixel-white.png",320,240 V,0,85034,,854,480 F,0,85034,85634,0.15,0
//Storyboard Layer 1 (Fail)
//Storyboard Layer 2 (Pass)
//Storyboard Layer 3 (Foreground)
Sprite,Foreground,Centre,"sb\lyrics\0053.png",0,0 F,0,12207,12407,0,0.8 M,0,12307,,664.6,397.2 S,0,12307,,0.4 C,0,12307,,255,255,255 F,0,86904,87104,0.8,0
Sprite,Foreground,Centre,"sb\lyrics\006e.png",0,0 F,0,12207,12407,0,0.8 M,0,12307,,673.8,398.8 S,0,12307,,0.4 C,0,12307,,255,255,255 F,0,86904,87104,0.8,0
Sprite,Foreground,Centre,"sb\lyrics\006f.png",0,0 F,0,12207,12407,0,0.8 M,0,12307,,682.2,398.8 S,0,12307,,0.4 C,0,12307,,255,255,255 F,0,86904,87104,0.8,0
Sprite,Foreground,Centre,"sb\lyrics\0077.png",0,0 F,0,12207,12407,0,0.8 M,0,12307,,691,399 S,0,12307,,0.4 C,0,12307,,255,255,255 F,0,86904,87104,0.8,0
Sprite,Foreground,Centre,"sb\lyrics\004e.png",0,0 F,0,12207,12407,0,0.8 M,0,12307,,708.8,397.4 S,0,12307,,0.4 C,0,12307,,255,255,255 F,0,86904,87104,0.8,0
Sprite,Foreground,Centre,"sb\lyrics\006f.png",0,0 F,0,12207,12407,0,0.8 M,0,12307,,717.4,398.8 S,0,12307,,0.4 C,0,12307,,255,255,255 F,0,86904,87104,0.8,0
Sprite,Foreground,Centre,"sb\lyrics\0074.png",0,0 F,0,12207,12407,0,0.8 M,0,12307,,726.2,397.6 S,0,12307,,0.4 C,0,12307,,255,255,255 F,0,86904,87104,0.8,0
Sprite,Foreground,Centre,"sb\lyrics\0065.png",0,0 F,0,12207,12407,0,0.8 M,0,12307,,734.9999,399.4 S,0,12307,,0.4 C,0,12307,,255,255,255 F,0,86904,87104,0.8,0
Sprite,Foreground,Centre,"sb\lyrics\0053.png",0,0 F,0,12207,12407,0,0.8 M,0,12307,,593.4,434.2 S,0,12307,,0.4 C,0,12307,,255,255,255 F,0,86904,87104,0.8,0
Sprite,Foreground,Centre,"sb\lyrics\006e.png",0,0 F,0,12207,12407,0,0.8 M,0,12307,,602.6,435.8 S,0,12307,,0.4 C,0,12307,,255,255,255 F,0,86904,87104,0.8,0
Sprite,Foreground,Centre,"sb\lyrics\006f.png",0,0 F,0,12207,12407,0,0.8 M,0,12307,,611,435.8 S,0,12307,,0.4 C,0,12307,,255,255,255 F,0,86904,87104,0.8,0
Sprite,Foreground,Centre,"sb\lyrics\0077.png",0,0 F,0,12207,12407,0,0.8 M,0,12307,,619.8,436 S,0,12307,,0.4 C,0,12307,,255,255,255 F,0,86904,87104,0.8,0
Sprite,Foreground,Centre,"sb\lyrics\004e.png",0,0 F,0,12207,12407,0,0.8 M,0,12307,,637.6,434.4 S,0,12307,,0.4 C,0,12307,,255,255,255 F,0,86904,87104,0.8,0
Sprite,Foreground,Centre,"sb\lyrics\006f.png",0,0 F,0,12207,12407,0,0.8 M,0,12307,,646.2,435.8 S,0,12307,,0.4 C,0,12307,,255,255,255 F,0,86904,87104,0.8,0
Sprite,Foreground,Centre,"sb\lyrics\0074.png",0,0 F,0,12207,12407,0,0.8 M,0,12307,,654.9999,434.6 S,0,12307,,0.4 C,0,12307,,255,255,255 F,0,86904,87104,0.8,0
Sprite,Foreground,Centre,"sb\lyrics\0065.png",0,0 F,0,12207,12407,0,0.8 M,0,12307,,663.7999,436.4 S,0,12307,,0.4 C,0,12307,,255,255,255 F,0,86904,87104,0.8,0
Sprite,Foreground,Centre,"sb\lyrics\0027.png",0,0 F,0,12207,12407,0,0.8 M,0,12307,,670.9999,430 S,0,12307,,0.4 C,0,12307,,255,255,255 F,0,86904,87104,0.8,0
Sprite,Foreground,Centre,"sb\lyrics\0073.png",0,0 F,0,12207,12407,0,0.8 M,0,12307,,681.5999,436.2 S,0,12307,,0.4 C,0,12307,,255,255,255 F,0,86904,87104,0.8,0
Sprite,Foreground,Centre,"sb\lyrics\0055.png",0,0 F,0,12207,12407,0,0.8 M,0,12307,,698.9999,434 S,0,12307,,0.4 C,0,12307,,255,255,255 F,0,86904,87104,0.8,0
Sprite,Foreground,Centre,"sb\lyrics\006c.png",0,0 F,0,12207,12407,0,0.8 M,0,12307,,707.9999,434.2 S,0,12307,,0.4 C,0,12307,,255,255,255 F,0,86904,87104,0.8,0
Sprite,Foreground,Centre,"sb\lyrics\0074.png",0,0 F,0,12207,12407,0,0.8 M,0,12307,,716.5999,434.6 S,0,12307,,0.4 C,0,12307,,255,255,255 F,0,86904,87104,0.8,0
Sprite,Foreground,Centre,"sb\lyrics\0072.png",0,0 F,0,12207,12407,0,0.8 M,0,12307,,725.5999,435.8 S,0,12307,,0.4 C,0,12307,,255,255,255 F,0,86904,87104,0.8,0
Sprite,Foreground,Centre,"sb\lyrics\0061.png",0,0 F,0,12207,12407,0,0.8 M,0,12307,,734.5998,436 S,0,12307,,0.4 C,0,12307,,255,255,255 F,0,86904,87104,0.8,0
//Storyboard Layer 4 (Overlay)
//Storyboard Sound Samples

[TimingPoints]
323,303.030303030303,4,2,3,35,1,0
323,-100,4,2,3,35,0,0
1838,-100,4,1,3,50,0,0
7444,-133.333333333333,4,1,3,50,0,0
7747,-100,4,1,3,50,0,0
12292,-100,4,1,3,60,0,0
22216,-133.333333333333,4,1,3,40,0,0
30474,-100,4,1,3,50,0,0
32065,-100,4,1,3,25,0,0
32141,-100,4,1,3,50,0,0
34489,-100,4,1,3,35,0,0
34565,-100,4,1,3,50,0,0
36913,-100,4,1,3,25,0,0
36989,-100,4,1,3,50,0,0
37974,-100,4,1,3,25,0,0
38050,-100,4,1,3,50,0,0
41535,-200,4,1,3,50,0,0
48807,-100,4,1,3,50,0,0
49035,-100,4,1,3,25,0,0
49110,-100,4,1,3,50,0,0
51459,-100,4,1,3,25,0,0
51535,-100,4,1,3,50,0,0
52595,-100,4,1,3,5,0,0
53504,-80,4,1,3,70,0,1
53732,-80,4,1,3,35,0,1
53807,-80,4,1,3,70,0,1
54944,-80,4,1,3,35,0,1
55019,-80,4,1,3,70,0,1
56156,-80,4,1,3,35,0,1
56232,-80,4,1,3,70,0,1
57368,-80,4,1,3,35,0,1
57444,-80,4,1,3,70,0,1
58580,-80,4,1,3,35,0,1
58656,-80,4,1,3,70,0,1
63429,-80,4,1,3,35,0,1
63504,-80,4,1,3,70,0,1
64641,-80,4,1,3,35,0,1
64716,-80,4,1,3,70,0,1
65853,-80,4,1,3,35,0,1
65929,-80,4,1,3,70,0,1
67065,-80,4,1,3,35,0,1
67141,-80,4,1,3,70,0,1
68277,-80,4,1,3,35,0,1
68353,-80,4,1,3,70,0,1
70701,-80,4,1,3,35,0,1
70777,-80,4,1,3,70,0,1
72898,-133.333333333333,4,1,3,70,0,1
73201,-80,4,1,3,70,0,1
75322,-133.333333333333,4,1,3,70,0,1
75626,-80,4,1,3,70,0,1
76762,-100,4,1,3,30,0,0
78959,-100,4,1,3,60,0,0
85095,-100,4,1,3,5,0,0
86459,-100,4,1,3,20,0,0

[Colours]
Combo1 : 192,192,192
Combo2 : 255,50,50
Combo3 : 255,125,125
Combo4 : 25,100,255
Combo5 : 50,150,255
Combo6 : 255,255,50
Combo7 : 255,255,150
Combo8 : 128,128,128

[HitObjects]
400,56,323,101,2,0:0:0:0:
380,128,474,1,2,0:0:0:0:
452,104,626,1,2,0:0:0:0:
432,176,777,1,2,0:0:0:0:
256,40,1232,5,2,0:0:0:0:
276,112,1383,1,2,0:0:0:0:
204,88,1535,1,2,0:0:0:0:
224,160,1686,1,2,0:0:0:0:
152,140,1838,69,8,0:0:0:0:
120,136,1913,1,8,0:0:0:0:
88,132,1989,1,0,0:0:0:0:
56,128,2065,1,0,0:0:0:0:
24,124,2141,1,8,0:0:0:0:
256,40,2292,1,8,0:0:0:0:
392,284,2595,53,4,0:0:0:0:
164,328,3807,1,4,0:0:0:0:
120,100,5019,1,4,0:0:0:0:
348,56,5777,1,4,0:0:0:0:
256,316,6232,1,4,0:0:0:0:
256,316,6535,5,0,0:0:0:0:
148,252,6686,1,8,0:0:0:0:
112,260,6762,1,8,0:0:0:0:
76,272,6838,1,8,0:0:0:0:
40,280,6913,1,8,0:0:0:0:
24,312,6989,101,8,0:0:0:0:
176,352,7141,1,0,0:0:0:0:
116,104,7292,1,8,0:0:0:0:
96,348,7444,22,0,B|160:360|160:360|256:320,1,157.500006008148,4|0,0:0|0:0,0:0:0:0:
216,76,7898,22,0,B|200:112|200:112|212:188,1,105,8|0,0:0|2:0,0:0:0:0:
480,368,8201,2,0,B|496:332|496:332|484:256,1,105,8|0,0:0|2:0,0:0:0:0:
176,352,8504,86,0,L|284:336,1,105,8|0,0:0|2:0,0:0:0:0:
392,112,8807,2,0,L|288:127,1,105,8|0,0:0|2:0,0:0:0:0:
64,276,9110,2,0,L|172:260,1,105,8|0,0:0|2:0,0:0:0:0:
124,40,9413,21,8,0:0:0:0:
80,56,9489,1,8,0:0:0:0:
56,97,9565,1,8,0:0:0:0:
61,144,9641,1,8,0:0:0:0:
94,177,9716,1,0,0:0:0:0:
256,48,9868,1,4,0:0:0:0:
256,48,10171,85,0,0:0:0:0:
384,192,10322,2,0,L|396:316,1,105,8|0,0:0|2:0,0:0:0:0:
208,380,10626,2,0,L|197:275,1,105,8|0,0:0|2:0,0:0:0:0:
296,156,10929,1,8,0:0:0:0:
280,320,11080,1,0,2:0:0:0:
124,356,11232,22,0,L|20:344,1,105,8|0,0:0|2:0,0:0:0:0:
216,88,11535,2,0,L|204:192,1,105,8|0,0:0|2:0,0:0:0:0:
36,236,11838,1,8,0:0:0:0:
45,186,11913,1,8,0:0:0:0:
52,140,11989,1,8,0:0:0:0:
59,93,12065,1,8,0:0:0:0:
68,44,12141,1,8,0:0:0:0:
312,32,12292,86,0,P|380:20|440:132,1,210,6|0,0:0|0:0,0:0:0:0:
201,191,12747,2,0,L|216:88,1,105,10|0,0:0|0:0,0:0:0:0:
360,104,13050,1,2,0:0:0:0:
256,272,13201,1,0,0:0:0:0:
128,156,13353,1,8,0:0:0:0:
332,192,13504,6,0,L|344:300,1,105,6|0,0:0|0:0,0:0:0:0:
176,364,13807,1,0,0:0:0:0:
116,260,13959,2,2,L|128:156,1,105,10|0,0:0|0:0,0:0:0:0:
44,48,14262,1,2,0:0:0:0:
36,120,14338,1,0,0:0:0:0:
28,192,14413,1,2,0:0:0:0:
200,244,14565,1,8,0:0:0:0:
220,68,14716,102,0,P|152:52|64:156,1,210,6|0,0:0|0:0,0:0:0:0:
256,312,15171,2,0,L|392:296,1,105,10|0,0:0|0:0,0:0:0:0:
168,152,15474,1,2,0:0:0:0:
136,296,15626,1,0,0:0:0:0:
168,152,15777,1,8,0:0:0:0:
392,212,15929,6,0,L|287:224,1,105,6|0,0:0|0:0,0:0:0:0:
384,64,16232,1,0,0:0:0:0:
484,168,16383,2,0,B|504:208|504:208|492:272,1,105,10|0,0:0|0:0,0:0:0:0:
244,160,16686,1,2,0:0:0:0:
256,88,16762,1,0,0:0:0:0:
268,16,16838,1,2,0:0:0:0:
392,212,16989,1,8,0:0:0:0:
144,368,17141,102,0,P|104:352|100:200,1,210,6|0,0:0|0:0,0:0:0:0:
320,192,17595,1,10,0:0:0:0:
204,292,17747,1,0,0:0:0:0:
328,348,17898,1,2,0:0:0:0:
396,332,17974,1,0,0:0:0:0:
464,316,18050,1,2,0:0:0:0:
416,112,18201,1,8,0:0:0:0:
320,192,18353,6,0,P|384:240|504:192,1,210,6|0,0:0|0:0,0:0:0:0:
336,32,18807,1,10,0:0:0:0:
231,43,18959,1,0,0:0:0:0:
151,259,19110,1,2,0:0:0:0:
256,248,19262,1,0,0:0:0:0:
80,324,19413,1,10,0:0:0:0:
20,144,19565,102,0,P|20:84|152:52,1,210,6|0,0:0|0:0,0:0:0:0:
188,344,20019,2,0,L|72:332,1,105,10|0,0:0|0:0,0:0:0:0:
256,168,20322,1,2,0:0:0:0:
332,184,20398,1,0,0:0:0:0:
408,200,20474,1,0,0:0:0:0:
324,344,20626,1,8,0:0:0:0:
368,45,20777,6,0,P|466:49|492:144,1,210,6|0,0:0|0:0,0:0:0:0:
336,236,21232,1,10,0:0:0:0:
416,116,21383,1,0,0:0:0:0:
464,272,21535,5,2,0:0:0:0:
452,324,21610,1,0,0:0:0:0:
412,356,21686,1,0,0:0:0:0:
360,352,21762,1,0,0:0:0:0:
320,320,21838,1,0,0:0:0:0:
272,304,21913,1,0,0:0:0:0:
220,308,21989,1,0,0:0:0:0:
172,328,22065,1,0,0:0:0:0:
136,368,22141,37,4,0:0:0:0:
136,368,22444,1,0,0:0:0:0:
136,368,22747,2,0,L|48:348,1,78.7500030040742,0|0,0:0|2:0,0:0:0:0:
28,256,23050,2,0,L|104:273,1,78.7500030040742,0|0,0:0|2:0,0:0:0:0:
228,156,23353,85,0,0:0:0:0:
228,156,23656,2,0,L|236:72,1,78.7500030040742,0|0,0:0|2:0,0:0:0:0:
144,104,23959,2,0,L|151:25,1,78.7500030040742,0|0,0:0|2:0,0:0:0:0:
60,48,24262,1,0,0:0:0:0:
216,324,24565,21,4,0:0:0:0:
216,324,24868,2,0,L|296:344,1,78.7500030040742,0|0,0:0|2:0,0:0:0:0:
368,284,25171,1,0,0:0:0:0:
280,316,25322,2,0,L|203:296,1,78.7500030040742,0|0,2:0|0:0,0:0:0:0:
368,284,25626,1,0,2:0:0:0:
344,132,25777,85,0,0:0:0:0:
344,132,26080,2,0,L|432:116,1,78.7500030040742,0|0,0:0|2:0,0:0:0:0:
408,212,26383,2,0,L|496:196,1,78.7500030040742,0|0,0:0|2:0,0:0:0:0:
476,32,26686,1,0,0:0:0:0:
248,116,26989,21,4,0:0:0:0:
248,116,27292,1,0,0:0:0:0:
248,116,27595,2,0,L|260:200,1,78.7500030040742,0|0,0:0|2:0,0:0:0:0:
344,132,27898,2,0,L|332:54,1,78.7500030040742,0|0,0:0|2:0,0:0:0:0:
136,36,28201,85,0,0:0:0:0:
136,36,28504,2,0,L|124:124,1,78.7500030040742,0|0,0:0|2:0,0:0:0:0:
172,196,28807,2,0,L|160:284,1,78.7500030040742,0|0,0:0|2:0,0:0:0:0:
44,80,29110,1,0,0:0:0:0:
80,348,29413,21,4,0:0:0:0:
80,348,29716,2,0,L|168:368,1,78.7500030040742,0|0,0:0|2:0,0:0:0:0:
256,336,30019,1,0,0:0:0:0:
172,196,30171,1,0,2:0:0:0:
172,196,30322,1,0,0:0:0:0:
296,48,30474,86,0,P|372:36|468:144,1,210,4|0,0:0|0:0,0:0:0:0:
368,236,30929,2,0,P|352:200|360:128,1,105,8|0,0:0|2:0,0:0:0:0:
496,260,31232,1,0,0:0:0:0:
496,260,31383,1,0,2:0:0:0:
404,344,31535,1,8,0:0:0:0:
332,352,31610,1,8,0:0:0:0:
260,360,31686,1,8,0:0:0:0:
188,368,31762,1,8,0:0:0:0:
116,376,31838,102,0,L|132:196,1,157.5,4|0,0:0|2:0,0:0:0:0:
104,144,32141,1,8,0:0:0:0:
26,260,32292,2,0,P|74:279|126:273,1,105,2|0,2:0|0:0,0:0:0:0:
288,144,32595,2,0,P|239:124|187:131,1,105,2|8,2:0|0:0,0:0:0:0:
396,232,32898,1,2,2:0:0:0:
295,39,33050,6,0,L|288:144,1,105,0|0,0:0|2:0,0:0:0:0:
496,156,33353,1,8,0:0:0:0:
448,24,33504,1,0,2:0:0:0:
396,232,33656,2,0,B|424:256|424:256|504:248,1,105,0|0,0:0|2:0,0:0:0:0:
295,39,33959,2,0,B|267:15|267:15|187:23,1,105,8|0,0:0|2:0,0:0:0:0:
44,236,34262,102,0,P|32:304|108:368,1,157.5,0|0,0:0|2:0,0:0:0:0:
168,356,34565,1,8,0:0:0:0:
164,140,34716,2,0,P|159:116|92:55,1,105,2|0,2:0|0:0,0:0:0:0:
116,284,35019,2,0,L|232:272,1,105,2|8,2:0|0:0,0:0:0:0:
424,192,35322,1,2,2:0:0:0:
356,352,35474,6,0,L|251:362,1,105,0|0,0:0|2:0,0:0:0:0:
328,172,35777,1,8,0:0:0:0:
452,372,35929,1,0,2:0:0:0:
328,172,36080,2,0,P|320:128|348:60,1,105,0|0,0:0|2:0,0:0:0:0:
488,200,36383,2,0,P|495:251|477:300,1,105,8|0,0:0|2:0,0:0:0:0:
208,152,36686,102,0,P|178:104|218:16,1,157.5,0|0,0:0|2:0,0:0:0:0:
288,8,36989,1,8,0:0:0:0:
256,248,37141,2,0,L|144:240,1,105,2|0,2:0|0:0,0:0:0:0:
72,324,37444,2,0,L|176:331,1,105,2|8,2:0|0:0,0:0:0:0:
304,152,37747,6,0,P|334:104|294:16,1,157.5,2|0,2:0|2:0,0:0:0:0:
224,8,38050,1,0,2:0:0:0:
256,248,38201,2,0,L|368:240,1,105,8|0,0:0|2:0,0:0:0:0:
124,192,38504,1,0,0:0:0:0:
192,312,38656,1,0,2:0:0:0:
252,84,38807,2,0,L|147:91,1,105,8|0,0:0|2:0,0:0:0:0:
288,376,39110,102,0,L|400:368,1,105,0|0,0:0|2:0,0:0:0:0:
468,140,39413,2,0,L|363:147,1,105,8|2,0:0|2:0,0:0:0:0:
240,280,39716,1,0,0:0:0:0:
304,104,39868,1,2,2:0:0:0:
348,288,40019,1,8,0:0:0:0:
196,96,40171,6,0,P|216:44|360:20,1,210,4|0,0:0|2:0,0:0:0:0:
256,192,40626,2,0,L|144:184,1,105,8|0,0:0|2:0,0:0:0:0:
28,124,40929,53,0,0:0:0:0:
188,276,41080,1,0,2:0:0:0:
128,24,41232,1,8,0:0:0:0:
128,24,41383,1,8,0:0:0:0:
64,368,41535,102,0,L|176:360,1,105,4|0,0:0|0:0,0:0:0:0:
344,336,41989,1,0,0:0:0:0:
292,268,42141,2,0,L|187:275,1,105,8|0,0:0|0:0,0:0:0:0:
128,128,42595,2,0,P|112:72|128:24,1,105,8|0,0:0|0:0,0:0:0:0:
196,76,43050,37,0,0:0:0:0:
196,76,43201,1,0,0:0:0:0:
48,152,43353,1,8,0:0:0:0:
108,204,43504,2,0,L|104:260,1,52.5
40,312,43807,1,0,0:0:0:0:
168,368,43959,102,0,L|296:348,2,105,0|8|0,0:0|0:0|0:0,0:0:0:0:
132,292,44716,1,0,0:0:0:0:
424,192,45019,2,0,P|448:240|436:300,1,105,8|0,0:0|0:0,0:0:0:0:
384,352,45474,37,0,0:0:0:0:
320,96,45777,1,0,0:0:0:0:
320,96,45929,1,0,0:0:0:0:
284,20,46080,1,8,0:0:0:0:
256,144,46232,102,0,P|224:164|152:160,1,105
40,344,46838,1,0,0:0:0:0:
40,344,46989,2,0,P|72:364|144:360,1,105,8|0,0:0|0:0,0:0:0:0:
196,96,47595,2,0,L|136:88,1,52.5,0|8,0:0|0:0,0:0:0:0:
72,140,47898,1,0,0:0:0:0:
72,140,48050,1,0,0:0:0:0:
256,192,48201,2,0,L|316:184,1,52.5,8|0,0:0|0:0,0:0:0:0:
384,136,48504,1,8,0:0:0:0:
404,140,48580,1,8,0:0:0:0:
424,144,48656,1,8,0:0:0:0:
444,148,48732,1,8,0:0:0:0:
464,152,48807,38,0,P|488:208|464:308,1,157.5,4|0,0:0|2:0,0:0:0:0:
404,340,49110,1,0,0:0:0:0:
296,276,49262,1,0,2:0:0:0:
328,364,49413,1,0,0:0:0:0:
372,252,49565,1,0,2:0:0:0:
200,184,49716,101,0,0:0:0:0:
312,184,49868,1,0,2:0:0:0:
108,340,50019,5,0,0:0:0:0:
216,276,50171,1,0,2:0:0:0:
184,364,50322,1,0,0:0:0:0:
140,252,50474,1,0,2:0:0:0:
44,36,50626,101,0,0:0:0:0:
64,276,50777,1,0,0:0:0:0:
0,100,50929,1,0,0:0:0:0:
20,340,51080,1,0,0:0:0:0:
292,256,51232,102,0,P|328:208|288:128,1,157.5,4|0,0:0|2:0,0:0:0:0:
204,124,51535,1,0,0:0:0:0:
256,360,51686,2,0,L|376:344,1,105,0|0,2:0|0:0,0:0:0:0:
256,24,51989,1,0,0:0:0:0:
151,37,52141,1,0,0:0:0:0:
256,192,52292,1,8,0:0:0:0:
256,192,52595,12,0,53201,0:0:0:0:
308,52,53504,38,0,P|364:32|468:152,1,196.875,4|0,0:0|2:0,0:0:0:0:
472,184,53807,1,0,0:0:0:0:
256,352,53959,2,0,L|92:328,1,131.25,8|0,0:0|0:0,0:0:0:0:
368,152,54262,1,0,0:0:0:0:
356,364,54413,1,0,0:0:0:0:
256,192,54565,1,8,0:0:0:0:
452,60,54716,6,0,P|488:120|444:240,1,196.875,4|0,0:0|2:0,0:0:0:0:
384,271,55019,1,0,0:0:0:0:
160,188,55171,2,0,L|164:56,1,131.25,8|0,0:0|0:0,0:0:0:0:
368,152,55474,1,0,0:0:0:0:
196,284,55626,1,0,0:0:0:0:
256,56,55777,1,8,0:0:0:0:
316,328,55929,102,0,B|260:380|260:380|120:364,1,196.875,4|0,0:0|2:0,0:0:0:0:
80,316,56232,1,0,0:0:0:0:
148,92,56383,1,8,0:0:0:0:
196,284,56535,1,0,0:0:0:0:
48,148,56686,2,0,B|36:104|36:104|56:12,1,131.25
332,24,56989,1,8,0:0:0:0:
492,244,57141,6,0,P|445:354|374:366,1,196.875,4|0,0:0|2:0,0:0:0:0:
316,329,57444,1,0,0:0:0:0:
296,96,57595,1,8,0:0:0:0:
392,264,57747,1,0,0:0:0:0:
184,192,57898,2,0,P|160:144|180:60,1,131.25
380,32,58201,1,8,0:0:0:0:
504,280,58353,102,0,P|456:328|324:352,1,196.875,4|0,0:0|2:0,0:0:0:0:
264,312,58656,1,0,0:0:0:0:
392,264,58807,2,0,P|436:212|436:144,1,131.25,8|0,0:0|0:0,0:0:0:0:
125,273,59110,2,0,P|148:337|207:371,1,131.25
250,38,59413,2,0,P|183:26|124:60,1,131.25,8|0,0:0|0:0,0:0:0:0:
186,173,59716,5,4,0:0:0:0:
386,295,59868,1,0,0:0:0:0:
274,122,60019,1,8,0:0:0:0:
152,322,60171,1,0,0:0:0:0:
325,210,60322,1,0,0:0:0:0:
125,88,60474,1,0,0:0:0:0:
237,261,60626,1,8,0:0:0:0:
359,61,60777,1,0,0:0:0:0:
92,192,60929,101,12,0:0:0:0:
80,328,61080,1,0,0:0:0:0:
80,328,61232,1,0,0:0:0:0:
12,76,61383,5,12,0:0:0:0:
24,220,61535,1,0,0:0:0:0:
256,128,61686,1,12,0:0:0:0:
268,272,61838,1,0,0:0:0:0:
504,176,61989,1,12,0:0:0:0:
232,368,62292,101,0,0:0:0:0:
332,156,62444,2,0,P|328:84|280:48,1,131.25,8|0,0:0|0:0,0:0:0:0:
100,292,62747,1,8,0:0:0:0:
184,284,62822,1,8,0:0:0:0:
268,272,62898,1,8,0:0:0:0:
352,264,62974,1,8,0:0:0:0:
440,256,63050,1,8,0:0:0:0:
40,32,63201,6,0,P|16:104|108:188,1,196.875,4|0,0:0|2:0,0:0:0:0:
172,156,63504,1,0,0:0:0:0:
360,32,63656,2,0,L|504:48,1,131.25,8|0,0:0|0:0,0:0:0:0:
432,368,63959,2,0,L|301:353,1,131.25
256,104,64262,1,8,0:0:0:0:
456,100,64413,102,0,P|475:220|418:263,1,196.875,4|0,0:0|2:0,0:0:0:0:
351,263,64716,1,0,0:0:0:0:
184,56,64868,2,0,B|212:28|212:28|304:16,1,131.25,8|0,0:0|0:0,0:0:0:0:
232,328,65171,1,0,0:0:0:0:
136,136,65322,1,0,0:0:0:0:
304,192,65474,1,8,0:0:0:0:
64,248,65626,6,0,P|20:192|56:68,1,196.875,4|0,0:0|2:0,0:0:0:0:
120,48,65929,1,0,0:0:0:0:
152,352,66080,2,0,L|8:336,1,131.25,8|0,0:0|0:0,0:0:0:0:
228,192,66383,1,0,0:0:0:0:
360,352,66535,1,0,0:0:0:0:
508,192,66686,1,8,0:0:0:0:
341,3,66838,102,0,P|232:52|216:128,1,196.875,4|0,0:0|2:0,0:0:0:0:
228,192,67141,1,0,0:0:0:0:
440,336,67292,2,0,L|428:200,1,131.25,8|0,0:0|0:0,0:0:0:0:
72,48,67595,1,0,0:0:0:0:
120,252,67747,1,0,0:0:0:0:
72,48,67898,1,8,0:0:0:0:
440,48,68050,6,0,P|472:128|400:224,1,196.875,4|0,0:0|2:0,0:0:0:0:
343,201,68353,1,0,0:0:0:0:
128,116,68504,1,8,0:0:0:0:
356,292,68656,1,0,0:0:0:0:
384,116,68807,1,0,0:0:0:0:
384,116,68959,1,0,0:0:0:0:
486,307,69110,102,0,L|356:292,1,131.25,8|0,0:0|0:0,0:0:0:0:
56,200,69413,2,0,L|186:215,1,131.25
444,152,69716,2,0,L|313:136,1,131.25,8|0,0:0|0:0,0:0:0:0:
256,352,70019,1,0,0:0:0:0:
256,352,70171,1,0,0:0:0:0:
400,64,70322,1,8,0:0:0:0:
112,20,70474,6,0,B|56:80|56:80|68:216,1,196.875,4|0,0:0|2:0,0:0:0:0:
96,268,70777,1,0,0:0:0:0:
455,282,70929,2,0,L|444:152,1,131.25,8|0,0:0|0:0,0:0:0:0:
180,196,71232,1,0,0:0:0:0:
256,368,71383,1,0,0:0:0:0:
360,152,71535,2,0,L|348:21,1,131.25,8|0,0:0|0:0,0:0:0:0:
316,308,71838,101,4,0:0:0:0:
455,282,71989,1,0,0:0:0:0:
256,8,72141,1,8,0:0:0:0:
117,34,72292,1,0,0:0:0:0:
4,264,72444,1,8,0:0:0:0:
31,335,72519,1,8,0:0:0:0:
94,379,72595,1,8,0:0:0:0:
171,381,72671,1,8,0:0:0:0:
236,340,72747,1,8,0:0:0:0:
292,80,72898,22,0,P|336:48|440:60,1,157.500006008148,4|0,0:0|2:0,0:0:0:0:
464,256,73353,21,8,0:0:0:0:
452,348,73504,1,0,2:0:0:0:
284,276,73656,1,8,0:0:0:0:
272,368,73807,1,0,2:0:0:0:
172,220,73959,85,8,0:0:0:0:
80,208,74110,1,0,2:0:0:0:
228,108,74262,1,8,0:0:0:0:
240,16,74413,1,0,2:0:0:0:
340,164,74565,1,8,0:0:0:0:
432,176,74716,1,0,2:0:0:0:
272,368,74868,21,8,0:0:0:0:
200,360,74944,1,8,0:0:0:0:
128,352,75019,1,8,0:0:0:0:
56,344,75095,1,8,0:0:0:0:
4,292,75171,1,8,0:0:0:0:
185,194,75322,86,0,L|340:164,1,157.500006008148,4|0,0:0|2:0,0:0:0:0:
176,96,75777,21,8,0:0:0:0:
100,112,75929,1,0,2:0:0:0:
336,252,76080,1,8,0:0:0:0:
260,268,76232,1,0,2:0:0:0:
476,84,76383,1,8,0:0:0:0:
396,104,76535,1,0,0:0:0:0:
364,96,76610,1,0,0:0:0:0:
332,88,76686,1,4,0:0:0:0:
24,312,78504,5,0,2:2:0:0:
48,320,78580,1,0,2:2:0:0:
72,328,78656,1,2,2:2:0:0:
96,336,78732,1,2,2:2:0:0:
120,344,78807,1,2,2:2:0:0:
144,352,78883,1,2,2:2:0:0:
168,356,78959,70,0,P|264:328|268:232,1,210,6|0,0:0|0:0,0:0:0:0:
132,136,79413,2,0,L|117:239,1,105,10|0,0:0|0:0,0:0:0:0:
296,112,79716,1,2,0:0:0:0:
32,204,79868,1,0,0:0:0:0:
200,280,80019,1,8,0:0:0:0:
204,32,80171,6,2,L|96:44,1,105,6|0,0:0|0:0,0:0:0:0:
256,196,80474,1,0,0:0:0:0:
368,176,80626,2,0,L|472:164,1,105,10|0,0:0|0:0,0:0:0:0:
468,336,80929,1,2,0:0:0:0:
396,328,81004,1,0,0:0:0:0:
324,320,81080,1,0,0:0:0:0:
184,380,81232,1,8,0:0:0:0:
24,252,81383,102,0,P|4:153|88:88,1,210,6|0,0:0|0:0,1:0:0:0:
256,196,81838,2,0,L|240:332,1,105,10|0,0:0|0:0,0:0:0:0:
120,348,82141,1,2,0:0:0:0:
88,180,82292,1,0,0:0:0:0:
120,348,82444,1,8,0:0:0:0:
184,120,82595,6,0,L|172:15,1,105,6|0,0:0|0:0,0:0:0:0:
152,220,82898,1,0,0:0:0:0:
256,360,83050,2,0,B|296:380|296:380|360:368,1,105,10|0,0:0|0:0,0:0:0:0:
488,276,83353,1,2,0:0:0:0:
476,204,83429,1,0,0:0:0:0:
464,132,83504,1,2,0:0:0:0:
376,16,83656,1,10,0:0:0:0:
352,84,83732,1,0,0:0:0:0:
288,120,83807,1,0,0:0:0:0:
216,116,83883,1,0,0:0:0:0:
156,76,83959,69,12,0:0:0:0:
376,16,84110,1,0,0:0:0:0:
256,212,84262,1,0,0:0:0:0:
284,32,84413,5,12,0:0:0:0:
372,212,84565,1,0,0:0:0:0:
192,296,84716,1,0,0:0:0:0:
56,152,84868,101,0,0:0:0:0:
376,16,85019,1,12,0:0:0:0:
256,192,85095,12,0,86383,0:0:0:0:
184,236,86585,6,0,L|193:287,2,52.5,8|8|0,0:0|0:0|0:0,0:0:0:0:
