osu file format v14

[General]
AudioFilename: audio.mp3
AudioLeadIn: 500
PreviewTime: 52595
Countdown: 0
SampleSet: Soft
StackLeniency: 0.3
Mode: 0
LetterboxInBreaks: 0
EpilepsyWarning: 1
WidescreenStoryboard: 1

[Editor]
Bookmarks: 41535
DistanceSpacing: 0.5
BeatDivisor: 4
GridSize: 32
TimelineZoom: 1.6

[Metadata]
Title:Twintail Dreamer! (TV Size)
TitleUnicode:ツインテール・ドリーマー! (TV Size)
Artist:Twin-Tails
ArtistUnicode:ツインテイルズ
Creator:Moecho
Version:Skystar's Ponytail Extra
Source:俺、ツインテールになります。
Tags:Twintails OreTwi Ore, Tsuinteru Tsuintēru ni Narimasu. Gonna be the Twin-Tail!! テイルレッド Tail Red 上坂すみれ Uesaka Sumire テイルブルー Blue 相坂優歌 Aisaka Yuuka テイルイエロー Yellow 赤﨑千夏 Akasaki Chinatsu Ending Theme ED TV Size edit Anime papiyon japanese pop j-pop jpop Kodora Laurier Natteke Kite HabiHolic Loneight L18 Lecana Giralda captin1 jonathanlfj apaffy kisata Nyquill RLC LunarSakuya Mythol meiikyuu Syameimaru-Aya Ayaya caren_sk CRN kiddly Axarious Delis ShirohaMyMommy SMM Koiyuki Minakami Yuki yf_bmp yf Skystar Amamiya Yuko rui rustbell spro sprosive Snow Note 7odoa bakabaka Hollow Wings HW
BeatmapID:2329711
BeatmapSetID:1115213

[Difficulty]
HPDrainRate:7
CircleSize:4.2
OverallDifficulty:8.5
ApproachRate:9.3
SliderMultiplier:1.6
SliderTickRate:1

[Events]
//Background and Video events
0,0,"bg.jpg",0,0
//Break Periods
//Storyboard Layer 0 (Background)
Sprite,Background,Centre,"sb\sprites\pixel-white.png",320,240 F,0,-60,,0,1 C,0,-60,,0,0,0 V,0,-60,,880,480 F,0,89619,,1,0
Sprite,Background,Centre,"bg.jpg",320,240 F,0,-2559,-1559,0,0.75 S,0,-1559,,0.4444444 F,0,337,487,0.75,0
Sprite,Background,Centre,"bg.jpg",320,240 F,0,88125,89125,0,0.75 S,0,89125,,0.4444444 F,0,89784,89934,0.75,0
Sprite,Background,Centre,"sb\sprites\bg-alt.jpg",320,240 F,0,187,337,0,0.75 S,0,337,,0.4444444 F,0,21156,22306,0.75,0
Sprite,Background,Centre,"sb\sprites\bg-alt.jpg",320,240 F,0,53369,53519,0,0.75 S,0,53519,,0.4444444 F,0,88125,89275,0.75,0
Sprite,Background,Centre,"sb\sprites\bg-alt-bw.jpg",320,240 F,0,22006,22306,0,0.75 S,0,22156,,0.4444444 F,0,39686,40486,0.75,0
Sprite,Background,Centre,"sb\sprites\bg-alt-bw.jpg",320,240 F,0,50491,50791,0,0.75 S,0,50641,,0.4444444 F,0,51807,52607,0.75,0
Sprite,Background,Centre,"sb\sprites\tail-red-ci.jpg",320,240 F,0,40794,41094,0,0.75 S,0,40944,,0.4444444 F,0,48822,50322,0.75,0
Sprite,Background,Centre,"sb\sprites\tail-blue-ci.jpg",320,240 F,0,42915,43215,0,0.75 S,0,43065,,0.4444444 F,0,48822,50322,0.75,0
Sprite,Background,Centre,"sb\sprites\tail-yellow-ci.jpg",320,240 F,0,45339,45639,0,0.75 S,0,45489,,0.4444444 F,0,48822,50322,0.75,0
Sprite,Background,Centre,"sb\sprites\pixel-white.png",320,240 V,0,6247,,854,480 F,0,6247,6847,0.15,0
Sprite,Background,Centre,"sb\sprites\pixel-white.png",320,240 V,0,12307,,854,480 F,0,12307,12907,0.15,0
Sprite,Background,Centre,"sb\sprites\pixel-white.png",320,240 V,0,20792,,854,480 F,0,20792,21392,0.15,0
Sprite,Background,Centre,"sb\sprites\pixel-white.png",320,240 V,0,30489,,854,480 F,0,30489,31089,0.15,0
Sprite,Background,Centre,"sb\sprites\pixel-white.png",320,240 V,0,31853,,854,480 F,0,31853,32453,0.15,0
Sprite,Background,Centre,"sb\sprites\pixel-white.png",320,240 V,0,32913,,854,480 F,0,32913,33513,0.15,0
Sprite,Background,Centre,"sb\sprites\pixel-white.png",320,240 V,0,35338,,854,480 F,0,35338,35938,0.15,0
Sprite,Background,Centre,"sb\sprites\pixel-white.png",320,240 V,0,36701,,854,480 F,0,36701,37301,0.15,0
Sprite,Background,Centre,"sb\sprites\pixel-white.png",320,240 V,0,37762,,854,480 F,0,37762,38362,0.15,0
Sprite,Background,Centre,"sb\sprites\pixel-white.png",320,240 V,0,40186,,854,480 F,0,40186,40786,0.15,0
Sprite,Background,Centre,"sb\sprites\pixel-white.png",320,240 V,0,41550,,854,480 F,0,41550,42150,0.15,0
Sprite,Background,Centre,"sb\sprites\pixel-white.png",320,240 V,0,53519,,854,480 F,0,53519,54119,0.15,0
Sprite,Background,Centre,"sb\sprites\pixel-white.png",320,240 V,0,78974,,854,480 F,0,78974,79574,0.15,0
//Storyboard Layer 1 (Fail)
//Storyboard Layer 2 (Pass)
//Storyboard Layer 3 (Foreground)
Sprite,Foreground,Centre,"sb\lyrics\0053.png",0,0 F,0,12207,12407,0,0.8 M,0,12307,,677.075,398.1 S,0,12307,,0.45 C,0,12307,,255,255,255 F,0,86904,87104,0.8,0
Sprite,Foreground,Centre,"sb\lyrics\006b.png",0,0 F,0,12207,12407,0,0.8 M,0,12307,,687.2,398.1 S,0,12307,,0.45 C,0,12307,,255,255,255 F,0,86904,87104,0.8,0
Sprite,Foreground,Centre,"sb\lyrics\0079.png",0,0 F,0,12207,12407,0,0.8 M,0,12307,,696.875,400.8 S,0,12307,,0.45 C,0,12307,,255,255,255 F,0,86904,87104,0.8,0
Sprite,Foreground,Centre,"sb\lyrics\0073.png",0,0 F,0,12207,12407,0,0.8 M,0,12307,,707.0001,400.35 S,0,12307,,0.45 C,0,12307,,255,255,255 F,0,86904,87104,0.8,0
Sprite,Foreground,Centre,"sb\lyrics\0074.png",0,0 F,0,12207,12407,0,0.8 M,0,12307,,716.675,398.55 S,0,12307,,0.45 C,0,12307,,255,255,255 F,0,86904,87104,0.8,0
Sprite,Foreground,Centre,"sb\lyrics\0061.png",0,0 F,0,12207,12407,0,0.8 M,0,12307,,727.0251,400.125 S,0,12307,,0.45 C,0,12307,,255,255,255 F,0,86904,87104,0.8,0
Sprite,Foreground,Centre,"sb\lyrics\0072.png",0,0 F,0,12207,12407,0,0.8 M,0,12307,,736.7001,399.9 S,0,12307,,0.45 C,0,12307,,255,255,255 F,0,86904,87104,0.8,0
Sprite,Foreground,Centre,"sb\lyrics\0053.png",0,0 F,0,12207,12407,0,0.8 M,0,12307,,578.415,433.58 S,0,12307,,0.31 C,0,12307,,255,255,255 F,0,86904,87104,0.8,0
Sprite,Foreground,Centre,"sb\lyrics\006b.png",0,0 F,0,12207,12407,0,0.8 M,0,12307,,585.39,433.58 S,0,12307,,0.31 C,0,12307,,255,255,255 F,0,86904,87104,0.8,0
Sprite,Foreground,Centre,"sb\lyrics\0079.png",0,0 F,0,12207,12407,0,0.8 M,0,12307,,592.055,435.44 S,0,12307,,0.31 C,0,12307,,255,255,255 F,0,86904,87104,0.8,0
Sprite,Foreground,Centre,"sb\lyrics\0073.png",0,0 F,0,12207,12407,0,0.8 M,0,12307,,599.03,435.13 S,0,12307,,0.31 C,0,12307,,255,255,255 F,0,86904,87104,0.8,0
Sprite,Foreground,Centre,"sb\lyrics\0074.png",0,0 F,0,12207,12407,0,0.8 M,0,12307,,605.695,433.89 S,0,12307,,0.31 C,0,12307,,255,255,255 F,0,86904,87104,0.8,0
Sprite,Foreground,Centre,"sb\lyrics\0061.png",0,0 F,0,12207,12407,0,0.8 M,0,12307,,612.825,434.975 S,0,12307,,0.31 C,0,12307,,255,255,255 F,0,86904,87104,0.8,0
Sprite,Foreground,Centre,"sb\lyrics\0072.png",0,0 F,0,12207,12407,0,0.8 M,0,12307,,619.49,434.82 S,0,12307,,0.31 C,0,12307,,255,255,255 F,0,86904,87104,0.8,0
Sprite,Foreground,Centre,"sb\lyrics\0027.png",0,0 F,0,12207,12407,0,0.8 M,0,12307,,624.915,430.325 S,0,12307,,0.31 C,0,12307,,255,255,255 F,0,86904,87104,0.8,0
Sprite,Foreground,Centre,"sb\lyrics\0073.png",0,0 F,0,12207,12407,0,0.8 M,0,12307,,633.13,435.13 S,0,12307,,0.31 C,0,12307,,255,255,255 F,0,86904,87104,0.8,0
Sprite,Foreground,Centre,"sb\lyrics\0050.png",0,0 F,0,12207,12407,0,0.8 M,0,12307,,646.925,433.58 S,0,12307,,0.31 C,0,12307,,255,255,255 F,0,86904,87104,0.8,0
Sprite,Foreground,Centre,"sb\lyrics\006f.png",0,0 F,0,12207,12407,0,0.8 M,0,12307,,653.4351,434.82 S,0,12307,,0.31 C,0,12307,,255,255,255 F,0,86904,87104,0.8,0
Sprite,Foreground,Centre,"sb\lyrics\006e.png",0,0 F,0,12207,12407,0,0.8 M,0,12307,,660.5651,434.82 S,0,12307,,0.31 C,0,12307,,255,255,255 F,0,86904,87104,0.8,0
Sprite,Foreground,Centre,"sb\lyrics\0079.png",0,0 F,0,12207,12407,0,0.8 M,0,12307,,667.0751,435.44 S,0,12307,,0.31 C,0,12307,,255,255,255 F,0,86904,87104,0.8,0
Sprite,Foreground,Centre,"sb\lyrics\0074.png",0,0 F,0,12207,12407,0,0.8 M,0,12307,,673.8951,433.89 S,0,12307,,0.31 C,0,12307,,255,255,255 F,0,86904,87104,0.8,0
Sprite,Foreground,Centre,"sb\lyrics\0061.png",0,0 F,0,12207,12407,0,0.8 M,0,12307,,681.0251,434.975 S,0,12307,,0.31 C,0,12307,,255,255,255 F,0,86904,87104,0.8,0
Sprite,Foreground,Centre,"sb\lyrics\0069.png",0,0 F,0,12207,12407,0,0.8 M,0,12307,,687.5351,433.58 S,0,12307,,0.31 C,0,12307,,255,255,255 F,0,86904,87104,0.8,0
Sprite,Foreground,Centre,"sb\lyrics\006c.png",0,0 F,0,12207,12407,0,0.8 M,0,12307,,694.5101,433.58 S,0,12307,,0.31 C,0,12307,,255,255,255 F,0,86904,87104,0.8,0
Sprite,Foreground,Centre,"sb\lyrics\0045.png",0,0 F,0,12207,12407,0,0.8 M,0,12307,,708.3051,433.735 S,0,12307,,0.31 C,0,12307,,255,255,255 F,0,86904,87104,0.8,0
Sprite,Foreground,Centre,"sb\lyrics\0078.png",0,0 F,0,12207,12407,0,0.8 M,0,12307,,714.9701,434.975 S,0,12307,,0.31 C,0,12307,,255,255,255 F,0,86904,87104,0.8,0
Sprite,Foreground,Centre,"sb\lyrics\0074.png",0,0 F,0,12207,12407,0,0.8 M,0,12307,,721.6351,433.89 S,0,12307,,0.31 C,0,12307,,255,255,255 F,0,86904,87104,0.8,0
Sprite,Foreground,Centre,"sb\lyrics\0072.png",0,0 F,0,12207,12407,0,0.8 M,0,12307,,728.6101,434.82 S,0,12307,,0.31 C,0,12307,,255,255,255 F,0,86904,87104,0.8,0
Sprite,Foreground,Centre,"sb\lyrics\0061.png",0,0 F,0,12207,12407,0,0.8 M,0,12307,,735.5851,434.975 S,0,12307,,0.31 C,0,12307,,255,255,255 F,0,86904,87104,0.8,0
//Storyboard Layer 4 (Overlay)
//Storyboard Sound Samples

[TimingPoints]
323,303.030303030303,4,2,1,50,1,0
323,-100,4,2,1,50,0,0
2898,-100,4,2,0,50,0,0
5929,-80,4,2,1,50,0,0
6232,-80,4,2,1,50,0,0
12292,-80,4,1,1,50,0,0
22141,-125,4,2,1,50,0,0
30171,-100,4,2,1,50,0,0
41535,-125,4,2,1,50,0,0
48807,-111.111111111111,4,2,1,50,0,0
50019,-100,4,2,1,50,0,0
50626,-100,4,2,1,70,0,0
50701,-100,4,2,1,10,0,0
50777,-100,4,2,1,70,0,0
50853,-100,4,2,1,10,0,0
50929,-100,4,2,1,70,0,0
51004,-100,4,2,1,10,0,0
51080,-100,4,2,1,70,0,0
51156,-100,4,2,1,10,0,0
51232,-100,4,2,1,50,0,0
52141,-100,4,2,1,70,0,0
52747,-100,4,2,1,70,0,0
52974,-100,4,2,1,10,0,0
53050,-100,4,2,1,70,0,0
53201,-90.9090909090909,4,2,1,70,0,0
53429,-90.9090909090909,4,2,1,10,0,0
53504,-83.3333333333333,4,1,1,70,0,0
58959,-83.3333333333333,4,2,2,70,0,0
59110,-83.3333333333333,4,1,1,70,0,0
59262,-83.3333333333333,4,2,2,70,0,0
59413,-83.3333333333333,4,1,1,70,0,0
59565,-83.3333333333333,4,2,2,70,0,0
59716,-83.3333333333333,4,1,1,70,0,0
59868,-83.3333333333333,4,2,2,70,0,0
60019,-83.3333333333333,4,1,1,70,0,0
60171,-83.3333333333333,4,2,2,70,0,0
60322,-83.3333333333333,4,1,1,70,0,0
60474,-83.3333333333333,4,2,2,70,0,0
60626,-83.3333333333333,4,1,1,70,0,0
60777,-83.3333333333333,4,2,2,70,0,0
60929,-83.3333333333333,4,1,1,70,0,0
77292,-200,4,1,1,30,0,0
77747,-125,4,2,1,30,0,0
78504,-100,4,2,1,30,0,0
78959,-80,4,1,1,50,0,0
85019,-142.857142857143,4,1,1,50,0,0
85322,-142.857142857143,4,2,1,10,0,0
86610,-142.857142857143,4,1,1,35,0,0

[Colours]
Combo1 : 192,192,192
Combo2 : 255,50,50
Combo3 : 255,125,125
Combo4 : 25,100,255
Combo5 : 50,150,255
Combo6 : 255,255,50
Combo7 : 255,255,150
Combo8 : 128,128,128

[HitObjects]
445,296,323,102,0,P|455:279|456:260,1,40
426,327,474,2,0,P|416:344|416:364,1,40
451,321,626,2,0,P|468:331|488:332,1,40
420,302,777,2,0,P|403:292|384:292,1,40
128,92,1232,6,0,P|112:92|84:72,1,40
24,52,1383,2,0,P|40:52|68:72,1,40
96,20,1535,2,0,P|96:36|76:64,1,40
56,124,1686,2,0,P|56:108|76:80,1,40
172,24,1838,69,0,1:0:0:0:
180,32,1913,1,0,1:0:0:0:
188,40,1989,1,0,1:0:0:0:
120,168,2141,1,0,1:0:0:0:
316,48,2292,1,0,1:0:0:0:
288,336,2595,54,0,P|236:284|144:320,1,160,0|2,1:0|2:0,0:0:0:0:
215,360,3050,2,0,P|255:357|288:336,1,80
344,232,3353,1,2,0:0:0:0:
264,184,3504,2,0,P|248:140|264:100,1,80,2|0,0:0|0:0,0:0:0:0:
487,204,3807,6,0,P|478:280|408:312,1,160,0|0,1:0|0:0,0:0:0:0:
344,232,4262,1,2,0:0:0:0:
348,220,4338,1,2,0:0:0:0:
352,208,4413,1,0,0:0:0:0:
196,124,4565,1,0,0:0:0:0:
272,264,4716,2,0,P|232:260|188:208,1,80,2|0,0:0|0:0,0:0:0:0:
296,56,5019,102,0,P|360:20|456:64,1,160,0|0,1:0|0:0,0:0:0:0:
440,188,5474,2,0,L|456:292,1,80,2|0,0:0|0:0,0:0:0:0:
224,200,5777,5,0,1:0:0:0:
336,312,5929,2,0,P|372:336|348:284,1,150
272,264,6232,102,0,B|221:289|181:267|181:267|136:240|81:265,1,200,4|0,0:2|0:0,0:0:0:0:
264,352,6686,1,0,1:0:0:0:
224,200,6838,1,0,1:0:0:0:
124,340,6989,6,0,P|140:348|128:332,1,50,0|0,1:0|0:0,0:0:0:0:
68,292,7141,2,0,P|52:324|56:364,1,50,0|0,1:0|0:0,0:0:0:0:
214,345,7292,2,0,L|264:352,1,50,0|0,1:0|0:0,0:0:0:0:
408,340,7444,6,0,P|464:292|404:184,1,200,0|0,1:0|0:0,0:0:0:0:
248,232,7898,22,0,L|176:232,1,50,0|0,1:0|0:0,0:0:0:0:
112,228,8050,1,2,0:0:0:0:
291,211,8201,6,0,L|269:280,1,50,0|0,1:0|0:0,0:0:0:0:
245,340,8353,1,2,0:0:0:0:
285,164,8504,102,0,L|344:206,1,50,0|0,1:0|0:0,0:0:0:0:
393,247,8656,1,2,0:0:0:0:
238,154,8807,6,0,L|297:112,1,50,0|0,1:0|0:0,0:0:0:0:
351,78,8959,1,2,0:0:0:0:
215,196,9110,102,0,L|193:128,1,50,0|0,1:0|0:0,0:0:0:0:
177,66,9262,1,2,0:0:0:0:
248,232,9413,5,0,1:0:0:0:
291,211,9489,1,0,1:0:0:0:
285,164,9565,1,0,1:0:0:0:
238,154,9641,1,0,1:0:0:0:
215,196,9716,1,0,1:0:0:0:
245,340,9868,70,0,B|326:349|326:349|357:333|357:333|448:344,1,200,0|0,1:0|0:0,0:0:0:0:
393,247,10322,22,0,P|374:258|338:248,1,50,0|0,1:0|0:0,0:0:0:0:
248,232,10474,1,2,0:0:0:0:
245,340,10626,6,0,P|228:325|227:288,1,50,0|0,1:0|0:0,0:0:0:0:
215,196,10777,1,2,0:0:0:0:
112,228,10929,102,0,P|120:207|155:194,1,50,0|0,1:0|0:0,0:0:0:0:
238,154,11080,1,2,0:0:0:0:
177,66,11232,6,0,P|198:68|222:97,1,50,0|0,1:0|0:0,0:0:0:0:
285,164,11383,1,2,0:0:0:0:
351,78,11535,102,0,P|355:99|334:130,1,50,0|0,1:0|0:0,0:0:0:0:
291,211,11686,1,2,0:0:0:0:
392,248,11838,5,0,1:0:0:0:
245,340,11989,1,0,1:0:0:0:
245,340,12065,1,0,1:0:0:0:
245,340,12141,1,0,1:0:0:0:
112,228,12292,70,2,B|76:188|76:188|24:232|40:304|80:308,1,200,6|2,1:0|0:0,0:0:0:0:
188,272,12747,2,0,P|204:224|160:160,1,100,8|0,0:0|0:0,0:0:0:0:
76,144,13050,1,2,0:0:0:0:
108,316,13201,1,0,0:0:0:0:
92,148,13353,1,8,0:0:0:0:
248,204,13504,6,2,P|252:140|136:80,1,200,0|2,0:0|0:0,0:0:0:0:
112,228,13959,1,8,0:0:0:0:
208,372,14110,1,0,0:0:0:0:
324,240,14262,1,2,0:0:0:0:
332,264,14338,1,0,0:0:0:0:
340,288,14413,1,0,0:0:0:0:
428,184,14565,1,8,0:0:0:0:
371,364,14716,102,2,B|337:327|337:327|237:331|237:331|209:371,1,200
56,292,15171,2,2,B|100:312|100:312|176:292,1,100,8|0,0:0|0:0,0:0:0:0:
240,176,15474,1,2,0:0:0:0:
208,372,15626,1,0,0:0:0:0:
108,228,15777,1,8,0:0:0:0:
288,252,15929,6,2,B|352:244|364:176|364:176|408:208|384:256,1,200,0|2,0:0|0:0,0:0:0:0:
300,344,16383,1,10,0:0:0:0:
240,176,16535,1,0,0:0:0:0:
416,216,16686,1,2,0:0:0:0:
424,240,16762,1,8,0:0:0:0:
416,264,16838,1,0,0:0:0:0:
224,308,16989,1,8,0:0:0:0:
404,166,17141,102,2,B|363:139|363:139|367:231|367:231|415:263,1,200
464,112,17595,2,0,L|374:56,1,100,8|0,0:0|0:0,0:0:0:0:
240,176,17898,1,2,0:0:0:0:
236,200,17974,1,0,0:0:0:0:
248,220,18050,1,0,0:0:0:0:
404,166,18201,1,8,0:0:0:0:
302,75,18353,6,2,B|208:60|180:120|180:120|208:96|240:96,1,200,0|2,0:0|0:0,0:0:0:0:
376,100,18807,1,10,0:0:0:0:
233,96,18959,1,0,0:0:0:0:
404,166,19110,1,2,0:0:0:0:
379,171,19186,1,0,0:0:0:0:
355,167,19262,1,0,0:0:0:0:
248,24,19413,1,8,0:0:0:0:
200,168,19565,102,2,B|144:112|64:136|64:136|88:204,1,200,2|0,0:0|0:0,0:0:0:0:
260,288,20019,2,2,B|316:344|396:320|396:320|372:252,1,200,8|2,0:0|0:0,0:0:0:0:
376,100,20474,1,0,0:0:0:0:
476,264,20626,1,8,0:0:0:0:
292,216,20777,6,0,B|220:204|220:204|184:168|184:168|88:152,1,200,4|0,0:0|0:0,0:0:0:0:
64,276,21232,1,8,0:0:0:0:
64,276,21383,1,0,0:0:0:0:
56,192,21535,1,8,0:0:0:0:
90,196,21610,1,8,0:0:0:0:
119,215,21686,1,8,0:0:0:0:
139,244,21762,1,8,0:0:0:0:
145,278,21838,1,8,0:0:0:0:
136,312,21913,1,8,0:0:0:0:
115,339,21989,1,8,0:0:0:0:
84,355,22065,1,8,0:0:0:0:
50,358,22141,53,2,0:0:0:0:
64,276,22292,2,0,L|72:192,1,64,0|2,0:0|0:0,0:0:0:0:
228,192,22595,2,0,L|221:255,1,64,0|2,0:0|0:0,0:0:0:0:
256,384,22898,2,0,L|262:320,2,64,0|2|0,0:0|0:0|0:0,0:0:0:0:
368,252,23353,86,0,P|332:244|284:268,1,64,2|0,0:0|0:0,0:0:0:0:
384,272,23656,2,0,P|376:308|400:356,1,64,2|0,0:0|0:0,0:0:0:0:
404,256,23959,2,0,P|440:264|488:240,1,64,2|0,0:0|0:0,0:0:0:0:
388,236,24262,2,0,P|396:200|372:152,1,64,2|0,0:0|0:0,0:0:0:0:
461,25,24565,21,2,0:0:0:0:
448,108,24716,2,0,L|440:192,1,64,0|2,0:0|0:0,0:0:0:0:
284,192,25019,2,0,L|290:128,1,64,0|2,0:0|0:0,0:0:0:0:
256,0,25322,2,0,L|249:63,2,64,0|2|0,0:0|0:0|0:0,0:0:0:0:
205,133,25777,86,0,P|174:140|144:132,1,64,2|0,0:0|0:0,0:0:0:0:
129,50,26080,2,0,P|136:81|128:112,1,64,2|0,0:0|0:0,0:0:0:0:
46,126,26383,2,0,P|77:119|108:128,1,64,2|0,0:0|0:0,0:0:0:0:
122,209,26686,2,0,P|115:178|124:148,1,64,2|0,0:0|0:0,0:0:0:0:
212,272,26989,22,0,P|244:316|184:348,1,128,2|2,0:0|0:0,0:0:0:0:
136,300,27444,2,0,L|56:312,1,64,0|2,0:0|0:0,0:0:0:0:
272,328,27747,2,0,L|335:318,2,64,0|2|0,0:0|0:0|0:0,0:0:0:0:
396,368,28201,86,0,P|412:328|404:288,1,64,2|0,0:0|0:0,0:0:0:0:
416,204,28504,2,0,P|400:244|408:284,1,64,2|0,0:0|0:0,0:0:0:0:
488,296,28807,2,0,P|448:280|408:288,1,64,2|0,0:0|0:0,0:0:0:0:
324,276,29110,2,0,P|364:292|404:284,1,64,2|0,0:0|0:0,0:0:0:0:
300,112,29413,22,0,P|268:68|328:36,1,128,2|2,0:0|0:0,0:0:0:0:
376,84,29868,2,0,L|456:72,1,64,0|2,0:0|0:0,0:0:0:0:
240,56,30171,86,0,L|157:68,1,80,0|2,1:0|0:0,0:0:0:0:
298,256,30474,2,0,P|328:184|300:112,1,160,4|0,0:0|0:0,0:0:0:0:
96,120,30929,1,0,1:0:0:0:
112,240,31080,1,2,0:0:0:0:
248,184,31232,2,0,L|152:176,1,80,2|0,0:0|0:0,0:0:0:0:
72,136,31535,1,0,1:0:0:0:
74,155,31610,1,0,1:0:0:0:
76,174,31686,1,0,1:0:0:0:
78,193,31762,1,0,1:0:0:0:
80,212,31838,101,4,1:0:0:0:
168,376,31989,2,0,P|176:340|168:276,1,80,0|0,0:0|1:0,0:0:0:0:
142,100,32292,2,0,P|79:56|7:84,1,160,0|2,0:0|0:0,0:0:0:0:
60,296,32747,1,0,1:0:0:0:
212,192,32898,6,0,P|274:147|346:175,1,160,4|2,0:0|0:0,0:0:0:0:
400,304,33353,2,0,L|304:292,1,80,0|0,1:0|0:0,0:0:0:0:
212,192,33656,1,2,0:0:0:0:
180,356,33807,1,0,0:0:0:0:
304,272,33959,2,0,L|224:281,1,80,0|0,1:0|0:0,0:0:0:0:
80,172,34262,101,2,0:0:0:0:
173,86,34413,2,0,P|176:47|168:8,1,80,0|0,0:0|1:0,0:0:0:0:
8,300,34716,2,0,P|79:327|142:283,1,160,0|2,0:0|0:0,0:0:0:0:
60,88,35171,1,0,1:0:0:0:
346,208,35322,6,0,P|274:236|212:192,1,160,4|2,0:0|0:0,0:0:0:0:
320,89,35777,2,0,L|400:80,1,80,0|0,1:0|0:0,0:0:0:0:
212,192,36080,1,2,0:0:0:0:
248,36,36232,1,0,0:0:0:0:
416,104,36383,2,0,L|495:113,1,80,0|0,1:0|0:0,0:0:0:0:
436,296,36686,102,0,P|376:264|276:296,1,160,4|0,0:0|1:0,0:0:0:0:
152,348,37141,2,0,P|128:316|140:264,1,80
52,176,37444,2,0,P|91:171|130:207,1,80,2|0,0:0|1:0,0:0:0:0:
250,175,37747,6,0,P|234:211|183:227,2,80,4|0|0,0:2|0:0|0:0,0:0:0:0:
100,264,38201,2,0,L|0:268,1,80,0|0,1:0|0:0,0:0:0:0:
264,308,38504,2,0,L|343:304,1,80,2|2,0:0|0:0,0:0:0:0:
168,188,38807,2,0,P|152:128|164:60,1,120,0|0,1:0|0:0,0:0:0:0:
160,71,39110,101,0,0:0:0:0:
264,120,39262,1,0,0:0:0:0:
368,68,39413,1,0,1:0:0:0:
464,128,39565,2,0,P|480:188|468:256,1,120,2|0,0:0|0:0,0:0:0:0:
472,245,39868,2,0,L|368:257,1,80,2|0,0:0|1:0,0:0:0:0:
248,384,40171,6,0,P|232:336|248:208,1,160,4|0,0:0|0:0,0:0:0:0:
408,184,40626,21,0,1:0:0:0:
348,352,40777,1,0,1:0:0:0:
336,208,40929,5,0,1:0:0:0:
504,268,41080,1,0,1:0:0:0:
352,132,41232,5,0,1:0:0:0:
292,300,41383,1,0,1:0:0:0:
280,156,41535,102,0,P|340:128|420:136,1,128,4|2,0:0|0:0,0:0:0:0:
128,200,42141,2,0,P|92:188|44:196,1,64,0|0,1:0|0:0,0:0:0:0:
180,324,42444,1,2,0:0:0:0:
260,248,42595,6,0,P|292:248|336:272,1,64,2|2,0:0|0:0,0:0:0:0:
392,348,42898,1,0,1:0:0:0:
476,296,43050,1,2,0:0:0:0:
428,220,43201,21,2,0:0:0:0:
417,203,43277,1,2,0:0:0:0:
419,183,43353,1,0,1:0:0:0:
506,120,43504,1,2,0:0:0:0:
354,113,43656,1,0,1:0:0:0:
494,104,43807,1,2,0:0:0:0:
340,22,43959,102,0,P|286:13|197:19,1,128,2|0,0:0|0:0,0:0:0:0:
94,276,44565,1,0,0:0:0:0:
60,191,44716,2,0,P|94:185|141:198,1,64,0|2,1:0|0:0,0:0:0:0:
315,343,45019,2,0,P|254:356|169:336,1,128,0|2,1:0|0:0,0:0:0:0:
151,204,45474,37,0,1:0:0:0:
259,231,45626,1,2,0:0:0:0:
256,249,45701,1,0,1:0:0:0:
253,268,45777,1,2,0:0:0:0:
94,276,45929,1,2,0:0:0:0:
253,268,46080,2,0,L|284:272,1,32,0|0,1:0|0:0,0:0:0:0:
408,288,46232,102,2,B|480:296|480:296|404:328,1,128,2|0,0:0|0:0,0:0:0:0:
344,340,46686,1,2,0:0:0:0:
408,288,46838,1,0,0:0:0:0:
352,360,46989,5,0,1:0:0:0:
264,316,47141,1,2,0:0:0:0:
360,380,47292,101,0,1:0:0:0:
192,348,47444,1,0,1:0:0:0:
328,260,47595,5,2,0:0:0:0:
328,260,47747,2,0,P|336:232|328:176,1,64,2|0,0:0|0:0,0:0:0:0:
292,64,48050,1,0,0:0:0:0:
292,64,48126,1,0,0:0:0:0:
292,64,48201,1,0,1:0:0:0:
256,220,48353,1,2,0:0:0:0:
372,112,48504,1,0,1:0:0:0:
220,92,48656,1,0,1:0:0:0:
260,296,48807,21,2,0:0:0:0:
260,296,48959,2,0,L|264:368,1,71.9999978027344,2|2,0:3|0:0,0:0:0:0:
448,160,49262,1,2,0:3:0:0:
448,160,49565,102,0,L|452:88,1,71.9999978027344,2|2,0:3|0:0,0:0:0:0:
328,364,49868,1,2,0:3:0:0:
180,248,50019,6,0,P|148:240|80:260,1,80,2|2,0:0|0:3,0:0:0:0:
356,176,50322,2,0,P|383:157|454:153,1,80,2|2,0:0|0:3,0:0:0:0:
204,332,50626,102,0,L|208:288,1,40,2|0,0:0|0:0,0:0:0:0:
244,128,50777,6,0,L|296:136,1,40,2|0,0:0|0:0,0:0:0:0:
392,256,50929,102,0,L|336:260,1,40,2|0,0:0|0:0,0:0:0:0:
176,168,51080,6,0,L|164:120,1,40,2|0,0:0|0:0,0:0:0:0:
392,256,51232,85,2,0:0:0:0:
180,248,51383,1,2,0:3:0:0:
376,276,51535,101,2,0:0:0:0:
112,212,51686,1,2,0:3:0:0:
352,284,51838,5,2,0:0:0:0:
108,132,51989,1,2,0:0:0:0:
332,208,52141,101,2,0:0:0:0:
36,356,52292,1,0,1:0:0:0:
456,200,52747,22,0,L|444:48,1,120
447,80,53050,1,0,0:0:0:0:
376,216,53201,6,0,L|364:64,1,132.00000402832
296,48,53504,6,2,B|232:40|232:40|180:60|180:60|104:48,1,191.999994140625,4|0,0:0|0:0,0:0:0:0:
96,272,53959,2,2,B|160:264|160:264|212:284|212:284|288:272,1,191.999994140625,8|2,0:0|0:0,0:0:0:0:
400,128,54413,1,0,0:0:0:0:
396,112,54489,1,0,0:0:0:0:
392,96,54565,1,8,0:0:0:0:
236,184,54716,6,2,P|212:248|304:328,1,191.999994140625,0|2,0:0|0:0,0:0:0:0:
435,234,55171,2,2,L|292:244,1,143.999995605469,8|0,0:0|2:0,0:0:0:0:
216,308,55474,2,2,L|110:315,1,95.9999970703126,0|2,0:0|0:0,0:0:0:0:
140,144,55777,1,8,0:0:0:0:
264,380,55929,102,2,P|296:336|232:220,1,191.999994140625,2|0,0:0|0:0,0:0:0:0:
100,208,56383,2,2,P|64:164|80:100,1,95.9999970703126,8|0,0:0|0:0,0:0:0:0:
69,113,56610,1,0,0:0:0:0:
77,101,56686,1,2,0:0:0:0:
232,168,56838,1,0,0:0:0:0:
76,308,56989,1,8,0:0:0:0:
180,92,57141,6,2,B|248:84|248:84|296:112|296:112|368:104,1,191.999994140625,0|2,0:0|0:0,0:0:0:0:
448,256,57595,2,2,B|392:240|392:240|272:252,1,143.999995605469,8|0,0:0|2:0,0:0:0:0:
284,332,57898,2,2,L|380:322,1,95.9999970703126,0|2,0:0|0:0,0:0:0:0:
456,172,58201,1,8,0:0:0:0:
236,268,58353,102,2,B|168:276|168:276|120:248|120:248|48:256,1,191.999994140625,0|2,0:0|0:0,0:0:0:0:
284,332,58807,2,2,B|312:288|312:288|304:216,1,95.9999970703126,8|2,0:0|2:0,0:0:0:0:
212,64,59110,2,0,L|116:74,1,95.9999970703126,2|2,1:0|2:0,0:0:0:0:
104,156,59338,1,2,2:0:0:0:
104,156,59413,2,2,L|199:145,1,95.9999970703126,8|2,1:0|2:0,0:0:0:0:
352,56,59716,5,2,0:0:0:0:
256,192,59868,1,2,2:0:0:0:
212,64,60019,1,10,0:0:0:0:
368,144,60171,1,2,2:0:0:0:
144,240,60322,101,2,1:0:0:0:
300,320,60474,1,2,2:0:0:0:
256,192,60626,1,10,1:0:0:0:
160,328,60777,1,2,2:0:0:0:
376,248,60929,5,0,0:0:0:0:
376,248,61080,2,0,L|504:276,1,95.9999970703126,0|0,0:0|2:0,0:0:0:0:
128,160,61383,1,0,0:0:0:0:
128,160,61686,102,0,L|0:188,1,95.9999970703126,0|0,0:0|2:0,0:0:0:0:
334,2,61989,2,0,P|400:66|383:157,1,191.999994140625
204,192,62444,5,8,0:0:0:0:
204,192,62519,1,0,0:0:0:0:
204,192,62595,1,0,0:0:0:0:
383,227,62747,1,8,0:0:0:0:
403,270,62822,1,8,0:0:0:0:
400,317,62898,1,8,0:0:0:0:
375,357,62974,1,8,0:0:0:0:
334,381,63050,1,8,0:0:0:0:
292,192,63201,102,2,P|360:132|460:168,1,191.999994140625,2|0,0:0|0:0,0:0:0:0:
307,288,63656,2,2,P|221:259|202:154,1,191.999994140625,8|2,0:0|0:0,0:0:0:0:
296,48,64110,1,0,0:0:0:0:
300,60,64186,1,0,0:0:0:0:
304,72,64262,1,8,0:0:0:0:
197,168,64413,6,2,B|136:180|136:180|100:224|100:224|24:240,1,191.999994140625,0|2,0:0|0:0,0:0:0:0:
232,328,64868,2,2,B|288:316|288:316|404:340,1,143.999995605469,8|0,0:0|2:0,0:0:0:0:
412,260,65171,2,2,L|311:238,1,95.9999970703126,0|2,0:0|0:0,0:0:0:0:
136,324,65474,1,8,0:0:0:0:
96,112,65626,102,2,B|157:123|157:123|193:167|193:167|269:183,1,191.999994140625,2|0,0:0|0:0,0:0:0:0:
400,48,66080,2,2,L|299:69,1,95.9999970703126,8|0,0:0|0:0,0:0:0:0:
291,71,66307,1,0,0:0:0:0:
277,74,66383,1,2,0:0:0:0:
424,164,66535,1,0,0:0:0:0:
253,190,66686,1,8,0:0:0:0:
448,280,66838,6,2,B|408:284|376:248|376:248|360:312|268:312,1,191.999994140625,0|2,0:0|0:0,0:0:0:0:
176,216,67292,101,10,0:0:0:0:
376,248,67444,1,2,2:0:0:0:
202,293,67595,5,10,0:0:0:0:
234,93,67747,1,2,2:0:0:0:
279,267,67898,101,8,0:0:0:0:
79,235,68050,2,2,P|32:180|112:88,1,191.999994140625,2|0,0:0|0:0,0:0:0:0:
312,196,68504,2,2,P|359:251|279:343,1,191.999994140625,8|2,0:0|0:0,0:0:0:0:
124,336,68959,1,0,0:0:0:0:
124,336,69035,1,0,0:0:0:0:
124,336,69110,2,0,L|12:344,1,95.9999970703126,8|0,0:0|0:0,0:0:0:0:
128,128,69413,6,0,P|192:104|264:160,1,143.999995605469,2|0,0:0|2:0,0:0:0:0:
244,232,69716,2,0,P|180:256|108:200,1,143.999995605469,10|0,0:0|2:0,0:0:0:0:
128,128,70019,2,2,L|232:120,1,95.9999970703126,2|0,0:0|0:0,0:0:0:0:
416,184,70322,1,8,0:0:0:0:
308,328,70474,102,2,P|248:288|124:324,1,191.999994140625,0|2,0:0|0:0,0:0:0:0:
84,200,70929,2,2,P|122:174|128:128,1,95.9999970703126,8|0,0:0|2:0,0:0:0:0:
48,80,71232,1,0,0:0:0:0:
20,244,71383,1,0,0:0:0:0:
152,344,71535,2,0,P|194:363|236:345,1,95.9999970703126,8|0,0:0|2:0,0:0:0:0:
384,128,71838,6,0,P|320:104|248:160,1,143.999995605469,2|0,0:0|2:0,0:0:0:0:
268,232,72141,2,0,P|332:256|404:200,1,143.999995605469,10|0,0:0|2:0,0:0:0:0:
384,128,72444,2,0,L|320:108,1,47.9999985351563
208,36,72595,2,0,L|253:50,1,47.9999985351563
384,128,72747,1,0,0:0:0:0:
184,224,72898,6,2,B|123:236|123:236|87:280|87:280|11:296,1,191.999994140625,0|2,0:0|0:0,0:0:0:0:
40,200,73353,21,0,0:0:0:0:
172,312,73504,1,2,2:0:0:0:
104,116,73656,5,0,0:0:0:0:
188,316,73807,1,2,2:0:0:0:
204,88,73959,101,0,0:0:0:0:
204,320,74110,1,2,2:0:0:0:
304,112,74262,5,0,0:0:0:0:
304,344,74413,1,2,2:0:0:0:
320,108,74565,101,0,0:0:0:0:
404,316,74716,1,2,2:0:0:0:
336,104,74868,6,0,L|384:148,1,47.9999985351563
468,232,75019,2,0,L|432:199,1,47.9999985351563
296,40,75171,69,0,0:0:0:0:
364,240,75322,2,0,P|292:264|188:192,1,191.999994140625
296,40,75777,21,0,0:0:0:0:
364,240,75929,1,2,2:0:0:0:
156,104,76080,5,0,0:0:0:0:
292,264,76232,1,2,2:0:0:0:
72,236,76383,101,0,0:0:0:0:
260,332,76535,1,0,0:0:0:0:
260,332,76610,1,0,0:0:0:0:
260,332,76686,5,0,0:0:0:0:
292,264,76989,1,0,2:0:0:0:
364,240,77292,2,0,P|408:236|448:260,1,80,0|0,2:0|2:0,0:0:0:0:
260,332,77747,102,0,P|176:320|256:216,1,256
292,264,78504,6,0,P|260:332|180:324,1,160
258,184,78959,70,2,B|294:144|294:144|346:188|330:260|292:264,1,200,6|2,1:0|0:0,0:0:0:0:
156,312,79413,2,0,L|40:300,1,100,8|0,0:0|0:0,0:0:0:0:
172,204,79716,1,2,0:0:0:0:
296,348,79868,1,0,0:0:0:0:
376,168,80019,1,8,0:0:0:0:
248,268,80171,6,2,B|320:232|380:316|444:260,1,200,0|2,0:0|0:0,0:0:0:0:
424,88,80626,1,8,0:0:0:0:
256,100,80777,1,0,0:0:0:0:
376,168,80929,1,2,0:0:0:0:
352,172,81004,1,0,0:0:0:0:
328,176,81080,1,0,0:0:0:0:
168,60,81232,1,8,0:0:0:0:
256,100,81383,102,2,B|224:144|224:144|128:152|128:152|84:112,1,200
88,296,81838,2,0,L|188:288,1,100,8|0,0:0|0:0,0:0:0:0:
360,272,82141,1,2,0:0:0:0:
236,208,82292,1,0,0:0:0:0:
224,360,82444,1,8,0:0:0:0:
416,328,82595,6,2,B|460:276|420:220|420:220|468:200|484:248,1,200,0|2,0:0|0:0,0:0:0:0:
416,328,83050,2,2,P|368:352|296:316,1,100,10|0,0:0|0:0,0:0:0:0:
160,160,83353,2,2,L|88:168,2,50,2|8|2,0:0|0:0|0:0,0:0:0:0:
352,160,83656,1,0,0:0:0:0:
96,328,83807,1,0,0:0:0:0:
204,92,83959,69,8,0:0:0:0:
392,228,84110,1,2,2:0:0:0:
168,288,84262,1,2,2:0:0:0:
308,92,84413,5,8,0:0:0:0:
120,228,84565,1,2,2:0:0:0:
344,288,84716,1,2,2:0:0:0:
256,32,84868,101,0,0:0:0:0:
256,304,85019,2,0,B|269:365|269:365|313:312|313:312|375:319|375:319|339:261|339:261|365:204|365:204|299:222|299:222|252:180|252:180|249:249|249:249|194:281|194:281|250:300|250:300,1,634.666647298178
