osu file format v14

[General]
AudioFilename: audio.mp3
AudioLeadIn: 500
PreviewTime: 52595
Countdown: 0
SampleSet: Soft
StackLeniency: 0.5
Mode: 0
LetterboxInBreaks: 0
EpilepsyWarning: 1
WidescreenStoryboard: 1

[Editor]
DistanceSpacing: 1.5
BeatDivisor: 4
GridSize: 32
TimelineZoom: 2.4

[Metadata]
Title:Twintail Dreamer! (TV Size)
TitleUnicode:ツインテール・ドリーマー! (TV Size)
Artist:Twin-Tails
ArtistUnicode:ツインテイルズ
Creator:Moecho
Version:Regular
Source:俺、ツインテールになります。
Tags:Twintails OreTwi Ore, Tsuinteru Tsuintēru ni Narimasu. Gonna be the Twin-Tail!! テイルレッド Tail Red 上坂すみれ Uesaka Sumire テイルブルー Blue 相坂優歌 Aisaka Yuuka テイルイエロー Yellow 赤﨑千夏 Akasaki Chinatsu Ending Theme ED TV Size edit Anime papiyon japanese pop j-pop jpop Kodora Laurier Natteke Kite HabiHolic Loneight L18 Lecana Giralda captin1 jonathanlfj apaffy kisata Nyquill RLC LunarSakuya Mythol meiikyuu Syameimaru-Aya Ayaya caren_sk CRN kiddly Axarious Delis ShirohaMyMommy SMM Koiyuki Minakami Yuki yf_bmp yf Skystar Amamiya Yuko rui rustbell spro sprosive Snow Note 7odoa bakabaka Hollow Wings HW
BeatmapID:2331314
BeatmapSetID:1115213

[Difficulty]
HPDrainRate:4
CircleSize:3.5
OverallDifficulty:5
ApproachRate:6
SliderMultiplier:1
SliderTickRate:1

[Events]
//Background and Video events
0,0,"bg.jpg",0,0
//Break Periods
//Storyboard Layer 0 (Background)
Sprite,Background,Centre,"sb\sprites\pixel-white.png",320,240 F,0,-60,,0,1 C,0,-60,,0,0,0 V,0,-60,,880,480 F,0,89619,,1,0
Sprite,Background,Centre,"bg.jpg",320,240 F,0,-2559,-1559,0,0.75 S,0,-1559,,0.4444444 F,0,337,487,0.75,0
Sprite,Background,Centre,"bg.jpg",320,240 F,0,88125,89125,0,0.75 S,0,89125,,0.4444444 F,0,89784,89934,0.75,0
Sprite,Background,Centre,"sb\sprites\bg-alt.jpg",320,240 F,0,187,337,0,0.75 S,0,337,,0.4444444 F,0,21156,22306,0.75,0
Sprite,Background,Centre,"sb\sprites\bg-alt.jpg",320,240 F,0,53369,53519,0,0.75 S,0,53519,,0.4444444 F,0,88125,89275,0.75,0
Sprite,Background,Centre,"sb\sprites\bg-alt-bw.jpg",320,240 F,0,22006,22306,0,0.75 S,0,22156,,0.4444444 F,0,39686,40486,0.75,0
Sprite,Background,Centre,"sb\sprites\bg-alt-bw.jpg",320,240 F,0,50491,50791,0,0.75 S,0,50641,,0.4444444 F,0,51807,52607,0.75,0
Sprite,Background,Centre,"sb\sprites\tail-red-ci.jpg",320,240 F,0,40794,41094,0,0.75 S,0,40944,,0.4444444 F,0,48822,50322,0.75,0
Sprite,Background,Centre,"sb\sprites\tail-blue-ci.jpg",320,240 F,0,42915,43215,0,0.75 S,0,43065,,0.4444444 F,0,48822,50322,0.75,0
Sprite,Background,Centre,"sb\sprites\tail-yellow-ci.jpg",320,240 F,0,45339,45639,0,0.75 S,0,45489,,0.4444444 F,0,48822,50322,0.75,0
Sprite,Background,Centre,"sb\sprites\pixel-white.png",320,240 V,0,2610,,854,480 F,0,2610,3210,0.15,0
Sprite,Background,Centre,"sb\sprites\pixel-white.png",320,240 V,0,3822,,854,480 F,0,3822,4422,0.15,0
Sprite,Background,Centre,"sb\sprites\pixel-white.png",320,240 V,0,5034,,854,480 F,0,5034,5634,0.15,0
Sprite,Background,Centre,"sb\sprites\pixel-white.png",320,240 V,0,5792,,854,480 F,0,5792,6392,0.15,0
Sprite,Background,Centre,"sb\sprites\pixel-white.png",320,240 V,0,7004,,854,480 F,0,7004,7604,0.15,0
Sprite,Background,Centre,"sb\sprites\pixel-white.png",320,240 V,0,7459,,854,480 F,0,7459,8059,0.15,0
Sprite,Background,Centre,"sb\sprites\pixel-white.png",320,240 V,0,9883,,854,480 F,0,9883,10483,0.15,0
Sprite,Background,Centre,"sb\sprites\pixel-white.png",320,240 V,0,12307,,854,480 F,0,12307,12907,0.15,0
Sprite,Background,Centre,"sb\sprites\pixel-white.png",320,240 V,0,13519,,854,480 F,0,13519,14119,0.15,0
Sprite,Background,Centre,"sb\sprites\pixel-white.png",320,240 V,0,14731,,854,480 F,0,14731,15331,0.15,0
Sprite,Background,Centre,"sb\sprites\pixel-white.png",320,240 V,0,15944,,854,480 F,0,15944,16544,0.15,0
Sprite,Background,Centre,"sb\sprites\pixel-white.png",320,240 V,0,17156,,854,480 F,0,17156,17756,0.15,0
Sprite,Background,Centre,"sb\sprites\pixel-white.png",320,240 V,0,18368,,854,480 F,0,18368,18968,0.15,0
Sprite,Background,Centre,"sb\sprites\pixel-white.png",320,240 V,0,19580,,854,480 F,0,19580,20180,0.15,0
Sprite,Background,Centre,"sb\sprites\pixel-white.png",320,240 V,0,20792,,854,480 F,0,20792,21392,0.15,0
Sprite,Background,Centre,"sb\sprites\pixel-white.png",320,240 V,0,22156,,854,480 F,0,22156,22756,0.15,0
Sprite,Background,Centre,"sb\sprites\pixel-white.png",320,240 V,0,30489,,854,480 F,0,30489,31089,0.15,0
Sprite,Background,Centre,"sb\sprites\pixel-white.png",320,240 V,0,31853,,854,480 F,0,31853,32453,0.15,0
Sprite,Background,Centre,"sb\sprites\pixel-white.png",320,240 V,0,34277,,854,480 F,0,34277,34877,0.15,0
Sprite,Background,Centre,"sb\sprites\pixel-white.png",320,240 V,0,36701,,854,480 F,0,36701,37301,0.15,0
Sprite,Background,Centre,"sb\sprites\pixel-white.png",320,240 V,0,39125,,854,480 F,0,39125,39725,0.15,0
Sprite,Background,Centre,"sb\sprites\pixel-white.png",320,240 V,0,40186,,854,480 F,0,40186,40786,0.15,0
Sprite,Background,Centre,"sb\sprites\pixel-white.png",320,240 V,0,41550,,854,480 F,0,41550,42150,0.15,0
Sprite,Background,Centre,"sb\sprites\pixel-white.png",320,240 V,0,46247,,854,480 F,0,46247,46847,0.15,0
Sprite,Background,Centre,"sb\sprites\pixel-white.png",320,240 V,0,48822,,854,480 F,0,48822,49422,0.15,0
Sprite,Background,Centre,"sb\sprites\pixel-white.png",320,240 V,0,53519,,854,480 F,0,53519,54119,0.15,0
Sprite,Background,Centre,"sb\sprites\pixel-white.png",320,240 V,0,54731,,854,480 F,0,54731,55331,0.15,0
Sprite,Background,Centre,"sb\sprites\pixel-white.png",320,240 V,0,55944,,854,480 F,0,55944,56544,0.15,0
Sprite,Background,Centre,"sb\sprites\pixel-white.png",320,240 V,0,57156,,854,480 F,0,57156,57756,0.15,0
Sprite,Background,Centre,"sb\sprites\pixel-white.png",320,240 V,0,58368,,854,480 F,0,58368,58968,0.15,0
Sprite,Background,Centre,"sb\sprites\pixel-white.png",320,240 V,0,60944,,854,480 F,0,60944,61544,0.15,0 V,0,61398,,854,480 F,0,61398,61998,0.15,0
Sprite,Background,Centre,"sb\sprites\pixel-white.png",320,240 V,0,63216,,854,480 F,0,63216,63816,0.15,0
Sprite,Background,Centre,"sb\sprites\pixel-white.png",320,240 V,0,64428,,854,480 F,0,64428,65028,0.15,0
Sprite,Background,Centre,"sb\sprites\pixel-white.png",320,240 V,0,65641,,854,480 F,0,65641,66241,0.15,0
Sprite,Background,Centre,"sb\sprites\pixel-white.png",320,240 V,0,66853,,854,480 F,0,66853,67453,0.15,0
Sprite,Background,Centre,"sb\sprites\pixel-white.png",320,240 V,0,68065,,854,480 F,0,68065,68665,0.15,0
Sprite,Background,Centre,"sb\sprites\pixel-white.png",320,240 V,0,70488,,854,480 F,0,70488,71088,0.15,0
Sprite,Background,Centre,"sb\sprites\pixel-white.png",320,240 V,0,72913,,854,480 F,0,72913,73513,0.15,0
Sprite,Background,Centre,"sb\sprites\pixel-white.png",320,240 V,0,75338,,854,480 F,0,75338,75938,0.15,0
Sprite,Background,Centre,"sb\sprites\pixel-white.png",320,240 V,0,76701,,854,480 F,0,76701,77301,0.15,0
Sprite,Background,Centre,"sb\sprites\pixel-white.png",320,240 V,0,78974,,854,480 F,0,78974,79574,0.15,0
Sprite,Background,Centre,"sb\sprites\pixel-white.png",320,240 V,0,80186,,854,480 F,0,80186,80786,0.15,0
Sprite,Background,Centre,"sb\sprites\pixel-white.png",320,240 V,0,81398,,854,480 F,0,81398,81998,0.15,0
Sprite,Background,Centre,"sb\sprites\pixel-white.png",320,240 V,0,82610,,854,480 F,0,82610,83210,0.15,0
Sprite,Background,Centre,"sb\sprites\pixel-white.png",320,240 V,0,83974,,854,480 F,0,83974,84574,0.15,0
Sprite,Background,Centre,"sb\sprites\pixel-white.png",320,240 V,0,84428,,854,480 F,0,84428,85028,0.15,0
Sprite,Background,Centre,"sb\sprites\pixel-white.png",320,240 V,0,85034,,854,480 F,0,85034,85634,0.15,0
//Storyboard Layer 1 (Fail)
//Storyboard Layer 2 (Pass)
//Storyboard Layer 3 (Foreground)
Sprite,Foreground,Centre,"sb\lyrics\004d.png",0,0 F,0,12207,12407,0,0.8 M,0,12307,,679.5,399 S,0,12307,,0.5 C,0,12307,,255,255,255 F,0,86904,87104,0.8,0
Sprite,Foreground,Centre,"sb\lyrics\006f.png",0,0 F,0,12207,12407,0,0.8 M,0,12307,,690.25,401 S,0,12307,,0.5 C,0,12307,,255,255,255 F,0,86904,87104,0.8,0
Sprite,Foreground,Centre,"sb\lyrics\0065.png",0,0 F,0,12207,12407,0,0.8 M,0,12307,,701.25,401.75 S,0,12307,,0.5 C,0,12307,,255,255,255 F,0,86904,87104,0.8,0
Sprite,Foreground,Centre,"sb\lyrics\0063.png",0,0 F,0,12207,12407,0,0.8 M,0,12307,,712,401 S,0,12307,,0.5 C,0,12307,,255,255,255 F,0,86904,87104,0.8,0
Sprite,Foreground,Centre,"sb\lyrics\0068.png",0,0 F,0,12207,12407,0,0.8 M,0,12307,,723.5,399.25 S,0,12307,,0.5 C,0,12307,,255,255,255 F,0,86904,87104,0.8,0
Sprite,Foreground,Centre,"sb\lyrics\006f.png",0,0 F,0,12207,12407,0,0.8 M,0,12307,,734.25,401 S,0,12307,,0.5 C,0,12307,,255,255,255 F,0,86904,87104,0.8,0
Sprite,Foreground,Centre,"sb\lyrics\0052.png",0,0 F,0,12207,12407,0,0.8 M,0,12307,,675.3,433.1 S,0,12307,,0.45 C,0,12307,,255,255,255 F,0,86904,87104,0.8,0
Sprite,Foreground,Centre,"sb\lyrics\0065.png",0,0 F,0,12207,12407,0,0.8 M,0,12307,,684.975,435.575 S,0,12307,,0.45 C,0,12307,,255,255,255 F,0,86904,87104,0.8,0
Sprite,Foreground,Centre,"sb\lyrics\0067.png",0,0 F,0,12207,12407,0,0.8 M,0,12307,,694.65,436.025 S,0,12307,,0.45 C,0,12307,,255,255,255 F,0,86904,87104,0.8,0
Sprite,Foreground,Centre,"sb\lyrics\0075.png",0,0 F,0,12207,12407,0,0.8 M,0,12307,,705.0001,434.9 S,0,12307,,0.45 C,0,12307,,255,255,255 F,0,86904,87104,0.8,0
Sprite,Foreground,Centre,"sb\lyrics\006c.png",0,0 F,0,12207,12407,0,0.8 M,0,12307,,714.9001,433.1 S,0,12307,,0.45 C,0,12307,,255,255,255 F,0,86904,87104,0.8,0
Sprite,Foreground,Centre,"sb\lyrics\0061.png",0,0 F,0,12207,12407,0,0.8 M,0,12307,,725.0251,435.125 S,0,12307,,0.45 C,0,12307,,255,255,255 F,0,86904,87104,0.8,0
Sprite,Foreground,Centre,"sb\lyrics\0072.png",0,0 F,0,12207,12407,0,0.8 M,0,12307,,734.7001,434.9 S,0,12307,,0.45 C,0,12307,,255,255,255 F,0,86904,87104,0.8,0
//Storyboard Layer 4 (Overlay)
//Storyboard Sound Samples

[TimingPoints]
323,303.030303030303,4,2,50,50,1,0
323,-100,4,2,50,50,0,0
1838,-100,4,2,50,75,0,0
2595,-100,4,2,50,60,0,0
6686,-100,4,2,50,65,0,0
7444,-100,4,2,50,70,0,1
9413,-100,4,2,50,70,0,0
9868,-100,4,2,50,70,0,1
11838,-100,4,2,50,70,0,0
12292,-100,4,2,50,75,0,1
22141,-100,4,2,50,50,0,0
30474,-100,4,2,50,55,0,0
31838,-100,4,2,50,60,0,0
40929,-100,4,2,50,55,0,0
48807,-100,4,2,50,60,0,0
51232,-100,4,2,50,65,0,0
53504,-100,4,2,50,75,0,1
57747,-100,4,2,50,75,0,0
58353,-100,4,2,50,75,0,1
61383,-100,4,2,50,75,0,0
61989,-100,4,2,50,75,0,1
62747,-100,4,2,50,75,0,0
63201,-100,4,2,50,75,0,1
67595,-100,4,2,50,75,0,0
68050,-100,4,2,50,75,0,1
72444,-100,4,2,50,75,0,0
72898,-100,4,2,50,75,0,1
74868,-100,4,2,50,75,0,0
75322,-100,4,2,50,70,0,1
76686,-100,4,2,50,70,0,0
76838,-100,4,2,50,65,0,0
78353,-100,4,2,50,37,0,0
78959,-100,4,2,50,75,0,1
83656,-100,4,2,50,75,0,0
83959,-100,4,2,50,80,0,1
85322,-100,4,2,50,70,0,1
85626,-100,4,2,50,60,0,1
85929,-100,4,2,50,50,0,1
86232,-100,4,2,50,40,0,1
86535,-100,4,2,50,20,0,0

[Colours]
Combo1 : 192,192,192
Combo2 : 255,50,50
Combo3 : 255,125,125
Combo4 : 25,100,255
Combo5 : 50,150,255
Combo6 : 255,255,50
Combo7 : 255,255,150
Combo8 : 128,128,128

[HitObjects]
308,46,323,102,0,B|378:53|378:53|386:47|386:47|456:53,1,150,2|2,1:2|0:0,0:0:0:0:
327,257,1232,6,0,B|257:264|257:264|249:258|249:258|178:264,1,150,2|2,1:2|0:0,0:0:0:0:
104,273,1838,70,0,L|113:173,1,100,10|10,1:2|0:0,0:0:0:0:
120,99,2292,1,10,1:2:0:0:
248,176,2595,54,0,B|290:184|315:157|315:157|341:127|385:134,2,150,6|2|2,1:2|0:0|0:0,0:0:0:0:
120,99,3807,1,6,1:2:0:0:
1,290,4262,2,0,P|50:291|90:319,1,100,2|2,0:0|0:0,0:0:0:0:
129,383,4716,1,2,0:0:0:0:
275,351,5019,6,0,B|267:309|294:284|294:284|324:258|316:213,1,150,6|2,1:2|0:0,0:0:0:0:
202,116,5777,1,6,1:2:0:0:
226,44,5929,2,0,L|325:53,1,100,2|2,0:0|0:0,0:0:0:0:
454,237,6686,2,0,L|444:137,2,100,10|14|10,1:2|0:0|0:0,0:0:0:0:
499,296,7444,38,0,L|399:286,1,100,6|0,1:2|0:0,0:0:0:0:
345,338,7898,54,0,P|316:297|315:248,1,100,10|10,1:2|0:0,0:0:0:0:
168,197,8504,2,0,P|188:152|231:126,2,100,2|10|10,1:2|0:0|0:0,0:0:0:0:
210,340,9413,54,0,L|110:330,1,100,10|10,1:2|0:0,0:0:0:0:
58,384,9868,2,0,L|48:284,1,100,6|0,1:2|0:0,0:0:0:0:
0,227,10322,54,0,P|40:198|89:197,1,100,10|10,1:2|0:0,0:0:0:0:
160,64,10929,2,0,P|205:84|230:126,2,100,10|10|10,1:2|0:0|0:0,0:0:0:0:
17,16,11838,54,0,L|27:116,1,100,10|8,1:2|0:0,0:0:0:0:
12,188,12292,86,0,B|54:196|79:169|79:169|105:139|150:147,1,150,6|8,1:2|0:0,0:0:0:0:
237,268,13050,2,0,L|337:278,1,100,2|8,1:2|0:0,0:0:0:0:
409,294,13504,6,0,B|417:252|390:227|390:227|360:201|368:156,1,150,6|8,1:2|0:0,0:0:0:0:
408,12,14262,2,0,L|308:22,1,100,2|8,1:2|0:0,0:0:0:0:
325,95,14716,102,0,B|283:103|258:76|258:76|232:46|187:54,1,150,6|8,1:2|0:0,0:0:0:0:
47,0,15474,2,0,L|57:100,1,100,2|8,1:2|0:0,0:0:0:0:
43,173,15929,6,0,B|85:181|110:154|110:154|136:124|181:132,1,150,6|8,1:2|0:0,0:0:0:0:
244,267,16686,2,0,L|144:257,1,100,2|8,1:2|0:0,0:0:0:0:
76,289,17141,102,0,B|48:347|100:384|100:384|138:368,1,150,6|8,1:2|0:0,0:0:0:0:
284,333,17898,2,0,L|274:233,1,100,2|8,1:2|0:0,0:0:0:0:
294,161,18353,6,0,B|332:145|332:145|384:182|356:240,1,150,6|8,1:2|0:0,0:0:0:0:
459,349,19110,2,0,L|359:339,1,100,2|8,1:2|0:0,0:0:0:0:
284,333,19565,101,6,1:2:0:0:
135,158,20019,2,0,L|145:258,2,100,10|0|8,1:2|0:0|0:0,0:0:0:0:
210,158,20777,6,0,B|168:166|143:139|143:139|117:109|72:117,1,150,6|8,1:2|0:0,0:0:0:0:
25,259,21535,1,10,1:2:0:0:
155,334,21838,1,10,1:2:0:0:
257,224,22141,54,0,P|298:195|347:194,1,100,6|2,1:2|1:2,0:0:0:0:
398,249,22595,2,0,L|408:149,1,100,2|2,0:0|0:0,0:0:0:0:
491,25,23201,2,0,L|341:40,1,150,2|0,0:0|1:0,0:0:0:0:
233,144,23959,86,0,L|133:134,1,100,2|2,1:2|1:2,0:0:0:0:
1,205,24565,6,0,P|2:155|31:115,1,100,2|2,1:2|1:2,0:0:0:0:
16,42,25019,2,0,L|116:32,1,100,2|2,0:0|0:0,0:0:0:0:
260,71,25626,2,0,L|245:221,1,150,2|0,0:0|1:0,0:0:0:0:
127,312,26383,102,0,L|137:212,1,100,2|2,1:2|1:2,0:0:0:0:
272,148,26989,22,0,P|322:149|362:178,1,100,2|2,1:2|1:2,0:0:0:0:
397,243,27444,2,0,L|497:233,1,100,2|2,0:0|0:0,0:0:0:0:
437,371,28050,2,0,L|287:356,1,150,2|2,0:0|1:2,0:0:0:0:
232,216,28807,86,0,L|132:226,1,100,2|2,1:2|1:2,0:0:0:0:
52,352,29413,6,0,P|23:311|22:262,1,100,2|2,1:2|1:2,0:0:0:0:
61,198,29868,2,0,L|71:98,1,100,2|10,0:0|0:0,0:0:0:0:
215,139,30474,2,0,B|257:147|282:120|282:120|308:90|353:98,1,150,6|8,1:2|1:2,0:0:0:0:
476,181,31232,101,2,1:2:0:0:
486,31,31535,1,10,1:2:0:0:
352,98,31838,102,0,P|381:139|382:188,1,100,6|10,1:2|0:0,0:0:0:0:
308,197,32292,2,0,P|286:242|245:267,1,100,2|2,1:2|0:0,0:0:0:0:
130,363,32898,2,0,L|30:353,2,100,2|2|0,1:2|0:0|0:0,0:0:0:0:
194,323,33656,6,0,L|184:223,1,100,2|10,1:2|0:0,0:0:0:0:
95,100,34262,102,0,P|136:71|185:70,1,100,6|10,1:2|0:0,0:0:0:0:
194,144,34716,2,0,P|239:165|264:206,1,100,2|2,1:2|0:0,0:0:0:0:
412,235,35322,2,0,L|397:385,1,150,2|8,1:2|0:0,0:0:0:0:
246,381,36080,6,0,L|256:281,1,100,2|8,1:2|0:0,0:0:0:0:
330,151,36686,102,0,P|289:122|240:121,1,100,6|10,1:2|0:0,0:0:0:0:
185,70,37141,2,0,P|140:91|115:132,1,100,2|2,1:2|0:0,0:0:0:0:
0,231,37747,2,0,L|10:331,1,100,2|0,1:2|0:0,0:0:0:0:
70,375,38201,6,0,L|170:385,2,100,10|2|10,1:2|0:0|0:0,0:0:0:0:
113,231,39110,102,0,P|154:202|203:201,1,100,6|10,1:2|0:0,0:0:0:0:
258,150,39565,2,0,P|303:171|328:212,1,100,2|2,1:2|0:0,0:0:0:0:
414,89,40171,2,0,L|264:74,1,150,6|8,1:2|0:0,0:0:0:0:
124,18,40929,69,2,1:2:0:0:
7,111,41232,1,10,1:2:0:0:
42,256,41535,102,0,L|243:235,1,200,6|8,1:2|0:0,0:0:0:0:
427,111,42595,1,2,1:2:0:0:
223,14,43050,22,0,L|213:114,2,100,2|10|2,1:2|0:0|0:0,0:0:0:0:
290,148,43959,2,0,P|339:149|379:178,2,100,2|10|2,1:2|0:0|0:0,0:0:0:0:
115,290,45019,1,2,1:2:0:0:
331,351,45474,38,0,L|341:251,2,100,2|2|8,1:2|0:0|0:0,0:0:0:0:
255,351,46232,102,0,L|105:366,1,150,6|2,1:2|0:0,0:0:0:0:
55,224,46989,2,0,L|155:214,1,100,10|2,1:2|0:0,0:0:0:0:
301,186,47595,6,0,L|311:86,1,100,2|2,1:2|0:0,0:0:0:0:
169,36,48201,2,0,L|157:138,1,100,10|2,1:2|0:0,0:0:0:0:
201,278,48807,6,0,B|271:272|271:272|279:278|279:278|349:271,1,150,6|2,1:2|0:0,0:0:0:0:
485,333,49565,2,0,L|495:233,1,100,2|2,0:0|0:0,0:0:0:0:
438,94,50171,2,0,L|338:104,1,100,2|2,0:0|0:0,0:0:0:0:
318,177,50626,6,0,B|273:156|273:156|224:169,1,100,2|2,1:2|1:2,0:0:0:0:
105,81,51232,86,0,B|111:151|111:151|105:159|105:159|112:229,1,150,2|2,1:2|0:0,0:0:0:0:
189,100,51989,1,2,1:2:0:0:
69,9,52292,1,10,1:2:0:0:
292,36,52747,6,0,P|341:37|381:66,1,100,2|2,0:0|0:0,0:0:0:0:
419,131,53201,1,2,0:0:0:0:
324,247,53504,22,0,B|282:255|257:228|257:228|231:198|187:205,2,150,6|10|2,1:2|0:0|0:0,0:0:0:0:
451,326,54716,2,0,L|461:226,1,100,6|0,1:2|0:0,0:0:0:0:
474,152,55171,2,0,P|425:153|385:182,1,100,10|2,1:2|0:0,0:0:0:0:
310,171,55626,1,2,1:2:0:0:
168,121,55929,6,0,B|176:163|149:188|149:188|119:214|126:258,2,150,6|10|2,1:2|0:0|0:0,0:0:0:0:
68,8,57141,2,0,L|168:18,1,100,6|0,1:2|0:0,0:0:0:0:
223,69,57595,2,0,P|262:41|312:39,1,100,10|2,1:2|0:0,0:0:0:0:
385,61,58050,1,2,1:2:0:0:
380,210,58353,102,0,B|338:218|313:191|313:191|287:161|243:168,1,150,6|10,1:2|0:0,0:0:0:0:
96,136,59110,2,0,L|106:236,1,100,2|10,1:2|0:0,0:0:0:0:
95,384,59716,6,0,P|144:382|184:354,1,100,10|10,1:2|0:0,0:0:0:0:
332,384,60322,2,0,P|355:340|350:291,1,100,10|10,1:2|1:2,0:0:0:0:
306,147,60929,102,0,B|264:155|239:128|239:128|213:98|169:105,1,150,6|14,1:2|0:0,0:0:0:0:
46,190,61686,1,10,1:2:0:0:
35,40,61989,1,10,1:2:0:0:
98,256,62444,54,0,P|147:255|187:226,1,100,10|10,1:2|0:0,0:0:0:0:
225,161,62898,1,10,1:2:0:0:
366,112,63201,54,0,B|324:120|299:93|299:93|273:63|229:70,2,150,6|10|2,1:2|0:0|0:0,0:0:0:0:
493,32,64413,2,0,L|483:132,1,100,6|0,1:2|0:0,0:0:0:0:
498,205,64868,2,0,P|449:204|409:175,1,100,10|2,1:2|0:0,0:0:0:0:
334,188,65322,1,2,1:2:0:0:
270,323,65626,6,0,B|278:281|251:256|251:256|221:230|228:186,2,150,6|10|2,1:2|0:0|0:0,0:0:0:0:
151,230,66838,2,0,L|51:240,1,100,6|0,1:2|0:0,0:0:0:0:
0,186,67292,2,0,L|10:86,2,100,10|10|10,1:2|0:0|0:0,0:0:0:0:
52,240,68050,102,0,B|24:298|76:335|76:335|114:319,2,150,6|8|0,1:2|0:0|0:0,0:0:0:0:
95,178,69110,2,0,L|195:188,2,100,10|2|10,1:2|0:0|0:0,0:0:0:0:
159,42,70019,6,0,B|117:50|92:23|92:23|66:-7|22:0,2,150,2|6|8,1:2|0:0|0:0,0:0:0:0:
263,150,71232,2,0,P|302:121|352:119,1,100,0|10,1:0|0:0,0:0:0:0:
492,171,71838,102,0,L|482:271,1,100,2|10,1:2|0:0,0:0:0:0:
359,357,72444,54,0,L|369:257,1,100,10|8,1:2|0:0,0:0:0:0:
413,197,72898,2,0,L|313:207,1,100,6|0,1:2|0:0,0:0:0:0:
263,150,73353,54,0,P|234:191|233:240,1,100,10|10,1:2|0:0,0:0:0:0:
91,286,73959,2,0,P|111:331|154:357,2,100,10|10|10,1:2|0:0|0:0,0:0:0:0:
162,154,74868,54,0,L|62:144,1,100,10|10,1:2|0:0,0:0:0:0:
11,199,75322,2,0,L|1:99,1,100,6|0,1:2|0:0,0:0:0:0:
50,42,75777,54,0,P|91:71|140:72,1,100,10|10,1:2|0:0,0:0:0:0:
236,187,76383,2,0,P|281:167|307:124,1,100,10|6,1:2|0:0,0:0:0:0:
256,192,76838,12,2,78353,0:0:0:0:
500,188,78959,22,0,B|458:196|433:169|433:169|407:139|362:147,1,150,6|8,1:2|0:0,0:0:0:0:
275,268,79716,2,0,L|175:278,1,100,2|8,1:2|0:0,0:0:0:0:
103,294,80171,6,0,B|95:252|122:227|122:227|152:201|144:156,1,150,6|8,1:2|0:0,0:0:0:0:
103,12,80929,2,0,L|203:22,1,100,2|8,1:2|0:0,0:0:0:0:
188,95,81383,102,0,B|230:103|255:76|255:76|281:46|326:54,1,150,6|8,1:2|0:0,0:0:0:0:
465,0,82141,2,0,L|455:100,1,100,2|8,1:2|0:0,0:0:0:0:
470,174,82595,6,0,B|428:182|403:155|403:155|377:125|332:133,1,150,6|8,1:2|0:0,0:0:0:0:
275,268,83353,2,0,L|175:278,1,100,2|8,1:2|0:0,0:0:0:0:
25,279,83959,70,0,B|-3:337|49:374|49:374|87:358,2,150,14|14|8,1:2|0:0|0:0,0:0:0:0:
100,283,85019,1,6,1:2:0:0:
256,192,85171,12,0,86737,1:0:0:0:
