osu file format v14

[General]
AudioFilename: audio.mp3
AudioLeadIn: 500
PreviewTime: 52595
Countdown: 0
SampleSet: Normal
StackLeniency: 0.3
Mode: 0
LetterboxInBreaks: 0
EpilepsyWarning: 1
WidescreenStoryboard: 1

[Editor]
Bookmarks: 12444,22141,31838,41535,63201,72898,78959
DistanceSpacing: 1.3
BeatDivisor: 4
GridSize: 4
TimelineZoom: 1.6

[Metadata]
Title:Twintail Dreamer! (TV Size)
TitleUnicode:ツインテール・ドリーマー! (TV Size)
Artist:Twin-Tails
ArtistUnicode:ツインテイルズ
Creator:Moecho
Version:Natteke's Oldskool Insane
Source:俺、ツインテールになります。
Tags:Twintails OreTwi Ore, Tsuinteru Tsuintēru ni Narimasu. Gonna be the Twin-Tail!! テイルレッド Tail Red 上坂すみれ Uesaka Sumire テイルブルー Blue 相坂優歌 Aisaka Yuuka テイルイエロー Yellow 赤﨑千夏 Akasaki Chinatsu Ending Theme ED TV Size edit Anime papiyon japanese pop j-pop jpop Kodora Laurier Natteke Kite HabiHolic Loneight L18 Lecana Giralda captin1 jonathanlfj apaffy kisata Nyquill RLC LunarSakuya Mythol meiikyuu Syameimaru-Aya Ayaya caren_sk CRN kiddly Axarious Delis ShirohaMyMommy SMM Koiyuki Minakami Yuki yf_bmp yf Skystar Amamiya Yuko rui rustbell spro sprosive Snow Note 7odoa bakabaka Hollow Wings HW
BeatmapID:2383994
BeatmapSetID:1115213

[Difficulty]
HPDrainRate:6
CircleSize:4.2
OverallDifficulty:7
ApproachRate:8.7
SliderMultiplier:1.4
SliderTickRate:1

[Events]
//Background and Video events
0,0,"bg.jpg",0,0
//Break Periods
//Storyboard Layer 0 (Background)
Sprite,Background,Centre,"sb\sprites\pixel-white.png",320,240 F,0,-60,,0,1 C,0,-60,,0,0,0 V,0,-60,,880,480 F,0,89619,,1,0
Sprite,Background,Centre,"bg.jpg",320,240 F,0,-2559,-1559,0,0.75 S,0,-1559,,0.4444444 F,0,337,487,0.75,0
Sprite,Background,Centre,"bg.jpg",320,240 F,0,88125,89125,0,0.75 S,0,89125,,0.4444444 F,0,89784,89934,0.75,0
Sprite,Background,Centre,"sb\sprites\bg-alt.jpg",320,240 F,0,187,337,0,0.75 S,0,337,,0.4444444 F,0,21156,22306,0.75,0
Sprite,Background,Centre,"sb\sprites\bg-alt.jpg",320,240 F,0,53369,53519,0,0.75 S,0,53519,,0.4444444 F,0,88125,89275,0.75,0
Sprite,Background,Centre,"sb\sprites\bg-alt-bw.jpg",320,240 F,0,22006,22306,0,0.75 S,0,22156,,0.4444444 F,0,39686,40486,0.75,0
Sprite,Background,Centre,"sb\sprites\bg-alt-bw.jpg",320,240 F,0,50491,50791,0,0.75 S,0,50641,,0.4444444 F,0,51807,52607,0.75,0
Sprite,Background,Centre,"sb\sprites\tail-red-ci.jpg",320,240 F,0,40794,41094,0,0.75 S,0,40944,,0.4444444 F,0,48822,50322,0.75,0
Sprite,Background,Centre,"sb\sprites\tail-blue-ci.jpg",320,240 F,0,42915,43215,0,0.75 S,0,43065,,0.4444444 F,0,48822,50322,0.75,0
Sprite,Background,Centre,"sb\sprites\tail-yellow-ci.jpg",320,240 F,0,45339,45639,0,0.75 S,0,45489,,0.4444444 F,0,48822,50322,0.75,0
Sprite,Background,Centre,"sb\sprites\pixel-white.png",320,240 V,0,2610,,854,480 F,0,2610,3210,0.15,0
Sprite,Background,Centre,"sb\sprites\pixel-white.png",320,240 V,0,3822,,854,480 F,0,3822,4422,0.15,0
Sprite,Background,Centre,"sb\sprites\pixel-white.png",320,240 V,0,5034,,854,480 F,0,5034,5634,0.15,0
Sprite,Background,Centre,"sb\sprites\pixel-white.png",320,240 V,0,5792,,854,480 F,0,5792,6392,0.15,0
Sprite,Background,Centre,"sb\sprites\pixel-white.png",320,240 V,0,6247,,854,480 F,0,6247,6847,0.15,0
Sprite,Background,Centre,"sb\sprites\pixel-white.png",320,240 V,0,7459,,854,480 F,0,7459,8059,0.15,0
Sprite,Background,Centre,"sb\sprites\pixel-white.png",320,240 V,0,9883,,854,480 F,0,9883,10483,0.15,0
Sprite,Background,Centre,"sb\sprites\pixel-white.png",320,240 V,0,12307,,854,480 F,0,12307,12907,0.15,0
Sprite,Background,Centre,"sb\sprites\pixel-white.png",320,240 V,0,13519,,854,480 F,0,13519,14119,0.15,0
Sprite,Background,Centre,"sb\sprites\pixel-white.png",320,240 V,0,14731,,854,480 F,0,14731,15331,0.15,0
Sprite,Background,Centre,"sb\sprites\pixel-white.png",320,240 V,0,15944,,854,480 F,0,15944,16544,0.15,0
Sprite,Background,Centre,"sb\sprites\pixel-white.png",320,240 V,0,17156,,854,480 F,0,17156,17756,0.15,0
Sprite,Background,Centre,"sb\sprites\pixel-white.png",320,240 V,0,18368,,854,480 F,0,18368,18968,0.15,0
Sprite,Background,Centre,"sb\sprites\pixel-white.png",320,240 V,0,19580,,854,480 F,0,19580,20180,0.15,0
Sprite,Background,Centre,"sb\sprites\pixel-white.png",320,240 V,0,20792,,854,480 F,0,20792,21392,0.15,0
Sprite,Background,Centre,"sb\sprites\pixel-white.png",320,240 V,0,22156,,854,480 F,0,22156,22756,0.15,0
Sprite,Background,Centre,"sb\sprites\pixel-white.png",320,240 V,0,23519,,854,480 F,0,23519,24119,0.15,0
Sprite,Background,Centre,"sb\sprites\pixel-white.png",320,240 V,0,23974,,854,480 F,0,23974,24574,0.15,0
Sprite,Background,Centre,"sb\sprites\pixel-white.png",320,240 V,0,24277,,854,480 F,0,24277,24877,0.15,0
Sprite,Background,Centre,"sb\sprites\pixel-white.png",320,240 V,0,24580,,854,480 F,0,24580,25180,0.15,0
Sprite,Background,Centre,"sb\sprites\pixel-white.png",320,240 V,0,25943,,854,480 F,0,25943,26543,0.15,0
Sprite,Background,Centre,"sb\sprites\pixel-white.png",320,240 V,0,26398,,854,480 F,0,26398,26998,0.15,0
Sprite,Background,Centre,"sb\sprites\pixel-white.png",320,240 V,0,26701,,854,480 F,0,26701,27301,0.15,0
Sprite,Background,Centre,"sb\sprites\pixel-white.png",320,240 V,0,27004,,854,480 F,0,27004,27604,0.15,0
Sprite,Background,Centre,"sb\sprites\pixel-white.png",320,240 V,0,29428,,854,480 F,0,29428,30028,0.15,0
Sprite,Background,Centre,"sb\sprites\pixel-white.png",320,240 V,0,30489,,854,480 F,0,30489,31089,0.15,0
Sprite,Background,Centre,"sb\sprites\pixel-white.png",320,240 V,0,31853,,854,480 F,0,31853,32453,0.15,0
Sprite,Background,Centre,"sb\sprites\pixel-white.png",320,240 V,0,32913,,854,480 F,0,32913,33513,0.15,0
Sprite,Background,Centre,"sb\sprites\pixel-white.png",320,240 V,0,34277,,854,480 F,0,34277,34877,0.15,0
Sprite,Background,Centre,"sb\sprites\pixel-white.png",320,240 V,0,35034,,854,480 F,0,35034,35634,0.15,0
Sprite,Background,Centre,"sb\sprites\pixel-white.png",320,240 V,0,35338,,854,480 F,0,35338,35938,0.15,0
Sprite,Background,Centre,"sb\sprites\pixel-white.png",320,240 V,0,36701,,854,480 F,0,36701,37301,0.15,0
Sprite,Background,Centre,"sb\sprites\pixel-white.png",320,240 V,0,37762,,854,480 F,0,37762,38362,0.15,0
Sprite,Background,Centre,"sb\sprites\pixel-white.png",320,240 V,0,39125,,854,480 F,0,39125,39725,0.15,0
Sprite,Background,Centre,"sb\sprites\pixel-white.png",320,240 V,0,39428,,854,480 F,0,39428,40028,0.15,0
Sprite,Background,Centre,"sb\sprites\pixel-white.png",320,240 V,0,39882,,854,480 F,0,39882,40482,0.15,0
Sprite,Background,Centre,"sb\sprites\pixel-white.png",320,240 V,0,40186,,854,480 F,0,40186,40786,0.15,0
Sprite,Background,Centre,"sb\sprites\pixel-white.png",320,240 V,0,41550,,854,480 F,0,41550,42150,0.15,0
Sprite,Background,Centre,"sb\sprites\pixel-white.png",320,240 V,0,45034,,854,480 F,0,45034,45634,0.15,0
Sprite,Background,Centre,"sb\sprites\pixel-white.png",320,240 V,0,46247,,854,480 F,0,46247,46847,0.15,0
Sprite,Background,Centre,"sb\sprites\pixel-white.png",320,240 V,0,48822,,854,480 F,0,48822,49422,0.15,0
Sprite,Background,Centre,"sb\sprites\pixel-white.png",320,240 V,0,49580,,854,480 F,0,49580,50180,0.15,0
Sprite,Background,Centre,"sb\sprites\pixel-white.png",320,240 V,0,49883,,854,480 F,0,49883,50483,0.15,0
Sprite,Background,Centre,"sb\sprites\pixel-white.png",320,240 V,0,50337,,854,480 F,0,50337,50937,0.15,0
Sprite,Background,Centre,"sb\sprites\pixel-white.png",320,240 V,0,53519,,854,480 F,0,53519,54119,0.15,0
Sprite,Background,Centre,"sb\sprites\pixel-white.png",320,240 V,0,54731,,854,480 F,0,54731,55331,0.15,0
Sprite,Background,Centre,"sb\sprites\pixel-white.png",320,240 V,0,55944,,854,480 F,0,55944,56544,0.15,0
Sprite,Background,Centre,"sb\sprites\pixel-white.png",320,240 V,0,57156,,854,480 F,0,57156,57756,0.15,0
Sprite,Background,Centre,"sb\sprites\pixel-white.png",320,240 V,0,58368,,854,480 F,0,58368,58968,0.15,0
Sprite,Background,Centre,"sb\sprites\pixel-white.png",320,240 V,0,59731,,854,480 F,0,59731,60331,0.15,0
Sprite,Background,Centre,"sb\sprites\pixel-white.png",320,240 V,0,60337,,854,480 F,0,60337,60937,0.15,0
Sprite,Background,Centre,"sb\sprites\pixel-white.png",320,240 V,0,61247,,854,480 F,0,61247,61847,0.15,0
Sprite,Background,Centre,"sb\sprites\pixel-white.png",320,240 V,0,62004,,854,480 F,0,62004,62604,0.15,0
Sprite,Background,Centre,"sb\sprites\pixel-white.png",320,240 V,0,63216,,854,480 F,0,63216,63816,0.15,0
Sprite,Background,Centre,"sb\sprites\pixel-white.png",320,240 V,0,64428,,854,480 F,0,64428,65028,0.15,0
Sprite,Background,Centre,"sb\sprites\pixel-white.png",320,240 V,0,65641,,854,480 F,0,65641,66241,0.15,0
Sprite,Background,Centre,"sb\sprites\pixel-white.png",320,240 V,0,68065,,854,480 F,0,68065,68665,0.15,0
Sprite,Background,Centre,"sb\sprites\pixel-white.png",320,240 V,0,69428,,854,480 F,0,69428,70028,0.15,0
Sprite,Background,Centre,"sb\sprites\pixel-white.png",320,240 V,0,70489,,854,480 F,0,70489,71089,0.15,0
Sprite,Background,Centre,"sb\sprites\pixel-white.png",320,240 V,0,71853,,854,480 F,0,71853,72453,0.15,0
Sprite,Background,Centre,"sb\sprites\pixel-white.png",320,240 V,0,72913,,854,480 F,0,72913,73513,0.15,0
Sprite,Background,Centre,"sb\sprites\pixel-white.png",320,240 V,0,75338,,854,480 F,0,75338,75938,0.15,0
Sprite,Background,Centre,"sb\sprites\pixel-white.png",320,240 V,0,76701,,854,480 F,0,76701,77301,0.15,0
Sprite,Background,Centre,"sb\sprites\pixel-white.png",320,240 V,0,78974,,854,480 F,0,78974,79574,0.15,0
Sprite,Background,Centre,"sb\sprites\pixel-white.png",320,240 V,0,80186,,854,480 F,0,80186,80786,0.15,0
Sprite,Background,Centre,"sb\sprites\pixel-white.png",320,240 V,0,81398,,854,480 F,0,81398,81998,0.15,0
Sprite,Background,Centre,"sb\sprites\pixel-white.png",320,240 V,0,83974,,854,480 F,0,83974,84574,0.15,0
//Storyboard Layer 1 (Fail)
//Storyboard Layer 2 (Pass)
//Storyboard Layer 3 (Foreground)
Sprite,Foreground,Centre,"sb\lyrics\004e.png",0,0 F,0,12207,12407,0,0.8 M,0,12307,,674.3,398.325 S,0,12307,,0.45 C,0,12307,,255,255,255 F,0,86904,87104,0.8,0
Sprite,Foreground,Centre,"sb\lyrics\0061.png",0,0 F,0,12207,12407,0,0.8 M,0,12307,,684.425,400.125 S,0,12307,,0.45 C,0,12307,,255,255,255 F,0,86904,87104,0.8,0
Sprite,Foreground,Centre,"sb\lyrics\0074.png",0,0 F,0,12207,12407,0,0.8 M,0,12307,,693.875,398.55 S,0,12307,,0.45 C,0,12307,,255,255,255 F,0,86904,87104,0.8,0
Sprite,Foreground,Centre,"sb\lyrics\0074.png",0,0 F,0,12207,12407,0,0.8 M,0,12307,,703.775,398.55 S,0,12307,,0.45 C,0,12307,,255,255,255 F,0,86904,87104,0.8,0
Sprite,Foreground,Centre,"sb\lyrics\0065.png",0,0 F,0,12207,12407,0,0.8 M,0,12307,,713.675,400.575 S,0,12307,,0.45 C,0,12307,,255,255,255 F,0,86904,87104,0.8,0
Sprite,Foreground,Centre,"sb\lyrics\006b.png",0,0 F,0,12207,12407,0,0.8 M,0,12307,,723.8001,398.1 S,0,12307,,0.45 C,0,12307,,255,255,255 F,0,86904,87104,0.8,0
Sprite,Foreground,Centre,"sb\lyrics\0065.png",0,0 F,0,12207,12407,0,0.8 M,0,12307,,733.4751,400.575 S,0,12307,,0.45 C,0,12307,,255,255,255 F,0,86904,87104,0.8,0
Sprite,Foreground,Centre,"sb\lyrics\004e.png",0,0 F,0,12207,12407,0,0.8 M,0,12307,,575.8,433.55 S,0,12307,,0.3 C,0,12307,,255,255,255 F,0,86904,87104,0.8,0
Sprite,Foreground,Centre,"sb\lyrics\0061.png",0,0 F,0,12207,12407,0,0.8 M,0,12307,,582.55,434.75 S,0,12307,,0.3 C,0,12307,,255,255,255 F,0,86904,87104,0.8,0
Sprite,Foreground,Centre,"sb\lyrics\0074.png",0,0 F,0,12207,12407,0,0.8 M,0,12307,,588.85,433.7 S,0,12307,,0.3 C,0,12307,,255,255,255 F,0,86904,87104,0.8,0
Sprite,Foreground,Centre,"sb\lyrics\0074.png",0,0 F,0,12207,12407,0,0.8 M,0,12307,,595.45,433.7 S,0,12307,,0.3 C,0,12307,,255,255,255 F,0,86904,87104,0.8,0
Sprite,Foreground,Centre,"sb\lyrics\0065.png",0,0 F,0,12207,12407,0,0.8 M,0,12307,,602.0499,435.05 S,0,12307,,0.3 C,0,12307,,255,255,255 F,0,86904,87104,0.8,0
Sprite,Foreground,Centre,"sb\lyrics\006b.png",0,0 F,0,12207,12407,0,0.8 M,0,12307,,608.7999,433.4 S,0,12307,,0.3 C,0,12307,,255,255,255 F,0,86904,87104,0.8,0
Sprite,Foreground,Centre,"sb\lyrics\0065.png",0,0 F,0,12207,12407,0,0.8 M,0,12307,,615.2499,435.05 S,0,12307,,0.3 C,0,12307,,255,255,255 F,0,86904,87104,0.8,0
Sprite,Foreground,Centre,"sb\lyrics\0027.png",0,0 F,0,12207,12407,0,0.8 M,0,12307,,620.6498,430.25 S,0,12307,,0.3 C,0,12307,,255,255,255 F,0,86904,87104,0.8,0
Sprite,Foreground,Centre,"sb\lyrics\0073.png",0,0 F,0,12207,12407,0,0.8 M,0,12307,,628.5998,434.9 S,0,12307,,0.3 C,0,12307,,255,255,255 F,0,86904,87104,0.8,0
Sprite,Foreground,Centre,"sb\lyrics\004f.png",0,0 F,0,12207,12407,0,0.8 M,0,12307,,641.6498,433.4 S,0,12307,,0.3 C,0,12307,,255,255,255 F,0,86904,87104,0.8,0
Sprite,Foreground,Centre,"sb\lyrics\006c.png",0,0 F,0,12207,12407,0,0.8 M,0,12307,,648.3997,433.4 S,0,12307,,0.3 C,0,12307,,255,255,255 F,0,86904,87104,0.8,0
Sprite,Foreground,Centre,"sb\lyrics\0064.png",0,0 F,0,12207,12407,0,0.8 M,0,12307,,654.8497,433.55 S,0,12307,,0.3 C,0,12307,,255,255,255 F,0,86904,87104,0.8,0
Sprite,Foreground,Centre,"sb\lyrics\0073.png",0,0 F,0,12207,12407,0,0.8 M,0,12307,,661.5997,434.9 S,0,12307,,0.3 C,0,12307,,255,255,255 F,0,86904,87104,0.8,0
Sprite,Foreground,Centre,"sb\lyrics\006b.png",0,0 F,0,12207,12407,0,0.8 M,0,12307,,668.1996,433.4 S,0,12307,,0.3 C,0,12307,,255,255,255 F,0,86904,87104,0.8,0
Sprite,Foreground,Centre,"sb\lyrics\006f.png",0,0 F,0,12207,12407,0,0.8 M,0,12307,,674.6497,434.6 S,0,12307,,0.3 C,0,12307,,255,255,255 F,0,86904,87104,0.8,0
Sprite,Foreground,Centre,"sb\lyrics\006f.png",0,0 F,0,12207,12407,0,0.8 M,0,12307,,681.2496,434.6 S,0,12307,,0.3 C,0,12307,,255,255,255 F,0,86904,87104,0.8,0
Sprite,Foreground,Centre,"sb\lyrics\006c.png",0,0 F,0,12207,12407,0,0.8 M,0,12307,,687.9996,433.4 S,0,12307,,0.3 C,0,12307,,255,255,255 F,0,86904,87104,0.8,0
Sprite,Foreground,Centre,"sb\lyrics\0049.png",0,0 F,0,12207,12407,0,0.8 M,0,12307,,701.0496,433.55 S,0,12307,,0.3 C,0,12307,,255,255,255 F,0,86904,87104,0.8,0
Sprite,Foreground,Centre,"sb\lyrics\006e.png",0,0 F,0,12207,12407,0,0.8 M,0,12307,,707.9495,434.6 S,0,12307,,0.3 C,0,12307,,255,255,255 F,0,86904,87104,0.8,0
Sprite,Foreground,Centre,"sb\lyrics\0073.png",0,0 F,0,12207,12407,0,0.8 M,0,12307,,714.3995,434.9 S,0,12307,,0.3 C,0,12307,,255,255,255 F,0,86904,87104,0.8,0
Sprite,Foreground,Centre,"sb\lyrics\0061.png",0,0 F,0,12207,12407,0,0.8 M,0,12307,,721.1495,434.75 S,0,12307,,0.3 C,0,12307,,255,255,255 F,0,86904,87104,0.8,0
Sprite,Foreground,Centre,"sb\lyrics\006e.png",0,0 F,0,12207,12407,0,0.8 M,0,12307,,727.7495,434.6 S,0,12307,,0.3 C,0,12307,,255,255,255 F,0,86904,87104,0.8,0
Sprite,Foreground,Centre,"sb\lyrics\0065.png",0,0 F,0,12207,12407,0,0.8 M,0,12307,,734.0494,435.05 S,0,12307,,0.3 C,0,12307,,255,255,255 F,0,86904,87104,0.8,0
//Storyboard Layer 4 (Overlay)
//Storyboard Sound Samples

[TimingPoints]
323,303.030303030303,4,2,1,50,1,0
323,-100,4,2,1,50,0,0
1004,-100,4,2,1,5,0,0
1156,-100,4,2,1,50,0,0
2444,-100,4,2,1,70,0,0
6080,-100,4,1,1,65,0,0
22141,-100,4,2,1,50,0,0
30701,-100,4,2,1,70,0,0
31838,-100,4,2,1,70,0,0
53126,-100,4,1,1,5,0,0
53353,-100,4,1,1,65,0,0
78656,-100,4,2,1,5,0,0
78883,-100,4,1,1,65,0,0

[Colours]
Combo1 : 192,192,192
Combo2 : 255,50,50
Combo3 : 255,125,125
Combo4 : 25,100,255
Combo5 : 50,150,255
Combo6 : 255,255,50
Combo7 : 255,255,150
Combo8 : 128,128,128

[HitObjects]
164,100,323,102,0,L|80:92,2,70
252,160,777,2,0,P|320:156|404:144,1,140
316,280,1232,6,0,L|400:272,2,70
228,340,1686,2,0,P|160:336|76:324,1,140,0|2,0:0|0:0,0:0:0:0:
44,232,2141,1,8,0:0:0:0:
44,232,2292,1,8,0:0:0:0:
144,80,2595,5,6,0:0:0:0:
368,80,3807,5,6,0:0:0:0:
368,80,4262,1,0,0:0:0:0:
368,304,4868,1,0,0:0:0:0:
292,352,5019,2,0,P|192:348|144:344,1,140,6|0,0:0|0:0,0:0:0:0:
72,300,5474,1,0,0:0:0:0:
108,120,5777,1,6,0:0:0:0:
372,48,6232,102,0,P|368:92|348:200,1,140,4|8,0:0|0:0,0:0:0:0:
400,320,6686,2,0,P|416:276|432:248,1,70,8|8,0:0|0:0,0:0:0:0:
304,276,6989,2,0,L|220:268,1,70,8|8,0:0|0:0,0:0:0:0:
72,296,7292,1,8,0:0:0:0:
128,208,7444,22,0,P|128:144|140:68,1,140,4|0,0:0|0:0,0:0:0:0:
260,36,7898,2,0,L|329:32,1,70,8|0,0:0|2:0,0:0:0:0:
368,160,8201,2,0,L|298:163,1,70,8|0,0:0|2:0,0:0:0:0:
332,296,8504,2,0,L|401:292,1,70,8|0,0:0|2:0,0:0:0:0:
464,216,8807,21,8,0:0:0:0:
264,236,9110,1,8,0:0:0:0:
88,200,9413,1,8,0:0:0:0:
264,236,9716,1,8,0:0:0:0:
264,236,9868,86,0,P|280:176|292:92,1,140,4|0,0:0|0:0,0:0:0:0:
192,40,10323,2,0,P|176:84|172:112,1,70,8|0,0:0|2:0,0:0:0:0:
404,200,10626,2,0,P|397:165|384:133,1,70,8|0,0:0|2:0,0:0:0:0:
232,280,10929,2,0,P|268:308|304:320,1,70,8|0,0:0|2:0,0:0:0:0:
392,348,11232,21,8,0:0:0:0:
168,332,11535,1,8,0:0:0:0:
188,144,11838,1,8,0:0:0:0:
276,100,11989,1,8,0:0:0:0:
276,100,12065,1,8,0:0:0:0:
276,100,12141,1,8,0:0:0:0:
372,124,12292,86,0,P|376:180|368:268,1,140,6|2,0:0|0:0,0:0:0:0:
280,332,12747,2,0,P|220:328|196:324,1,70,10|0,0:0|0:0,0:0:0:0:
40,272,13050,2,0,P|100:268|124:264,2,70,2|0|8,0:0|0:0|0:0,0:0:0:0:
200,200,13504,6,0,P|264:200|352:216,1,140,6|0,0:0|0:0,0:0:0:0:
448,224,13959,2,0,P|476:180|484:160,1,70,10|0,0:0|0:0,0:0:0:0:
376,40,14262,2,0,P|376:88|380:124,2,70,2|2|8,0:0|0:0|0:0,0:0:0:0:
272,92,14716,102,2,P|200:100|128:96,1,140,6|2,0:0|0:0,0:0:0:0:
200,208,15171,2,0,P|193:242|189:277,1,70,8|0,0:0|0:0,0:0:0:0:
316,352,15474,2,0,P|316:304|312:272,1,70,2|2,0:0|0:0,0:0:0:0:
432,256,15777,1,8,0:0:0:0:
436,136,15929,6,2,P|368:144|312:212,1,140,6|0,0:0|0:0,0:0:0:0:
340,296,16383,1,10,0:0:0:0:
116,336,16686,1,2,0:0:0:0:
116,336,16762,1,0,0:0:0:0:
116,336,16838,1,0,0:0:0:0:
56,232,16989,1,8,0:0:0:0:
108,128,17141,102,2,P|177:142|248:152,1,140,6|0,0:0|0:0,0:0:0:0:
400,64,17595,2,2,P|352:80|316:88,1,70,10|0,0:0|0:0,0:0:0:0:
460,200,17898,2,2,P|426:191|393:179,2,70,2|2|8,0:0|0:0|0:0,0:0:0:0:
472,300,18353,6,2,P|388:304|328:316,1,140,4|0,0:0|0:0,0:0:0:0:
232,268,18807,2,0,P|184:264|152:256,1,70,10|0,0:0|0:0,0:0:0:0:
32,172,19110,2,0,P|72:180|104:200,2,70,2|2|0,0:0|0:0|0:0,0:0:0:0:
108,80,19565,102,2,L|248:76,1,140,4|0,0:0|0:0,0:0:0:0:
348,128,20019,2,0,P|384:112|416:88,1,70,10|0,0:0|0:0,0:0:0:0:
264,176,20323,2,0,P|272:224|288:248,1,70,0|2,0:0|0:0,0:0:0:0:
372,304,20626,1,8,0:0:0:0:
372,304,20777,6,2,P|320:324|232:336,1,140,6|0,0:0|0:0,0:0:0:0:
136,296,21232,1,8,0:0:0:0:
216,128,21535,1,8,0:0:0:0:
308,100,21686,1,8,0:0:0:0:
336,192,21838,1,8,0:0:0:0:
244,220,21989,1,8,0:0:0:0:
216,128,22141,54,0,P|216:84|224:48,1,70,4|0,1:0|0:0,0:0:0:0:
384,36,22444,2,0,P|389:70|388:105,1,70,2|0,0:0|0:0,0:0:0:0:
420,232,22747,2,0,L|496:240,1,70,2|0,0:0|0:0,0:0:0:0:
364,340,23050,2,0,L|288:348,1,70,2|0,0:0|0:0,0:0:0:0:
168,328,23353,86,0,P|168:284|176:252,1,70,2|4,0:0|0:0,0:0:0:0:
272,196,23656,2,0,L|356:192,1,70,2|0,0:0|0:0,0:0:0:0:
400,108,23959,1,6,0:0:0:0:
420,312,24262,1,6,0:0:0:0:
248,216,24565,22,0,P|184:208|156:204,1,70,4|0,1:0|0:0,0:0:0:0:
56,152,24868,2,0,P|40:188|40:228,1,70,2|0,0:0|0:0,0:0:0:0:
112,324,25171,2,0,P|112:276|104:252,1,70,2|0,0:0|0:0,0:0:0:0:
208,316,25474,2,0,L|288:304,1,70
420,264,25777,86,0,L|350:253,1,70,2|4,0:0|0:0,0:0:0:0:
300,172,26080,2,0,L|312:100,1,70,2|0,0:0|0:0,0:0:0:0:
404,52,26383,1,6,0:0:0:0:
180,36,26686,1,6,0:0:0:0:
96,104,26838,1,0,1:0:0:0:
96,104,26913,1,0,1:0:0:0:
96,104,26989,22,0,P|112:144|136:176,1,70,4|0,1:0|0:0,0:0:0:0:
304,212,27292,2,0,L|234:208,1,70,2|0,0:0|0:0,0:0:0:0:
144,336,27595,2,0,L|147:266,2,70,0|0|2,0:0|0:0|0:0,0:0:0:0:
256,300,28050,1,0,0:0:0:0:
360,316,28201,86,0,P|400:312|432:312,1,70,2|0,0:0|1:0,0:0:0:0:
364,204,28504,2,0,P|300:208|220:208,1,140,2|0,0:0|1:0,0:0:0:0:
104,60,29110,1,0,1:0:0:0:
284,32,29413,22,0,P|336:40|372:44,1,70,4|0,1:0|0:0,0:0:0:0:
456,72,29716,1,8,0:0:0:0:
436,300,30019,1,8,0:0:0:0:
436,300,30171,2,0,P|452:228|460:156,1,140,0|4,1:0|1:0,0:0:0:0:
260,192,30777,85,2,0:0:0:0:
164,224,30929,2,0,P|156:264|152:304,1,70,8|0,0:0|0:0,0:0:0:0:
288,376,31232,2,0,P|283:341|276:306,1,70,2|2,0:0|0:0,0:0:0:0:
376,260,31535,1,8,0:0:0:0:
408,160,31686,1,8,0:0:0:0:
408,160,31762,1,8,0:0:0:0:
408,160,31838,102,0,P|408:100|404:80,1,70,4|0,1:0|0:0,0:0:0:0:
316,40,32141,2,0,L|240:36,1,70,8|0,0:0|2:0,0:0:0:0:
152,96,32444,1,2,0:0:0:0:
208,180,32595,1,2,0:0:0:0:
296,124,32747,1,8,0:0:0:0:
208,188,32898,6,0,P|144:236|84:264,1,140,4|2,0:0|0:0,0:0:0:0:
48,176,33353,2,0,P|49:141|56:106,1,70,8|0,0:0|0:0,0:0:0:0:
155,36,33656,2,0,P|162:70|164:105,1,70,2|2,0:0|0:0,0:0:0:0:
272,56,33959,2,0,P|304:68|360:76,1,70,8|0,0:0|0:0,0:0:0:0:
440,32,34262,102,0,P|452:96|440:180,1,140,4|8,1:0|0:0,0:0:0:0:
404,264,34716,1,0,0:0:0:0:
320,312,34868,2,0,L|240:300,1,70,2|4,0:0|0:0,0:0:0:0:
152,296,35171,1,8,0:0:0:0:
60,340,35323,6,0,P|60:268|100:208,1,140,4|0,1:0|0:0,0:0:0:0:
208,196,35777,2,0,L|292:200,1,70,8|0,0:0|0:0,0:0:0:0:
348,304,36080,2,0,L|264:308,1,70,2|2,0:0|0:0,0:0:0:0:
162,349,36383,2,0,L|172:280,1,70,8|8,0:0|0:0,0:0:0:0:
277,199,36686,102,0,L|425:191,1,140,4|8,1:0|0:0,0:0:0:0:
48,176,37292,1,2,0:0:0:0:
84,96,37444,1,2,0:0:0:0:
140,164,37595,1,8,0:0:0:0:
48,176,37747,6,0,P|44:112|64:36,1,140,4|0,1:0|0:0,0:0:0:0:
176,36,38201,2,0,L|248:32,1,70,8|0,0:0|0:0,0:0:0:0:
368,108,38504,2,0,L|296:104,1,70,2|2,0:0|0:0,0:0:0:0:
200,156,38807,1,8,0:0:0:0:
280,220,38959,1,0,1:0:0:0:
280,220,39035,1,0,1:0:0:0:
280,220,39110,102,2,L|284:300,1,70,4|2,1:0|0:0,0:0:0:0:
388,348,39413,2,0,L|396:268,1,70,12|0,0:0|0:0,0:0:0:0:
176,264,39716,2,0,L|182:333,1,70,2|6,0:0|0:0,0:0:0:0:
64,304,40019,1,8,0:0:0:0:
88,196,40171,6,0,P|152:160|224:168,1,140,4|0,1:0|0:0,0:0:0:0:
312,216,40626,1,8,0:0:0:0:
344,128,40777,1,2,0:0:0:0:
472,92,40929,1,8,0:0:0:0:
440,180,41080,1,2,0:0:0:0:
312,204,41232,1,8,0:0:0:0:
344,116,41383,1,8,0:0:0:0:
444,188,41535,54,0,P|422:252|396:324,1,140,4|0,1:0|0:0,0:0:0:0:
300,364,41989,1,0,0:0:0:0:
224,308,42141,2,0,P|244:240|270:175,1,140,8|2,0:0|0:0,0:0:0:0:
244,80,42595,1,0,0:0:0:0:
148,32,42747,102,0,P|140:64|136:104,1,70,2|0,0:0|0:0,0:0:0:0:
255,200,43050,2,0,P|252:165|244:132,1,70,2|2,0:0|0:0,0:0:0:0:
136,200,43353,37,8,0:0:0:0:
136,200,43504,2,0,P|69:218|20:280,1,140,2|10,0:0|0:0,0:0:0:0:
116,312,43959,102,0,L|192:344,1,70,2|0,0:0|0:0,0:0:0:0:
336,328,44262,2,0,L|260:296,1,70,8|0,0:0|0:0,0:0:0:0:
440,292,44565,1,2,0:0:0:0:
440,292,44716,1,2,0:0:0:0:
392,64,45019,2,0,P|376:144|352:200,1,140,12|2,0:0|0:0,0:0:0:0:
216,160,45474,38,0,P|216:208|220:240,1,70,8|0,0:0|0:0,0:0:0:0:
308,328,45777,2,0,P|308:293|305:258,1,70,2|2,0:0|0:0,0:0:0:0:
216,328,46080,1,8,0:0:0:0:
216,328,46232,102,0,B|140:320|160:368|60:348,1,140,4|2,1:0|0:0,0:0:0:0:
44,256,46686,1,0,0:0:0:0:
44,256,46838,1,2,0:0:0:0:
120,184,46989,1,8,0:0:0:0:
120,184,47141,1,0,0:0:0:0:
224,180,47292,2,0,P|248:132|256:108,1,70,2|0,0:0|0:0,0:0:0:0:
332,56,47595,6,0,L|412:48,1,70,2|0,0:0|0:0,0:0:0:0:
396,200,47898,2,0,L|316:192,1,70,2|2,0:0|0:0,0:0:0:0:
104,168,48201,2,8,L|114:237,1,70,8|2,0:0|0:0,0:0:0:0:
224,180,48504,2,0,L|236:104,1,70,8|8,0:0|0:0,0:0:0:0:
80,48,48807,22,0,L|228:36,2,140,6|0|8,0:0|0:0|0:0,0:0:0:0:
231,180,49565,2,0,L|235:104,1,70,4|0,0:0|0:0,0:0:0:0:
108,164,49868,2,0,L|104:308,1,140,4|8,0:0|0:0,0:0:0:0:
220,268,50322,1,4,0:0:0:0:
316,304,50474,1,0,0:0:0:0:
416,332,50626,101,4,3:0:0:0:
412,156,50929,1,4,3:0:0:0:
268,40,51232,102,0,P|256:108|248:184,1,140,2|0,1:0|2:0,0:0:0:0:
168,248,51686,2,0,P|112:244|84:240,1,70,2|0,1:0|0:0,0:0:0:0:
292,336,51989,2,0,P|236:332|208:328,1,70,2|0,1:0|0:0,0:0:0:0:
392,272,52292,1,2,1:0:0:0:
256,192,52444,12,0,53201,2:0:0:0:
40,276,53504,38,0,P|116:272|188:264,1,140,6|0,0:0|0:0,0:0:0:0:
396,272,53959,2,2,P|360:272|232:260,1,140,10|0,0:0|2:0,0:0:0:0:
292,152,54413,1,2,0:0:0:0:
372,120,54565,1,8,0:0:0:0:
144,96,54716,6,2,P|208:108|304:120,1,140,4|2,0:0|0:0,0:0:0:0:
396,176,55171,2,0,P|444:160|468:144,1,70,10|0,0:0|2:0,0:0:0:0:
508,272,55474,2,2,P|452:268|360:276,1,140,2|8,0:0|0:0,0:0:0:0:
140,292,55929,102,0,P|204:316|284:308,1,140,6|0,0:0|0:0,0:0:0:0:
312,200,56383,2,0,P|320:140|320:116,1,70,10|0,0:0|2:0,0:0:0:0:
196,24,56686,2,0,P|192:60|192:100,2,70,0|2|8,0:0|0:0|2:0,0:0:0:0:
208,196,57141,6,0,P|120:188|64:180,1,140,6|2,0:0|0:0,0:0:0:0:
48,80,57595,1,10,0:0:0:0:
184,104,57747,1,0,3:0:0:0:
280,184,57898,2,0,L|284:260,2,70,2|2|8,0:0|0:0|0:0,0:0:0:0:
360,88,58353,102,2,P|424:116|432:184,1,140,4|0,0:0|0:0,0:0:0:0:
320,304,58807,2,0,L|310:234,1,70,10|0,0:0|2:0,0:0:0:0:
468,280,59110,2,0,L|458:349,1,70,2|0,0:0|2:0,0:0:0:0:
392,232,59413,2,0,P|392:132|396:72,1,140,10|4,0:0|0:0,0:0:0:0:
192,56,60019,5,10,0:0:0:0:
144,244,60322,1,6,0:0:0:0:
352,296,60626,1,10,0:0:0:0:
400,100,60929,102,0,P|392:136|380:168,1,70,10|0,0:0|0:0,0:0:0:0:
252,120,61232,1,4,2:0:0:0:
160,208,61383,2,0,P|148:264|144:352,2,140,2|2|6,0:0|0:0|0:0,0:0:0:0:
88,76,62292,5,0,0:0:0:0:
88,76,62444,2,0,P|136:76|240:60,1,140,10|0,0:0|0:0,0:0:0:0:
320,52,62898,2,0,P|384:36|420:36,1,70,2|0,0:0|2:0,0:0:0:0:
468,116,63201,102,0,P|484:160|456:256,1,140,6|0,0:0|0:0,0:0:0:0:
304,216,63656,2,0,L|388:228,1,70,10|0,0:0|2:0,0:0:0:0:
256,292,63959,1,0,0:0:0:0:
160,300,64110,1,2,0:0:0:0:
68,308,64262,1,8,0:0:0:0:
208,364,64413,6,0,P|208:288|216:216,1,140,6|0,0:0|0:0,0:0:0:0:
312,168,64868,2,0,L|392:176,1,70,10|0,0:0|2:0,0:0:0:0:
260,100,65171,1,0,0:0:0:0:
180,116,65322,1,2,0:0:0:0:
100,132,65474,1,8,0:0:0:0:
64,40,65626,102,0,P|136:52|216:56,1,140,6|0,0:0|0:0,0:0:0:0:
312,108,66080,2,0,P|364:104|396:96,1,70,10|0,0:0|2:0,0:0:0:0:
496,28,66383,2,0,L|476:100,1,70,2|2,0:0|0:0,0:0:0:0:
460,184,66686,1,8,0:0:0:0:
460,184,66838,2,0,P|440:224|420:320,1,140,2|0,0:0|0:0,0:0:0:0:
324,268,67292,2,0,P|284:264|248:264,1,70,10|0,0:0|2:0,0:0:0:0:
100,308,67595,2,0,P|136:291|171:280,1,70,8|8,0:0|0:0,0:0:0:0:
200,200,67898,1,8,0:0:0:0:
200,200,68050,6,0,P|196:136|212:52,1,140,4|0,0:0|0:0,0:0:0:0:
328,36,68504,2,0,L|480:28,2,140,8|0|8,0:0|0:0|0:0,0:0:0:0:
149,156,69413,102,0,L|92:196,1,70,4|0,0:0|2:0,0:0:0:0:
265,269,69716,2,0,L|260:200,1,70,8|0,0:0|2:0,0:0:0:0:
100,301,70019,2,0,L|164:332,1,70
176,240,70323,1,8,0:0:0:0:
216,164,70474,6,0,P|312:176|384:180,1,140,4|0,0:0|0:0,0:0:0:0:
416,108,70929,1,8,0:0:0:0:
368,336,71232,1,0,0:0:0:0:
316,264,71383,1,0,0:0:0:0:
280,344,71535,1,8,0:0:0:0:
64,112,71838,102,0,L|160:96,1,70,4|0,0:0|2:0,0:0:0:0:
260,40,72141,2,0,L|228:108,1,70,8|0,0:0|2:0,0:0:0:0:
224,236,72444,2,0,L|184:176,1,70,8|8,0:0|0:0,0:0:0:0:
296,168,72747,1,8,0:0:0:0:
312,260,72898,22,0,P|364:304|440:344,1,140,4|0,0:0|0:0,0:0:0:0:
492,276,73353,1,8,0:0:0:0:
336,104,73656,1,8,0:0:0:0:
244,312,73959,1,8,0:0:0:0:
492,276,74262,1,8,0:0:0:0:
336,104,74565,1,8,0:0:0:0:
248,312,74868,2,0,P|168:304|96:280,1,140,8|0,0:0|0:0,0:0:0:0:
24,164,75323,22,0,P|104:172|176:196,1,140,12|0,0:0|0:0,0:0:0:0:
212,112,75777,1,8,0:0:0:0:
40,268,76080,1,8,0:0:0:0:
248,360,76383,1,8,0:0:0:0:
212,112,76686,1,4,0:0:0:0:
256,192,76838,12,0,78656,2:0:0:0:
208,176,78959,86,2,P|144:168|68:144,1,140,6|2,1:0|0:0,0:0:0:0:
36,260,79413,2,2,P|88:244|116:244,1,70,10|2,0:0|2:0,0:0:0:0:
184,276,79716,2,0,L|340:292,1,140,2|2,0:0|0:0,0:0:0:0:
392,356,80171,6,2,P|416:292|416:208,1,140,6|2,0:0|0:0,0:0:0:0:
332,164,80626,2,0,P|324:112|324:84,1,70,10|0,0:0|0:0,0:0:0:0:
412,32,80929,2,0,P|420:84|420:112,1,70,2|2,0:0|0:0,0:0:0:0:
508,160,81232,1,8,0:0:0:0:
424,216,81383,102,2,P|324:204|264:192,1,140,6|2,0:0|0:0,0:0:0:0:
208,144,81838,2,2,P|168:196|172:272,1,140,10|2,0:0|0:0,0:0:0:0:
244,348,82292,1,0,0:0:0:0:
328,288,82444,1,10,0:0:0:0:
332,188,82595,6,2,P|335:119|294:64,1,140,2|0,0:0|0:0,0:0:0:0:
188,48,83050,2,2,L|108:44,1,70,10|0,0:0|2:0,0:0:0:0:
20,136,83353,2,0,L|96:132,1,70,10|2,0:0|0:0,0:0:0:0:
184,172,83656,2,0,P|248:168|328:160,1,140,10|4,0:0|0:0,0:0:0:0:
256,192,84110,12,4,85019,0:0:0:0:
