osu file format v14

[General]
AudioFilename: audio.mp3
AudioLeadIn: 500
PreviewTime: 52595
Countdown: 0
SampleSet: Soft
StackLeniency: 0.7
Mode: 0
LetterboxInBreaks: 0
EpilepsyWarning: 1
WidescreenStoryboard: 1

[Editor]
DistanceSpacing: 1.7
BeatDivisor: 4
GridSize: 32
TimelineZoom: 2.3

[Metadata]
Title:Twintail Dreamer! (TV Size)
TitleUnicode:ツインテール・ドリーマー! (TV Size)
Artist:Twin-Tails
ArtistUnicode:ツインテイルズ
Creator:Moecho
Version:Lecana's Insane
Source:俺、ツインテールになります。
Tags:Twintails OreTwi Ore, Tsuinteru Tsuintēru ni Narimasu. Gonna be the Twin-Tail!! テイルレッド Tail Red 上坂すみれ Uesaka Sumire テイルブルー Blue 相坂優歌 Aisaka Yuuka テイルイエロー Yellow 赤﨑千夏 Akasaki Chinatsu Ending Theme ED TV Size edit Anime papiyon japanese pop j-pop jpop Kodora Laurier Natteke Kite HabiHolic Loneight L18 Lecana Giralda captin1 jonathanlfj apaffy kisata Nyquill RLC LunarSakuya Mythol meiikyuu Syameimaru-Aya Ayaya caren_sk CRN kiddly Axarious Delis ShirohaMyMommy SMM Koiyuki Minakami Yuki yf_bmp yf Skystar Amamiya Yuko rui rustbell spro sprosive Snow Note 7odoa bakabaka Hollow Wings HW
BeatmapID:2342418
BeatmapSetID:1115213

[Difficulty]
HPDrainRate:7
CircleSize:3.8
OverallDifficulty:7
ApproachRate:9
SliderMultiplier:1.6
SliderTickRate:1

[Events]
//Background and Video events
0,0,"bg.jpg",0,0
//Break Periods
//Storyboard Layer 0 (Background)
Sprite,Background,Centre,"sb\sprites\pixel-white.png",320,240 F,0,-60,,0,1 C,0,-60,,0,0,0 V,0,-60,,880,480 F,0,89619,,1,0
Sprite,Background,Centre,"bg.jpg",320,240 F,0,-2559,-1559,0,0.75 S,0,-1559,,0.4444444 F,0,337,487,0.75,0
Sprite,Background,Centre,"bg.jpg",320,240 F,0,88125,89125,0,0.75 S,0,89125,,0.4444444 F,0,89784,89934,0.75,0
Sprite,Background,Centre,"sb\sprites\bg-alt.jpg",320,240 F,0,187,337,0,0.75 S,0,337,,0.4444444 F,0,21156,22306,0.75,0
Sprite,Background,Centre,"sb\sprites\bg-alt.jpg",320,240 F,0,53369,53519,0,0.75 S,0,53519,,0.4444444 F,0,88125,89275,0.75,0
Sprite,Background,Centre,"sb\sprites\bg-alt-bw.jpg",320,240 F,0,22006,22306,0,0.75 S,0,22156,,0.4444444 F,0,39686,40486,0.75,0
Sprite,Background,Centre,"sb\sprites\bg-alt-bw.jpg",320,240 F,0,50491,50791,0,0.75 S,0,50641,,0.4444444 F,0,51807,52607,0.75,0
Sprite,Background,Centre,"sb\sprites\tail-red-ci.jpg",320,240 F,0,40794,41094,0,0.75 S,0,40944,,0.4444444 F,0,48822,50322,0.75,0
Sprite,Background,Centre,"sb\sprites\tail-blue-ci.jpg",320,240 F,0,42915,43215,0,0.75 S,0,43065,,0.4444444 F,0,48822,50322,0.75,0
Sprite,Background,Centre,"sb\sprites\tail-yellow-ci.jpg",320,240 F,0,45339,45639,0,0.75 S,0,45489,,0.4444444 F,0,48822,50322,0.75,0
Sprite,Background,Centre,"sb\sprites\pixel-white.png",320,240 V,0,2610,,854,480 F,0,2610,3210,0.15,0
Sprite,Background,Centre,"sb\sprites\pixel-white.png",320,240 V,0,3822,,854,480 F,0,3822,4422,0.15,0
Sprite,Background,Centre,"sb\sprites\pixel-white.png",320,240 V,0,5034,,854,480 F,0,5034,5634,0.15,0
Sprite,Background,Centre,"sb\sprites\pixel-white.png",320,240 V,0,5792,,854,480 F,0,5792,6392,0.15,0
Sprite,Background,Centre,"sb\sprites\pixel-white.png",320,240 V,0,6247,,854,480 F,0,6247,6847,0.15,0
Sprite,Background,Centre,"sb\sprites\pixel-white.png",320,240 V,0,7459,,854,480 F,0,7459,8059,0.15,0
Sprite,Background,Centre,"sb\sprites\pixel-white.png",320,240 V,0,12307,,854,480 F,0,12307,12907,0.15,0
Sprite,Background,Centre,"sb\sprites\pixel-white.png",320,240 V,0,22156,,854,480 F,0,22156,22756,0.15,0
Sprite,Background,Centre,"sb\sprites\pixel-white.png",320,240 V,0,31853,,854,480 F,0,31853,32453,0.15,0
Sprite,Background,Centre,"sb\sprites\pixel-white.png",320,240 V,0,41550,,854,480 F,0,41550,42150,0.15,0
Sprite,Background,Centre,"sb\sprites\pixel-white.png",320,240 V,0,53519,,854,480 F,0,53519,54119,0.15,0
Sprite,Background,Centre,"sb\sprites\pixel-white.png",320,240 V,0,63216,,854,480 F,0,63216,63816,0.15,0
Sprite,Background,Centre,"sb\sprites\pixel-white.png",320,240 V,0,68065,,854,480 F,0,68065,68665,0.15,0
Sprite,Background,Centre,"sb\sprites\pixel-white.png",320,240 V,0,72913,,854,480 F,0,72913,73513,0.15,0
Sprite,Background,Centre,"sb\sprites\pixel-white.png",320,240 V,0,78974,,854,480 F,0,78974,79574,0.15,0
Sprite,Background,Centre,"sb\sprites\pixel-white.png",320,240 V,0,85034,,854,480 F,0,85034,85634,0.15,0
//Storyboard Layer 1 (Fail)
//Storyboard Layer 2 (Pass)
//Storyboard Layer 3 (Foreground)
Sprite,Foreground,Centre,"sb\lyrics\004c.png",0,0 F,0,12207,12407,0,0.8 M,0,12307,,689.2,397.4 S,0,12307,,0.4 C,0,12307,,255,255,255 F,0,86904,87104,0.8,0
Sprite,Foreground,Centre,"sb\lyrics\0065.png",0,0 F,0,12207,12407,0,0.8 M,0,12307,,697.6,399.4 S,0,12307,,0.4 C,0,12307,,255,255,255 F,0,86904,87104,0.8,0
Sprite,Foreground,Centre,"sb\lyrics\0063.png",0,0 F,0,12207,12407,0,0.8 M,0,12307,,706.2,398.8 S,0,12307,,0.4 C,0,12307,,255,255,255 F,0,86904,87104,0.8,0
Sprite,Foreground,Centre,"sb\lyrics\0061.png",0,0 F,0,12207,12407,0,0.8 M,0,12307,,715.5999,399 S,0,12307,,0.4 C,0,12307,,255,255,255 F,0,86904,87104,0.8,0
Sprite,Foreground,Centre,"sb\lyrics\006e.png",0,0 F,0,12207,12407,0,0.8 M,0,12307,,724.3999,398.8 S,0,12307,,0.4 C,0,12307,,255,255,255 F,0,86904,87104,0.8,0
Sprite,Foreground,Centre,"sb\lyrics\0061.png",0,0 F,0,12207,12407,0,0.8 M,0,12307,,733.1999,399 S,0,12307,,0.4 C,0,12307,,255,255,255 F,0,86904,87104,0.8,0
Sprite,Foreground,Centre,"sb\lyrics\004c.png",0,0 F,0,12207,12407,0,0.8 M,0,12307,,603.7625,432.8625 S,0,12307,,0.425 C,0,12307,,255,255,255 F,0,86904,87104,0.8,0
Sprite,Foreground,Centre,"sb\lyrics\0065.png",0,0 F,0,12207,12407,0,0.8 M,0,12307,,612.6875,434.9875 S,0,12307,,0.425 C,0,12307,,255,255,255 F,0,86904,87104,0.8,0
Sprite,Foreground,Centre,"sb\lyrics\0063.png",0,0 F,0,12207,12407,0,0.8 M,0,12307,,621.825,434.35 S,0,12307,,0.425 C,0,12307,,255,255,255 F,0,86904,87104,0.8,0
Sprite,Foreground,Centre,"sb\lyrics\0061.png",0,0 F,0,12207,12407,0,0.8 M,0,12307,,631.8124,434.5625 S,0,12307,,0.425 C,0,12307,,255,255,255 F,0,86904,87104,0.8,0
Sprite,Foreground,Centre,"sb\lyrics\006e.png",0,0 F,0,12207,12407,0,0.8 M,0,12307,,641.1624,434.35 S,0,12307,,0.425 C,0,12307,,255,255,255 F,0,86904,87104,0.8,0
Sprite,Foreground,Centre,"sb\lyrics\0061.png",0,0 F,0,12207,12407,0,0.8 M,0,12307,,650.5124,434.5625 S,0,12307,,0.425 C,0,12307,,255,255,255 F,0,86904,87104,0.8,0
Sprite,Foreground,Centre,"sb\lyrics\0027.png",0,0 F,0,12207,12407,0,0.8 M,0,12307,,657.7374,428.1875 S,0,12307,,0.425 C,0,12307,,255,255,255 F,0,86904,87104,0.8,0
Sprite,Foreground,Centre,"sb\lyrics\0073.png",0,0 F,0,12207,12407,0,0.8 M,0,12307,,668.9998,434.775 S,0,12307,,0.425 C,0,12307,,255,255,255 F,0,86904,87104,0.8,0
Sprite,Foreground,Centre,"sb\lyrics\0049.png",0,0 F,0,12207,12407,0,0.8 M,0,12307,,687.4873,432.8625 S,0,12307,,0.425 C,0,12307,,255,255,255 F,0,86904,87104,0.8,0
Sprite,Foreground,Centre,"sb\lyrics\006e.png",0,0 F,0,12207,12407,0,0.8 M,0,12307,,697.2623,434.35 S,0,12307,,0.425 C,0,12307,,255,255,255 F,0,86904,87104,0.8,0
Sprite,Foreground,Centre,"sb\lyrics\0073.png",0,0 F,0,12207,12407,0,0.8 M,0,12307,,706.3997,434.775 S,0,12307,,0.425 C,0,12307,,255,255,255 F,0,86904,87104,0.8,0
Sprite,Foreground,Centre,"sb\lyrics\0061.png",0,0 F,0,12207,12407,0,0.8 M,0,12307,,715.9622,434.5625 S,0,12307,,0.425 C,0,12307,,255,255,255 F,0,86904,87104,0.8,0
Sprite,Foreground,Centre,"sb\lyrics\006e.png",0,0 F,0,12207,12407,0,0.8 M,0,12307,,725.3122,434.35 S,0,12307,,0.425 C,0,12307,,255,255,255 F,0,86904,87104,0.8,0
Sprite,Foreground,Centre,"sb\lyrics\0065.png",0,0 F,0,12207,12407,0,0.8 M,0,12307,,734.2372,434.9875 S,0,12307,,0.425 C,0,12307,,255,255,255 F,0,86904,87104,0.8,0
//Storyboard Layer 4 (Overlay)
//Storyboard Sound Samples

[TimingPoints]
323,303.030303030303,4,2,1,60,1,0
323,-100,4,2,1,60,0,0
2595,-133.333333333333,4,2,1,60,0,0
6232,-111.111111111111,4,2,1,60,0,0
12292,-100,4,2,1,60,0,0
22141,-125,4,2,1,50,0,0
31838,-100,4,2,1,60,0,0
41535,-133.333333333333,4,2,1,40,0,0
43201,-133.333333333333,4,2,1,5,0,0
43353,-133.333333333333,4,2,1,40,0,0
43504,-133.333333333333,4,2,1,5,0,0
43656,-133.333333333333,4,2,1,40,0,0
43807,-133.333333333333,4,2,1,5,0,0
43959,-133.333333333333,4,2,1,40,0,0
48807,-111.111111111111,4,2,1,50,0,0
52747,-133.333333333333,4,2,2,40,0,0
53504,-100,4,2,1,70,0,1
76383,-83.3333333333333,4,2,1,70,0,1
76686,-111.111111111111,4,2,1,60,0,1
77747,-111.111111111111,4,2,1,60,0,0
78504,-100,4,2,1,60,0,0
78959,-100,4,2,1,50,0,0
86737,-100,4,2,1,25,0,0

[Colours]
Combo1 : 192,192,192
Combo2 : 255,50,50
Combo3 : 255,125,125
Combo4 : 25,100,255
Combo5 : 50,150,255
Combo6 : 255,255,50
Combo7 : 255,255,150
Combo8 : 128,128,128

[HitObjects]
218,130,323,102,0,L|315:117,1,80,2|2,0:0|0:0,0:0:0:0:
402,77,626,1,2,0:0:0:0:
334,223,777,1,2,0:0:0:0:
334,223,1232,5,2,0:0:0:0:
453,298,1383,1,2,0:0:0:0:
334,223,1535,2,0,L|239:233,1,80,2|2,0:0|0:0,0:0:0:0:
22,325,1838,1,8,0:0:0:0:
59,338,1913,1,8,0:0:0:0:
98,334,1989,1,8,0:0:0:0:
132,313,2065,1,8,0:0:0:0:
153,279,2141,2,0,P|146:250|139:225,1,40,8|8,0:0|0:0,0:0:0:0:
92,91,2292,2,0,L|71:219,1,120,8|0,0:0|0:0,0:0:0:0:
64,249,2595,5,4,0:0:0:0:
407,154,3807,5,4,0:0:0:0:
32,67,5019,101,4,0:0:0:0:
406,155,5777,5,4,0:0:0:0:
273,206,5929,2,0,P|262:175|246:141,1,60.0000022888184
369,230,6232,102,0,P|329:315|302:384,1,143.999995605469,4|0,0:0|0:0,0:0:0:0:
75,211,6686,1,8,0:0:0:0:
101,207,6762,1,8,0:0:0:0:
128,204,6838,1,8,0:0:0:0:
155,201,6913,1,8,0:0:0:0:
182,199,6989,1,8,0:0:0:0:
46,128,7141,1,0,0:0:0:0:
155,305,7292,1,8,0:0:0:0:
280,115,7444,22,0,P|235:122|182:210,1,143.999995605469,12|0,0:0|0:0,0:0:0:0:
262,341,7898,1,8,0:0:0:0:
379,265,8050,1,0,0:0:0:0:
265,197,8201,1,8,0:0:0:0:
347,354,8353,1,0,0:0:0:0:
450,250,8504,2,0,L|366:268,1,71.9999978027344,8|0,0:0|0:0,0:0:0:0:
182,321,8807,21,8,0:0:0:0:
282,241,8959,1,0,0:0:0:0:
93,278,9110,1,8,0:0:0:0:
273,351,9262,1,0,0:0:0:0:
206,151,9413,2,0,L|181:314,1,143.999995605469,8|8,0:0|0:0,0:0:0:0:
52,191,9868,86,0,P|23:158|48:62,1,143.999995605469,8|0,0:0|0:0,0:0:0:0:
289,154,10322,1,8,0:0:0:0:
145,239,10474,1,0,0:0:0:0:
201,76,10626,1,8,0:0:0:0:
384,151,10777,1,0,0:0:0:0:
239,232,10929,1,8,0:0:0:0:
292,117,11080,1,0,0:0:0:0:
392,298,11232,22,0,L|307:278,1,71.9999978027344,8|0,0:0|0:0,0:0:0:0:
118,353,11535,2,0,L|203:333,1,71.9999978027344,8|0,0:0|0:0,0:0:0:0:
296,191,11838,2,0,L|244:179,1,35.9999989013672,8|8,0:0|0:0,0:0:0:0:
163,264,11989,2,0,L|206:255,1,35.9999989013672,8|8,0:0|0:0,0:0:0:0:
179,117,12141,2,0,L|129:109,1,35.9999989013672,8|8,0:0|0:0,0:0:0:0:
10,210,12292,86,0,B|84:237|85:159|176:196,1,160,6|2,0:0|0:0,0:0:0:0:
371,280,12747,2,0,P|331:278|260:328,1,120,10|0,0:0|0:0,0:0:0:0:
247,351,13050,1,0,0:0:0:0:
416,213,13201,2,0,P|447:248|456:283,1,80,2|8,0:0|0:0,0:0:0:0:
278,204,13504,6,0,P|258:150|297:41,1,160,2|0,0:0|0:0,0:0:0:0:
390,133,13959,1,10,0:0:0:0:
199,253,14110,2,0,L|151:244,2,40,0|0|2,0:0|0:0|0:0,0:0:0:0:
345,352,14413,2,0,P|329:301|313:273,1,80,2|8,0:0|0:0,0:0:0:0:
102,166,14716,102,0,P|63:205|86:313,1,160,2|0,0:0|0:0,0:0:0:0:
291,186,15171,1,10,0:0:0:0:
189,138,15322,1,0,0:0:0:0:
276,272,15474,1,2,0:0:0:0:
371,148,15626,2,0,L|427:112,2,40,2|0|8,0:0|0:0|0:0,0:0:0:0:
229,352,15929,6,0,P|193:309|223:205,1,160,2|0,0:0|0:0,0:0:0:0:
354,290,16383,2,0,P|311:278|265:270,1,80,10|0,0:0|0:0,0:0:0:0:
110,256,16686,2,0,L|96:295,2,40,2|0|2,0:0|0:0|0:0,0:0:0:0:
41,80,16989,1,8,0:0:0:0:
111,156,17141,102,0,P|150:148|188:137,1,80
249,55,17444,1,0,0:0:0:0:
356,195,17595,1,10,0:0:0:0:
414,101,17747,1,2,0:0:0:0:
414,101,17822,1,2,0:0:0:0:
414,101,17898,1,2,0:0:0:0:
279,156,18050,1,2,0:0:0:0:
467,229,18201,1,8,0:0:0:0:
364,346,18353,6,0,P|341:293|361:185,1,160,2|2,0:0|0:0,0:0:0:0:
193,334,18807,2,0,P|185:292|167:248,1,80,8|0,0:0|0:0,0:0:0:0:
95,196,19110,1,2,0:0:0:0:
261,256,19262,1,2,0:0:0:0:
59,323,19413,1,8,0:0:0:0:
148,112,19565,102,0,P|183:165|167:265,1,160,2|2,0:0|0:0,0:0:0:0:
66,45,20019,2,0,P|120:31|158:13,1,80,10|0,0:0|0:0,0:0:0:0:
261,138,20322,2,0,P|315:152|353:170,1,80,2|2,0:0|0:0,0:0:0:0:
425,83,20626,1,8,0:0:0:0:
340,305,20777,6,0,P|312:259|348:151,1,160,2|0,0:0|0:0,0:0:0:0:
484,253,21232,2,0,L|395:235,1,80,10|0,0:0|0:0,0:0:0:0:
252,321,21535,1,2,0:0:0:0:
223,329,21610,1,2,0:0:0:0:
194,337,21686,1,2,0:0:0:0:
165,345,21762,1,2,0:0:0:0:
136,353,21838,2,0,L|149:302,3,40,10|2|2|2,0:0|0:0|0:0|0:0,0:0:0:0:
166,263,22141,22,0,L|88:283,1,64,4|0,0:0|0:0,0:0:0:0:
190,122,22444,2,0,P|194:162|181:194,1,64,2|0,0:0|0:0,0:0:0:0:
97,132,22747,2,0,P|88:101|93:69,1,64
174,15,23050,1,2,0:0:0:0:
288,124,23201,1,0,0:0:0:0:
329,31,23353,22,0,L|250:50,1,64
187,184,23656,2,0,L|266:203,1,64,2|0,0:0|0:0,0:0:0:0:
368,293,23959,2,0,L|401:166,1,128,0|2,0:0|0:0,0:0:0:0:
479,102,24413,1,2,0:0:0:0:
479,102,24489,1,2,0:0:0:0:
479,102,24565,86,0,L|501:180,1,64
459,288,24868,1,2,0:0:0:0:
400,169,25019,2,0,P|337:173|292:226,2,128,0|2|0,0:0|0:0|0:0,0:0:0:0:
312,92,25777,2,0,P|280:109|250:137,1,64
197,229,26080,2,0,P|165:212|135:184,1,64,2|0,0:0|0:0,0:0:0:0:
74,87,26383,1,0,0:0:0:0:
171,109,26535,1,0,0:0:0:0:
49,188,26686,1,2,0:0:0:0:
197,229,26838,1,0,0:0:0:0:
103,384,26989,22,0,P|86:317|73:252,1,128,0|2,0:0|0:0,0:0:0:0:
226,104,27444,2,0,P|213:166|197:228,1,128
49,188,27898,1,2,0:0:0:0:
189,318,28050,2,0,P|240:296|311:274,1,128
406,227,28504,2,0,P|396:263|393:297,1,64,2|0,0:0|0:0,0:0:0:0:
273,134,28807,2,0,P|283:170|286:204,1,64
438,110,29110,1,2,0:0:0:0:
345,37,29262,1,0,0:0:0:0:
273,134,29413,86,0,P|212:136|150:89,1,128
46,43,29868,2,0,P|58:108|60:121,1,64
35,195,30171,1,8,0:0:0:0:
232,51,30322,1,0,0:0:0:0:
151,232,30474,1,8,0:0:0:0:
151,232,30777,21,0,0:0:0:0:
253,189,30929,1,8,0:0:0:0:
57,105,31080,1,0,0:0:0:0:
253,189,31232,2,0,P|243:233|233:270,1,64
153,82,31535,1,8,0:0:0:0:
360,184,31686,1,2,0:0:0:0:
360,184,31762,1,2,0:0:0:0:
360,184,31838,70,0,P|409:193|491:112,1,160,4|8,0:0|0:0,0:0:0:0:
310,301,32292,2,0,P|234:273|156:259,1,160
42,317,32747,1,8,0:0:0:0:
187,171,32898,1,0,0:0:0:0:
30,103,33050,6,0,P|40:145|57:188,1,80,2|0,0:0|0:0,0:0:0:0:
197,84,33353,2,0,P|145:99|118:112,1,80,8|0,0:0|0:0,0:0:0:0:
300,214,33656,1,0,0:0:0:0:
148,183,33807,1,0,0:0:0:0:
299,88,33959,1,8,0:0:0:0:
192,274,34110,1,0,0:0:0:0:
342,307,34262,102,0,P|405:281|475:268,1,120
492,266,34565,1,8,0:0:0:0:
384,123,34716,2,0,P|374:170|366:213,1,80
206,197,35019,2,0,P|253:177|297:166,1,80,0|8,0:0|0:0,0:0:0:0:
434,41,35322,2,0,P|366:33|296:92,1,160
192,274,35777,2,0,P|150:266|99:259,1,80,8|0,0:0|0:0,0:0:0:0:
38,149,36080,1,0,0:0:0:0:
206,197,36232,1,0,0:0:0:0:
46,327,36383,2,0,P|29:277|20:246,1,80,8|0,0:0|0:0,0:0:0:0:
140,51,36686,6,0,P|128:97|118:135,1,80
235,268,36989,1,8,0:0:0:0:
349,168,37141,1,2,0:0:0:0:
349,168,37216,1,2,0:0:0:0:
349,168,37292,1,2,0:0:0:0:
209,123,37444,1,0,0:0:0:0:
354,252,37595,1,8,0:0:0:0:
454,66,37747,102,0,P|382:97|349:168,1,160
442,331,38201,1,8,0:0:0:0:
268,255,38353,1,0,0:0:0:0:
447,169,38504,1,0,0:0:0:0:
374,271,38656,1,0,0:0:0:0:
248,178,38807,2,0,L|230:89,1,80,8|0,0:0|0:0,0:0:0:0:
76,28,39110,6,0,L|50:188,1,160,0|8,0:0|0:0,0:0:0:0:
123,339,39565,1,2,0:0:0:0:
123,339,39641,1,2,0:0:0:0:
123,339,39716,2,0,P|164:322|198:292,1,80,2|0,0:0|0:0,0:0:0:0:
248,178,40019,1,8,0:0:0:0:
143,98,40171,1,2,0:0:0:0:
143,98,40247,1,2,0:0:0:0:
143,98,40322,101,2,0:0:0:0:
66,218,40474,1,0,0:0:0:0:
248,272,40626,1,8,0:0:0:0:
233,91,40777,1,0,0:0:0:0:
63,137,40929,69,2,0:0:0:0:
156,302,41080,1,0,0:0:0:0:
292,228,41232,1,8,0:0:0:0:
178,175,41383,1,0,0:0:0:0:
226,344,41535,102,0,P|308:310|355:294,1,120.000004577637,6|0,0:0|0:0,0:0:0:0:
338,300,42141,2,0,P|324:356|321:379,1,60.0000022888184,8|0,0:0|0:0,0:0:0:0:
261,224,42444,1,2,0:0:0:0:
431,300,42595,2,0,P|457:226|475:179,1,120.000004577637,2|0,0:0|0:0,0:0:0:0:
432,58,43050,38,0,P|392:59|344:93,1,90.0000034332277,2|0,0:0|0:0,0:0:0:0:
298,146,43353,2,0,P|258:145|210:111,1,90.0000034332277,8|0,0:0|0:0,0:0:0:0:
130,63,43656,2,0,P|139:114|144:167,1,90.0000034332277,2|0,0:0|0:0,0:0:0:0:
146,232,43959,102,0,P|92:214|75:209,1,60.0000022888184,2|0,0:0|0:0,0:0:0:0:
221,350,44262,1,8,0:0:0:0:
221,350,44565,1,2,0:0:0:0:
299,276,44716,2,0,P|353:258|370:253,1,60.0000022888184,2|0,0:0|0:0,0:0:0:0:
449,193,45019,2,0,P|435:266|427:324,1,120.000004577637,8|0,0:0|0:0,0:0:0:0:
361,170,45474,38,0,P|344:138|363:79,1,90.0000034332277,2|0,0:0|0:0,0:0:0:0:
368,13,45777,2,0,L|290:31,1,60.0000022888184,8|0,0:0|0:0,0:0:0:0:
194,54,46080,1,0,0:0:0:0:
65,83,46232,102,0,P|74:138|84:215,1,120.000004577637,2|2,0:0|0:0,0:0:0:0:
193,183,46686,2,0,P|181:231|164:312,2,120.000004577637,2|8|2,0:0|0:0|0:0,0:0:0:0:
193,183,47595,6,0,P|244:172|268:162,1,60.0000022888184,2|0,0:0|0:0,0:0:0:0:
308,268,47898,2,0,P|359:279|383:289,1,60.0000022888184,2|0,0:0|0:0,0:0:0:0:
453,211,48201,1,8,0:0:0:0:
453,211,48353,1,2,0:0:0:0:
364,141,48504,2,0,P|350:177|347:208,1,60.0000022888184,2|0,0:0|0:0,0:0:0:0:
291,384,48807,22,0,P|283:321|266:237,1,143.999995605469,2|2,0:0|0:0,0:0:0:0:
228,98,49262,2,0,P|177:84|151:71,1,71.9999978027344,0|2,0:0|0:0,0:0:0:0:
109,182,49565,1,0,0:0:0:0:
109,182,49716,2,0,P|58:196|32:209,1,71.9999978027344,2|0,0:0|0:0,0:0:0:0:
87,338,50019,2,0,P|98:288|98:260,1,71.9999978027344,2|0,0:0|0:0,0:0:0:0:
240,280,50322,2,0,P|229:230|229:202,1,71.9999978027344,2|0,0:0|0:0,0:0:0:0:
323,324,50626,1,2,0:0:0:0:
323,324,50777,1,2,0:0:0:0:
144,232,50929,1,2,0:0:0:0:
144,232,51080,1,2,0:0:0:0:
265,129,51232,86,0,P|312:168|301:253,1,143.999995605469,2|2,0:0|0:0,0:0:0:0:
307,245,51838,1,2,0:0:0:0:
210,215,51989,1,2,0:0:0:0:
136,314,52141,1,2,0:0:0:0:
30,287,52292,1,10,0:0:0:0:
30,287,52747,6,0,L|130:310,1,90.0000034332277,2|0,0:0|0:0,0:0:0:0:
136,314,53050,2,0,P|165:301|198:289,2,60.0000022888184,2|2|0,0:0|0:0|0:0,0:0:0:0:
322,353,53504,22,0,P|369:310|351:211,1,160,4|0,1:2|0:0,0:0:0:0:
257,126,53959,1,8,0:0:0:0:
225,268,54110,1,2,0:0:0:0:
225,268,54186,1,2,0:0:0:0:
225,268,54262,1,2,1:2:0:0:
354,145,54413,1,0,1:0:0:0:
168,80,54565,1,8,0:0:0:0:
278,29,54716,6,0,L|243:197,1,160,0|0,1:0|0:0,0:0:0:0:
126,315,55171,2,0,L|113:219,1,80,8|0,0:0|0:0,0:0:0:0:
34,118,55474,1,0,1:0:0:0:
169,177,55626,1,0,1:0:0:0:
119,25,55777,1,8,0:0:0:0:
34,118,55929,102,0,L|201:93,1,160,0|0,1:0|0:0,0:0:0:0:
350,31,56383,2,0,P|290:59|268:116,1,120,8|0,0:0|0:0,0:0:0:0:
261,148,56686,1,0,1:0:0:0:
424,212,56838,1,0,1:0:0:0:
245,270,56989,1,8,0:0:0:0:
355,125,57141,6,0,L|328:297,1,160,0|0,1:0|0:0,0:0:0:0:
183,168,57595,2,0,P|243:151|267:147,1,80,8|0,0:0|0:0,0:0:0:0:
424,212,57898,1,0,1:0:0:0:
246,366,58050,2,0,P|206:357|168:345,1,80,0|8,1:0|0:0,0:0:0:0:
118,41,58353,102,0,P|159:64|177:181,1,160,0|0,1:0|0:0,0:0:0:0:
53,288,58807,2,0,P|62:246|76:208,1,80,8|0,0:0|0:0,0:0:0:0:
300,145,59110,1,0,1:0:0:0:
254,254,59262,1,0,1:0:0:0:
183,168,59413,2,0,P|194:97|201:78,1,80,8|0,0:0|0:0,0:0:0:0:
285,43,59716,5,0,1:0:0:0:
103,125,59868,1,0,0:0:0:0:
300,145,60019,2,0,P|354:129|390:121,1,80,8|0,0:0|0:0,0:0:0:0:
207,284,60322,2,0,P|153:268|117:260,1,80,8|0,0:0|0:0,0:0:0:0:
37,328,60626,1,8,0:0:0:0:
224,203,60777,1,0,0:0:0:0:
37,328,60929,102,0,P|20:264|83:197,1,160,0|8,1:2|0:0,0:0:0:0:
207,284,61383,2,0,P|165:273|124:262,1,80,0|8,0:0|0:0,0:0:0:0:
34,116,61686,2,0,L|124:90,1,80,8|0,1:0|0:0,0:0:0:0:
296,49,61989,6,0,P|283:127|270:211,1,160,8|0,1:2|0:0,0:0:0:0:
427,339,62444,2,0,L|474:325,3,40,8|0|0|0,0:0|0:0|0:0|0:0,0:0:0:0:
472,209,62747,2,0,L|430:194,1,40,8|8,0:0|0:0,0:0:0:0:
366,270,62898,2,0,L|318:284,1,40,8|8,0:0|0:0,0:0:0:0:
271,207,63050,2,0,L|229:196,1,40,8|8,0:0|0:0,0:0:0:0:
147,269,63201,102,0,P|103:215|132:122,1,160,4|0,1:2|0:0,0:0:0:0:
244,49,63656,2,0,P|187:38|157:30,1,80,8|0,0:0|0:0,0:0:0:0:
298,167,63959,1,0,1:0:0:0:
298,167,64110,2,0,P|355:156|385:148,1,80,0|8,1:0|1:0,1:0:0:0:
496,314,64413,6,0,P|379:291|327:283,1,160,0|0,1:0|0:0,0:0:0:0:
206,156,64868,2,0,P|156:171|126:240,1,120,8|0,0:0|0:0,0:0:0:0:
118,269,65171,1,0,1:0:0:0:
41,170,65322,1,0,1:0:0:0:
209,238,65474,1,8,0:0:0:0:
9,326,65626,102,0,P|37:182|46:158,1,160,0|0,1:0|0:0,0:0:0:0:
97,56,66080,2,0,P|135:77|168:155,1,120,8|0,0:0|0:0,0:0:0:0:
173,204,66383,2,0,P|186:177|230:138,1,80,0|0,1:0|1:0,0:0:0:0:
308,64,66686,1,8,0:0:0:0:
390,271,66838,6,0,P|334:280|253:203,1,160,8|0,1:0|0:0,0:0:0:0:
185,62,67292,1,8,0:0:0:0:
145,67,67368,1,8,0:0:0:0:
111,87,67444,1,8,0:0:0:0:
88,120,67519,1,8,0:0:0:0:
81,159,67595,1,8,0:0:0:0:
137,269,67747,1,8,0:0:0:0:
217,181,67898,1,2,0:0:0:0:
172,360,68050,102,0,B|91:344|91:344|58:314|56:272,1,160,12|0,0:0|0:0,0:0:0:0:
33,106,68504,2,0,L|115:85,1,80,8|0,0:0|0:0,0:0:0:0:
276,241,68807,2,0,P|221:254|190:264,1,80,2|0,0:0|0:0,0:0:0:0:
181,132,69110,2,0,P|196:77|204:46,1,80,8|0,0:0|0:0,0:0:0:0:
322,0,69413,2,0,P|338:59|356:125,1,120,2|0,0:0|0:0,0:0:0:0:
367,151,69716,2,0,P|319:141|282:134,1,80,8|0,0:0|0:0,0:0:0:0:
103,258,70019,6,0,B|147:283|147:283|255:235,1,160,2|8,0:0|0:0,0:0:0:0:
437,291,70474,2,0,P|372:270|302:336,1,160,2|0,0:0|0:0,0:0:0:0:
154,192,70929,1,8,0:0:0:0:
285,121,71080,1,0,0:0:0:0:
247,239,71232,1,2,0:0:0:0:
136,96,71383,1,0,0:0:0:0:
61,247,71535,1,8,0:0:0:0:
205,162,71686,1,0,0:0:0:0:
32,73,71838,102,0,P|42:152|49:199,1,120,2|0,0:0|0:0,0:0:0:0:
61,247,72141,1,8,0:0:0:0:
244,134,72292,1,0,0:0:0:0:
214,257,72444,2,0,P|203:313|196:354,1,80,2|0,0:0|0:0,0:0:0:0:
371,173,72747,1,8,0:0:0:0:
168,49,72898,22,0,P|130:89|123:192,1,160,12|0,0:0|0:0,0:0:0:0:
325,314,73353,2,0,P|363:274|370:171,1,160,8|8,0:0|0:0,0:0:0:0:
271,87,73807,1,0,0:0:0:0:
252,213,73959,1,8,0:0:0:0:
371,173,74110,1,0,0:0:0:0:
182,122,74262,21,8,0:0:0:0:
371,173,74413,1,0,0:0:0:0:
214,236,74565,1,8,0:0:0:0:
398,293,74716,1,0,0:0:0:0:
236,346,74868,2,0,L|148:325,1,80,8|0,0:0|0:0,0:0:0:0:
296,196,75171,1,8,0:0:0:0:
118,86,75322,86,0,P|95:137|159:230,1,160,8|0,0:0|0:0,0:0:0:0:
232,85,75777,1,8,0:0:0:0:
324,257,75929,1,0,0:0:0:0:
400,125,76080,2,0,P|353:149|318:174,1,80,8|0,0:0|0:0,0:0:0:0:
512,303,76383,2,0,P|530:254|472:172,1,143.999995605469,8|0,0:0|0:0,0:0:0:0:
488,179,76686,22,0,P|447:169|392:109,1,107.999996704102,2|0,0:0|0:0,0:0:0:0:
371,66,76989,2,0,P|357:155|354:201,1,107.999996704102,2|0,0:0|0:0,0:0:0:0:
276,219,77292,2,0,P|287:111|301:27,1,179.999994506836,2|0,0:0|0:0,0:0:0:0:
299,41,77747,6,0,B|269:34|249:23|249:23|215:39|191:60|191:60|113:19|16:31,1,287.999991210938,2|0,0:0|0:0,0:0:0:0:
72,238,78504,2,0,P|115:199|72:120,1,160,2|2,0:0|0:0,0:0:0:0:
185,246,78959,70,0,P|237:229|288:219,1,80,6|0,0:0|0:0,0:0:0:0:
374,140,79262,1,0,0:0:0:0:
260,49,79413,2,0,P|248:102|231:151,1,80,10|0,0:0|0:0,0:0:0:0:
148,332,79716,1,2,0:0:0:0:
398,279,79868,2,0,P|357:242|323:203,1,80,2|8,0:0|0:0,0:0:0:0:
437,34,80171,6,0,P|475:103|416:170,1,160,2|2,0:0|0:0,0:0:0:0:
240,126,80626,2,0,P|324:108|377:99,1,120,10|0,0:0|0:0,0:0:0:0:
385,98,80929,1,2,0:0:0:0:
185,230,81080,2,0,P|137:216|133:216,2,40,2|0|8,0:0|0:0|0:0,0:0:0:0:
314,333,81383,102,0,P|292:270|281:250,1,80,2|0,0:0|0:0,0:0:0:0:
123,131,81686,1,0,0:0:0:0:
63,339,81838,2,0,P|111:322|148:311,1,80,10|0,0:0|0:0,0:0:0:0:
346,195,82141,2,0,P|298:178|261:167,2,80,2|2|8,0:0|0:0|0:0,0:0:0:0:
449,36,82595,2,0,P|384:40|326:118,1,160,2|0,0:0|0:0,0:0:0:0:
461,306,83050,2,0,P|447:248|436:216,1,80,10|0,0:0|0:0,0:0:0:0:
246,81,83353,1,10,0:0:0:0:
246,81,83429,1,8,0:0:0:0:
246,81,83504,1,8,0:0:0:0:
418,119,83656,1,8,0:0:0:0:
418,119,83959,85,8,0:0:0:0:
167,229,84110,1,8,0:0:0:0:
167,229,84262,1,0,0:0:0:0:
335,293,84413,5,8,0:0:0:0:
246,81,84565,1,8,0:0:0:0:
246,81,84716,1,0,0:0:0:0:
73,263,84868,1,8,0:0:0:0:
256,192,85019,101,12,0:0:0:0:
256,192,85095,12,8,86737,0:0:0:0:
