osu file format v14

[General]
AudioFilename: audio.mp3
AudioLeadIn: 500
PreviewTime: 52595
Countdown: 0
SampleSet: Soft
StackLeniency: 0.4
Mode: 0
LetterboxInBreaks: 0
EpilepsyWarning: 1
WidescreenStoryboard: 1

[Editor]
Bookmarks: 41535
DistanceSpacing: 1.6
BeatDivisor: 4
GridSize: 32
TimelineZoom: 2.399999

[Metadata]
Title:Twintail Dreamer! (TV Size)
TitleUnicode:ツインテール・ドリーマー! (TV Size)
Artist:Twin-Tails
ArtistUnicode:ツインテイルズ
Creator:Moecho
Version:Laurier's Hyper
Source:俺、ツインテールになります。
Tags:Twintails OreTwi Ore, Tsuinteru Tsuintēru ni Narimasu. Gonna be the Twin-Tail!! テイルレッド Tail Red 上坂すみれ Uesaka Sumire テイルブルー Blue 相坂優歌 Aisaka Yuuka テイルイエロー Yellow 赤﨑千夏 Akasaki Chinatsu Ending Theme ED TV Size edit Anime papiyon japanese pop j-pop jpop Kodora Laurier Natteke Kite HabiHolic Loneight L18 Lecana Giralda captin1 jonathanlfj apaffy kisata Nyquill RLC LunarSakuya Mythol meiikyuu Syameimaru-Aya Ayaya caren_sk CRN kiddly Axarious Delis ShirohaMyMommy SMM Koiyuki Minakami Yuki yf_bmp yf Skystar Amamiya Yuko rui rustbell spro sprosive Snow Note 7odoa bakabaka Hollow Wings HW
BeatmapID:2329707
BeatmapSetID:1115213

[Difficulty]
HPDrainRate:6
CircleSize:4
OverallDifficulty:6
ApproachRate:8
SliderMultiplier:1.4
SliderTickRate:1

[Events]
//Background and Video events
0,0,"bg.jpg",0,0
//Break Periods
//Storyboard Layer 0 (Background)
Sprite,Background,Centre,"sb\sprites\pixel-white.png",320,240 F,0,-60,,0,1 C,0,-60,,0,0,0 V,0,-60,,880,480 F,0,89619,,1,0
Sprite,Background,Centre,"bg.jpg",320,240 F,0,-2559,-1559,0,0.75 S,0,-1559,,0.4444444 F,0,337,487,0.75,0
Sprite,Background,Centre,"bg.jpg",320,240 F,0,88125,89125,0,0.75 S,0,89125,,0.4444444 F,0,89784,89934,0.75,0
Sprite,Background,Centre,"sb\sprites\bg-alt.jpg",320,240 F,0,187,337,0,0.75 S,0,337,,0.4444444 F,0,21156,22306,0.75,0
Sprite,Background,Centre,"sb\sprites\bg-alt.jpg",320,240 F,0,53369,53519,0,0.75 S,0,53519,,0.4444444 F,0,88125,89275,0.75,0
Sprite,Background,Centre,"sb\sprites\bg-alt-bw.jpg",320,240 F,0,22006,22306,0,0.75 S,0,22156,,0.4444444 F,0,39686,40486,0.75,0
Sprite,Background,Centre,"sb\sprites\bg-alt-bw.jpg",320,240 F,0,50491,50791,0,0.75 S,0,50641,,0.4444444 F,0,51807,52607,0.75,0
Sprite,Background,Centre,"sb\sprites\tail-red-ci.jpg",320,240 F,0,40794,41094,0,0.75 S,0,40944,,0.4444444 F,0,48822,50322,0.75,0
Sprite,Background,Centre,"sb\sprites\tail-blue-ci.jpg",320,240 F,0,42915,43215,0,0.75 S,0,43065,,0.4444444 F,0,48822,50322,0.75,0
Sprite,Background,Centre,"sb\sprites\tail-yellow-ci.jpg",320,240 F,0,45339,45639,0,0.75 S,0,45489,,0.4444444 F,0,48822,50322,0.75,0
Sprite,Background,Centre,"sb\sprites\pixel-white.png",320,240 V,0,2610,,854,480 F,0,2610,3210,0.15,0
Sprite,Background,Centre,"sb\sprites\pixel-white.png",320,240 V,0,3822,,854,480 F,0,3822,4422,0.15,0
Sprite,Background,Centre,"sb\sprites\pixel-white.png",320,240 V,0,5034,,854,480 F,0,5034,5634,0.15,0
Sprite,Background,Centre,"sb\sprites\pixel-white.png",320,240 V,0,5792,,854,480 F,0,5792,6392,0.15,0 V,0,6246,,854,480 F,0,6246,6846,0.15,0
Sprite,Background,Centre,"sb\sprites\pixel-white.png",320,240 V,0,7459,,854,480 F,0,7459,8059,0.15,0
Sprite,Background,Centre,"sb\sprites\pixel-white.png",320,240 V,0,9883,,854,480 F,0,9883,10483,0.15,0
Sprite,Background,Centre,"sb\sprites\pixel-white.png",320,240 V,0,12307,,854,480 F,0,12307,12907,0.15,0
Sprite,Background,Centre,"sb\sprites\pixel-white.png",320,240 V,0,13519,,854,480 F,0,13519,14119,0.15,0
Sprite,Background,Centre,"sb\sprites\pixel-white.png",320,240 V,0,14731,,854,480 F,0,14731,15331,0.15,0
Sprite,Background,Centre,"sb\sprites\pixel-white.png",320,240 V,0,15944,,854,480 F,0,15944,16544,0.15,0
Sprite,Background,Centre,"sb\sprites\pixel-white.png",320,240 V,0,17156,,854,480 F,0,17156,17756,0.15,0
Sprite,Background,Centre,"sb\sprites\pixel-white.png",320,240 V,0,22156,,854,480 F,0,22156,22756,0.15,0
Sprite,Background,Centre,"sb\sprites\pixel-white.png",320,240 V,0,30489,,854,480 F,0,30489,31089,0.15,0
Sprite,Background,Centre,"sb\sprites\pixel-white.png",320,240 V,0,31853,,854,480 F,0,31853,32453,0.15,0
Sprite,Background,Centre,"sb\sprites\pixel-white.png",320,240 V,0,41550,,854,480 F,0,41550,42150,0.15,0
Sprite,Background,Centre,"sb\sprites\pixel-white.png",320,240 V,0,48822,,854,480 F,0,48822,49422,0.15,0
Sprite,Background,Centre,"sb\sprites\pixel-white.png",320,240 V,0,53519,,854,480 F,0,53519,54119,0.15,0
Sprite,Background,Centre,"sb\sprites\pixel-white.png",320,240 V,0,55944,,854,480 F,0,55944,56544,0.15,0
Sprite,Background,Centre,"sb\sprites\pixel-white.png",320,240 V,0,58368,,854,480 F,0,58368,58968,0.15,0
Sprite,Background,Centre,"sb\sprites\pixel-white.png",320,240 V,0,60944,,854,480 F,0,60944,61544,0.15,0
Sprite,Background,Centre,"sb\sprites\pixel-white.png",320,240 V,0,62004,,854,480 F,0,62004,62604,0.15,0
Sprite,Background,Centre,"sb\sprites\pixel-white.png",320,240 V,0,63216,,854,480 F,0,63216,63816,0.15,0
Sprite,Background,Centre,"sb\sprites\pixel-white.png",320,240 V,0,65641,,854,480 F,0,65641,66241,0.15,0
Sprite,Background,Centre,"sb\sprites\pixel-white.png",320,240 V,0,66853,,854,480 F,0,66853,67453,0.15,0
Sprite,Background,Centre,"sb\sprites\pixel-white.png",320,240 V,0,68065,,854,480 F,0,68065,68665,0.15,0
Sprite,Background,Centre,"sb\sprites\pixel-white.png",320,240 V,0,70489,,854,480 F,0,70489,71089,0.15,0
Sprite,Background,Centre,"sb\sprites\pixel-white.png",320,240 V,0,72913,,854,480 F,0,72913,73513,0.15,0
Sprite,Background,Centre,"sb\sprites\pixel-white.png",320,240 V,0,75338,,854,480 F,0,75338,75938,0.15,0
Sprite,Background,Centre,"sb\sprites\pixel-white.png",320,240 V,0,76701,,854,480 F,0,76701,77301,0.15,0
Sprite,Background,Centre,"sb\sprites\pixel-white.png",320,240 V,0,78974,,854,480 F,0,78974,79574,0.15,0
Sprite,Background,Centre,"sb\sprites\pixel-white.png",320,240 V,0,80186,,854,480 F,0,80186,80786,0.15,0
Sprite,Background,Centre,"sb\sprites\pixel-white.png",320,240 V,0,81398,,854,480 F,0,81398,81998,0.15,0
Sprite,Background,Centre,"sb\sprites\pixel-white.png",320,240 V,0,82610,,854,480 F,0,82610,83210,0.15,0
Sprite,Background,Centre,"sb\sprites\pixel-white.png",320,240 V,0,83974,,854,480 F,0,83974,84574,0.15,0
Sprite,Background,Centre,"sb\sprites\pixel-white.png",320,240 V,0,84428,,854,480 F,0,84428,85028,0.15,0
Sprite,Background,Centre,"sb\sprites\pixel-white.png",320,240 V,0,85034,,854,480 F,0,85034,85634,0.15,0
//Storyboard Layer 1 (Fail)
//Storyboard Layer 2 (Pass)
//Storyboard Layer 3 (Foreground)
Sprite,Foreground,Centre,"sb\lyrics\004c.png",0,0 F,0,12207,12407,0,0.8 M,0,12307,,677.525,398.325 S,0,12307,,0.45 C,0,12307,,255,255,255 F,0,86904,87104,0.8,0
Sprite,Foreground,Centre,"sb\lyrics\0061.png",0,0 F,0,12207,12407,0,0.8 M,0,12307,,687.425,400.125 S,0,12307,,0.45 C,0,12307,,255,255,255 F,0,86904,87104,0.8,0
Sprite,Foreground,Centre,"sb\lyrics\0075.png",0,0 F,0,12207,12407,0,0.8 M,0,12307,,697.1,399.9 S,0,12307,,0.45 C,0,12307,,255,255,255 F,0,86904,87104,0.8,0
Sprite,Foreground,Centre,"sb\lyrics\0072.png",0,0 F,0,12207,12407,0,0.8 M,0,12307,,707.0001,399.9 S,0,12307,,0.45 C,0,12307,,255,255,255 F,0,86904,87104,0.8,0
Sprite,Foreground,Centre,"sb\lyrics\0069.png",0,0 F,0,12207,12407,0,0.8 M,0,12307,,716.675,398.1 S,0,12307,,0.45 C,0,12307,,255,255,255 F,0,86904,87104,0.8,0
Sprite,Foreground,Centre,"sb\lyrics\0065.png",0,0 F,0,12207,12407,0,0.8 M,0,12307,,726.5751,400.575 S,0,12307,,0.45 C,0,12307,,255,255,255 F,0,86904,87104,0.8,0
Sprite,Foreground,Centre,"sb\lyrics\0072.png",0,0 F,0,12207,12407,0,0.8 M,0,12307,,736.7001,399.9 S,0,12307,,0.45 C,0,12307,,255,255,255 F,0,86904,87104,0.8,0
Sprite,Foreground,Centre,"sb\lyrics\004c.png",0,0 F,0,12207,12407,0,0.8 M,0,12307,,590.0875,433.7875 S,0,12307,,0.475 C,0,12307,,255,255,255 F,0,86904,87104,0.8,0
Sprite,Foreground,Centre,"sb\lyrics\0061.png",0,0 F,0,12207,12407,0,0.8 M,0,12307,,600.5375,435.6875 S,0,12307,,0.475 C,0,12307,,255,255,255 F,0,86904,87104,0.8,0
Sprite,Foreground,Centre,"sb\lyrics\0075.png",0,0 F,0,12207,12407,0,0.8 M,0,12307,,610.75,435.45 S,0,12307,,0.475 C,0,12307,,255,255,255 F,0,86904,87104,0.8,0
Sprite,Foreground,Centre,"sb\lyrics\0072.png",0,0 F,0,12207,12407,0,0.8 M,0,12307,,621.2,435.45 S,0,12307,,0.475 C,0,12307,,255,255,255 F,0,86904,87104,0.8,0
Sprite,Foreground,Centre,"sb\lyrics\0069.png",0,0 F,0,12207,12407,0,0.8 M,0,12307,,631.4125,433.55 S,0,12307,,0.475 C,0,12307,,255,255,255 F,0,86904,87104,0.8,0
Sprite,Foreground,Centre,"sb\lyrics\0065.png",0,0 F,0,12207,12407,0,0.8 M,0,12307,,641.8625,436.1625 S,0,12307,,0.475 C,0,12307,,255,255,255 F,0,86904,87104,0.8,0
Sprite,Foreground,Centre,"sb\lyrics\0072.png",0,0 F,0,12207,12407,0,0.8 M,0,12307,,652.55,435.45 S,0,12307,,0.475 C,0,12307,,255,255,255 F,0,86904,87104,0.8,0
Sprite,Foreground,Centre,"sb\lyrics\0027.png",0,0 F,0,12207,12407,0,0.8 M,0,12307,,660.8626,428.5625 S,0,12307,,0.475 C,0,12307,,255,255,255 F,0,86904,87104,0.8,0
Sprite,Foreground,Centre,"sb\lyrics\0073.png",0,0 F,0,12207,12407,0,0.8 M,0,12307,,673.4501,435.925 S,0,12307,,0.475 C,0,12307,,255,255,255 F,0,86904,87104,0.8,0
Sprite,Foreground,Centre,"sb\lyrics\0048.png",0,0 F,0,12207,12407,0,0.8 M,0,12307,,694.3501,433.7875 S,0,12307,,0.475 C,0,12307,,255,255,255 F,0,86904,87104,0.8,0
Sprite,Foreground,Centre,"sb\lyrics\0079.png",0,0 F,0,12207,12407,0,0.8 M,0,12307,,704.5626,436.4 S,0,12307,,0.475 C,0,12307,,255,255,255 F,0,86904,87104,0.8,0
Sprite,Foreground,Centre,"sb\lyrics\0070.png",0,0 F,0,12207,12407,0,0.8 M,0,12307,,715.2501,436.1625 S,0,12307,,0.475 C,0,12307,,255,255,255 F,0,86904,87104,0.8,0
Sprite,Foreground,Centre,"sb\lyrics\0065.png",0,0 F,0,12207,12407,0,0.8 M,0,12307,,725.4626,436.1625 S,0,12307,,0.475 C,0,12307,,255,255,255 F,0,86904,87104,0.8,0
Sprite,Foreground,Centre,"sb\lyrics\0072.png",0,0 F,0,12207,12407,0,0.8 M,0,12307,,736.1501,435.45 S,0,12307,,0.475 C,0,12307,,255,255,255 F,0,86904,87104,0.8,0
//Storyboard Layer 4 (Overlay)
//Storyboard Sound Samples

[TimingPoints]
323,303.030303030303,4,2,1,50,1,0
2595,-153.846153846153,4,2,1,60,0,0
7595,-100,4,2,1,60,0,0
52747,-100,4,2,1,30,0,0
53504,-100,4,2,1,70,0,0
76762,-100,4,2,1,40,0,0
78959,-100,4,2,1,60,0,0
86737,-100,4,2,1,30,0,0

[Colours]
Combo1 : 192,192,192
Combo2 : 255,50,50
Combo3 : 255,125,125
Combo4 : 25,100,255
Combo5 : 50,150,255
Combo6 : 255,255,50
Combo7 : 255,255,150
Combo8 : 128,128,128

[HitObjects]
181,247,2595,6,0,P|116:266|49:254,2,136.499993751526,6|0|0,0:0|0:0|0:0,0:0:0:0:
256,111,3807,1,6,0:0:0:0:
256,111,5019,6,0,L|280:254,1,136.499993751526,6|0,0:0|0:0,0:0:0:0:
388,355,5777,2,0,L|412:212,1,136.499993751526,6|6,0:0|0:0,0:0:0:0:
437,66,6535,101,2,0:0:0:0:
437,66,6686,2,0,P|415:74|393:77,1,45.4999979171754,8|0,0:0|0:0,0:0:0:0:
304,54,6989,2,0,L|203:41,1,90.9999958343508,10|8,0:0|0:0,0:0:0:0:
122,32,7444,1,6,0:0:0:0:
122,32,7747,21,2,0:0:0:0:
168,133,7898,2,0,L|170:209,1,70,8|0,0:0|0:0,0:0:0:0:
182,335,8201,1,8,0:0:0:0:
182,335,8504,1,8,0:0:0:0:
182,335,8807,21,8,0:0:0:0:
393,259,9110,1,8,0:0:0:0:
256,81,9413,2,0,L|256:246,1,140,8|8,0:0|0:0,0:0:0:0:
333,311,9868,86,0,P|397:335|457:301,1,140,6|2,0:0|0:0,0:0:0:0:
494,228,10322,2,0,L|506:151,1,70,8|0,0:0|0:0,0:0:0:0:
423,133,10626,2,0,L|433:63,1,70,8|0,0:0|0:0,0:0:0:0:
433,64,10929,1,8,0:0:0:0:
253,141,11232,22,0,P|186:159|121:137,1,140,8|8,0:0|0:0,0:0:0:0:
0,297,11838,2,0,P|65:274|131:293,1,140,8|8,0:0|0:0,0:0:0:0:
222,384,12292,86,0,L|242:231,1,140,6|2,0:0|0:0,0:0:0:0:
252,140,12747,1,8,0:0:0:0:
252,140,13050,2,0,P|285:153|320:158,1,70,2|2,0:0|0:0,0:0:0:0:
418,154,13353,1,8,0:0:0:0:
459,43,13504,6,0,P|390:32|322:47,1,140,6|2,0:0|0:0,0:0:0:0:
226,23,13959,2,0,P|193:31|156:35,1,70,8|0,0:0|0:0,0:0:0:0:
138,131,14262,2,0,L|64:131,1,70,2|2,0:0|0:0,0:0:0:0:
68,131,14565,1,8,0:0:0:0:
153,239,14716,102,0,B|165:348|165:348|190:315,1,140,6|2,0:0|0:0,0:0:0:0:
258,260,15171,2,0,P|291:250|326:244,1,70,8|0,0:0|0:0,0:0:0:0:
408,307,15474,2,0,P|429:242|401:181,1,140,2|8,0:0|0:0,0:0:0:0:
262,143,15929,6,0,P|233:81|254:16,1,140,6|2,0:0|0:0,0:0:0:0:
331,75,16383,2,0,P|372:77|414:75,1,70,8|0,0:0|0:0,0:0:0:0:
488,32,16686,1,2,0:0:0:0:
488,32,16838,1,2,0:0:0:0:
421,149,16989,1,8,0:0:0:0:
495,271,17141,102,0,P|426:269|367:304,1,140,6|2,0:0|0:0,0:0:0:0:
293,229,17595,2,0,P|259:241|225:244,1,70,8|0,0:0|0:0,0:0:0:0:
130,198,17898,2,0,B|135:139|125:83|125:83|143:99,1,140,2|8,0:0|0:0,0:0:0:0:
243,66,18353,6,0,L|387:44,1,140,2|2,0:0|0:0,0:0:0:0:
465,107,18807,2,0,L|497:72,2,35,8|0|0,0:0|0:0|0:0,0:0:0:0:
371,155,19110,2,0,P|361:188|356:223,1,70,2|2,0:0|0:0,0:0:0:0:
398,319,19413,1,8,0:0:0:0:
268,276,19565,102,0,L|116:266,1,140,2|2,0:0|0:0,0:0:0:0:
25,189,20019,2,0,L|93:175,1,70,8|0,0:0|0:0,0:0:0:0:
237,123,20322,2,0,L|198:181,1,70,2|2,0:0|0:0,0:0:0:0:
128,75,20626,1,8,0:0:0:0:
273,54,20777,6,0,L|288:197,1,140,2|2,0:0|0:0,0:0:0:0:
378,244,21232,2,0,P|413:248|448:244,1,70,8|0,0:0|0:0,0:0:0:0:
486,124,21535,2,0,P|451:120|416:124,1,70,2|2,0:0|0:0,0:0:0:0:
288,193,21838,2,0,P|255:206|221:211,1,70,8|0,0:0|0:0,0:0:0:0:
46,166,22141,54,0,L|30:24,2,140,6|2|2,0:0|0:0|0:0,0:0:0:0:
155,311,23050,1,2,0:0:0:0:
258,91,23353,85,2,0:0:0:0:
143,194,23656,1,2,0:0:0:0:
264,288,23959,2,0,P|297:298|332:300,1,70,2|0,0:0|0:0,0:0:0:0:
413,354,24262,2,0,P|423:320|425:285,1,70,2|0,0:0|0:0,0:0:0:0:
367,206,24565,22,0,L|359:55,1,140,2|2,0:0|0:0,0:0:0:0:
360,66,25019,1,0,0:0:0:0:
271,136,25171,2,0,P|244:148|199:159,1,70,2|0,0:0|0:0,0:0:0:0:
92,148,25474,2,0,P|102:120|126:80,1,70,2|0,0:0|0:0,0:0:0:0:
205,158,25777,86,0,L|212:297,2,140,2|2|2,0:0|0:0|0:0,0:0:0:0:
339,34,26686,1,2,0:0:0:0:
390,207,26989,22,0,P|355:214|320:217,1,70,2|0,0:0|0:0,0:0:0:0:
280,135,27292,2,0,P|273:100|270:65,1,70,2|0,0:0|0:0,0:0:0:0:
184,32,27595,2,0,P|117:49|51:30,2,140,2|2|2,0:0|0:0|0:0,0:0:0:0:
455,246,28504,86,0,P|388:227|321:244,2,140,2|2|2,0:0|0:0|0:0,0:0:0:0:
327,97,29413,1,2,0:0:0:0:
247,276,29716,2,0,P|218:287|179:293,1,70,2|0,0:0|0:0,0:0:0:0:
86,260,30019,1,2,0:0:0:0:
161,102,30171,2,0,P|172:137|173:178,1,70,8|0,0:0|0:0,0:0:0:0:
247,276,30474,22,0,L|397:258,1,140,6|2,0:0|0:0,0:0:0:0:
278,171,30929,2,0,L|351:182,1,70,8|0,0:0|0:0,0:0:0:0:
441,152,31232,1,2,0:0:0:0:
441,152,31383,1,2,0:0:0:0:
400,47,31535,1,8,0:0:0:0:
292,77,31686,1,2,0:0:0:0:
292,77,31762,1,2,0:0:0:0:
292,77,31838,70,0,P|224:91|162:61,1,140,6|8,0:0|0:0,0:0:0:0:
129,167,32292,2,0,L|146:317,1,140,2|2,0:0|0:0,0:0:0:0:
242,193,32747,1,8,0:0:0:0:
137,237,32898,6,0,P|68:245|5:216,1,140,2|2,0:0|0:0,0:0:0:0:
6,216,33353,1,8,0:0:0:0:
228,337,33656,1,2,0:0:0:0:
329,275,33807,1,2,0:0:0:0:
242,193,33959,2,0,L|246:106,1,70,8|0,0:0|0:0,0:0:0:0:
313,24,34262,101,2,0:0:0:0:
313,24,34413,1,0,0:0:0:0:
171,101,34565,1,8,0:0:0:0:
242,193,34716,2,0,P|236:227|224:260,1,70,0|2,0:0|0:0,0:0:0:0:
109,208,35019,1,2,0:0:0:0:
157,348,35171,1,8,0:0:0:0:
224,260,35322,6,0,L|386:248,1,140,2|2,0:0|0:0,0:0:0:0:
473,183,35777,2,0,P|473:149|470:114,1,70,8|0,0:0|0:0,0:0:0:0:
407,29,36080,1,2,0:0:0:0:
356,121,36232,1,2,0:0:0:0:
301,31,36383,1,8,0:0:0:0:
301,31,36535,1,0,0:0:0:0:
216,141,36686,102,0,P|147:151|88:117,1,140,2|8,0:0|0:0,0:0:0:0:
88,117,37141,2,0,L|87:204,1,70,2|0,0:0|0:0,0:0:0:0:
89,292,37444,1,2,0:0:0:0:
3,192,37595,1,8,0:0:0:0:
34,55,37747,6,0,P|101:40|158:79,1,140,2|2,0:0|0:0,0:0:0:0:
165,202,38201,2,0,P|231:216|288:177,2,140,8|2|8,0:0|0:0|0:0,0:0:0:0:
461,57,39110,102,0,P|462:92|461:127,1,70,2|2,0:0|0:0,0:0:0:0:
421,217,39413,1,8,0:0:0:0:
486,331,39565,2,0,P|417:321|351:343,1,140,2|2,0:0|0:0,0:0:0:0:
351,343,40019,1,8,0:0:0:0:
241,285,40171,6,0,B|130:318|130:318|150:279,1,140,2|2,0:0|0:0,0:0:0:0:
184,193,40626,2,0,P|191:158|194:123,1,70,8|0,0:0|0:0,0:0:0:0:
172,13,40929,53,2,0:0:0:0:
172,13,41232,1,8,0:0:0:0:
172,13,41535,102,0,P|239:29|305:8,2,140,6|0|8,0:0|0:0|0:0,0:0:0:0:
72,61,42292,2,0,P|49:89|35:120,1,70,0|2,0:0|0:0,0:0:0:0:
60,230,42595,1,2,0:0:0:0:
60,230,42747,2,0,L|43:369,1,140,2|2,0:0|0:0,0:0:0:0:
121,129,43353,38,0,P|157:124|200:124,1,70,8|0,0:0|0:0,0:0:0:0:
222,37,43656,2,0,P|250:58|281:89,1,70,2|8,0:0|0:0,0:0:0:0:
337,166,43959,102,0,P|405:177|470:154,2,140,2|2|2,0:0|0:0|0:0,0:0:0:0:
368,66,44716,1,2,0:0:0:0:
255,323,45019,2,0,P|187:310|128:345,1,140,2|2,0:0|0:0,0:0:0:0:
33,253,45474,38,0,P|68:256|103:251,1,70,8|0,0:0|0:0,0:0:0:0:
168,169,45777,1,2,0:0:0:0:
168,169,45929,2,0,L|179:89,1,70,0|10,0:0|0:0,0:0:0:0:
254,27,46232,102,0,L|288:173,1,140,2|2,0:0|0:0,0:0:0:0:
358,236,46686,2,0,P|427:233|481:190,2,140,0|8|2,0:0|0:0|0:0,0:0:0:0:
168,170,47595,5,2,0:0:0:0:
353,70,47898,1,2,0:0:0:0:
256,317,48201,2,0,L|256:242,1,70,8|0,0:0|0:0,0:0:0:0:
256,141,48504,1,2,0:0:0:0:
256,141,48580,1,2,0:0:0:0:
256,141,48656,1,2,0:0:0:0:
353,70,48807,22,0,P|422:73|474:29,2,140,6|2|2,0:0|0:0|0:0,0:0:0:0:
147,27,49716,1,2,0:0:0:0:
147,27,50019,101,2,0:0:0:0:
147,27,50322,1,2,0:0:0:0:
147,27,50626,1,2,0:0:0:0:
147,27,50929,1,2,0:0:0:0:
147,27,51232,102,0,L|136:173,2,140,2|2|2,0:0|0:0|0:0,0:0:0:0:
251,23,51989,1,2,0:0:0:0:
302,114,52141,1,2,0:0:0:0:
241,199,52292,1,8,0:0:0:0:
241,199,52747,6,0,L|234:277,1,70,2|0,0:0|0:0,0:0:0:0:
309,343,53050,1,2,0:0:0:0:
309,343,53201,2,0,L|386:322,1,70,2|0,0:0|0:0,0:0:0:0:
463,266,53504,22,0,P|491:202|480:133,1,140,6|2,0:0|0:0,0:0:0:0:
431,40,53959,2,0,P|403:63|384:91,1,70,8|0,0:0|0:0,0:0:0:0:
356,192,54262,1,2,0:0:0:0:
356,192,54413,2,0,P|324:207|289:210,1,70,2|8,0:0|0:0,0:0:0:0:
196,161,54716,6,0,L|51:147,1,140,2|2,0:0|0:0,0:0:0:0:
93,246,55171,2,0,P|104:278|105:322,1,70,8|0,0:0|0:0,0:0:0:0:
20,375,55474,1,2,0:0:0:0:
20,375,55626,2,0,P|9:343|8:299,1,70,2|8,0:0|0:0,0:0:0:0:
106,314,55929,102,0,P|175:324|239:298,1,140,6|2,0:0|0:0,0:0:0:0:
317,228,56383,2,0,P|323:188|323:156,1,70,8|0,0:0|0:0,0:0:0:0:
288,59,56686,1,2,0:0:0:0:
288,59,56838,2,0,L|367:49,1,70,2|8,0:0|0:0,0:0:0:0:
486,14,57141,6,0,L|468:152,1,140,2|2,0:0|0:0,0:0:0:0:
412,268,57595,2,0,L|428:351,1,70,8|0,0:0|0:0,0:0:0:0:
317,229,57898,1,2,0:0:0:0:
317,229,58050,2,0,L|333:312,1,70,2|8,0:0|0:0,0:0:0:0:
234,342,58353,102,0,B|128:320|128:320|151:298,1,140,6|2,0:0|0:0,0:0:0:0:
214,214,58807,2,0,P|224:146|200:81,2,140,8|2|8,0:0|0:0|0:0,0:0:0:0:
22,51,59716,6,0,P|55:42|90:40,1,70,2|0,0:0|0:0,0:0:0:0:
200,80,60019,2,0,P|234:78|268:69,1,70,8|0,0:0|0:0,0:0:0:0:
366,29,60322,1,2,0:0:0:0:
366,29,60474,1,2,0:0:0:0:
317,174,60626,1,8,0:0:0:0:
317,174,60929,102,0,P|385:183|449:156,1,140,6|8,0:0|0:0,0:0:0:0:
465,259,61383,2,0,P|463:283|465:330,1,70,8|0,0:0|0:0,0:0:0:0:
362,309,61686,2,0,P|337:307|290:309,1,70,8|0,0:0|0:0,0:0:0:0:
170,354,61989,6,0,P|101:359|43:322,1,140,12|2,0:0|0:0,0:0:0:0:
113,243,62444,2,0,P|98:211|90:177,1,70,8|0,0:0|0:0,0:0:0:0:
104,72,62747,1,2,0:0:0:0:
193,126,62898,1,2,0:0:0:0:
193,126,62974,1,2,0:0:0:0:
193,126,63050,1,8,0:0:0:0:
280,32,63201,102,0,B|334:40|388:18|388:18|375:46,1,140,6|2,0:0|0:0,0:0:0:0:
326,138,63656,2,0,P|317:171|313:206,1,70,8|0,0:0|0:0,0:0:0:0:
400,265,63959,1,2,0:0:0:0:
400,265,64110,2,0,P|408:231|412:196,1,70,2|8,0:0|0:0,0:0:0:0:
313,206,64413,6,2,P|246:186|180:207,1,140,2|0,0:0|0:0,0:0:0:0:
115,302,64868,2,0,P|181:321|247:300,1,140,8|2,0:0|0:0,0:0:0:0:
313,206,65322,2,0,P|320:173|321:136,1,70,2|8,0:0|0:0,0:0:0:0:
260,32,65626,102,0,P|193:28|152:81,1,140,6|2,0:0|0:0,0:0:0:0:
156,185,66080,2,0,L|83:175,1,70,8|0,0:0|0:0,0:0:0:0:
186,291,66383,1,2,0:0:0:0:
186,291,66535,2,0,L|113:281,1,70,2|8,0:0|0:0,0:0:0:0:
233,368,66838,6,0,L|383:353,1,140,6|2,0:0|0:0,0:0:0:0:
279,238,67292,2,0,L|354:265,1,70,8|0,0:0|0:0,0:0:0:0:
363,134,67595,2,0,L|413:188,1,70,2|2,0:0|0:0,0:0:0:0:
501,189,67898,1,8,0:0:0:0:
424,84,68050,102,0,P|361:56|300:85,1,140,6|2,0:0|0:0,0:0:0:0:
277,173,68504,2,0,P|214:200|153:171,2,140,8|2|8,0:0|0:0|0:0,0:0:0:0:
81,39,69413,6,0,L|61:185,1,140,2|8,0:0|0:0,0:0:0:0:
93,263,69868,1,0,0:0:0:0:
93,263,70019,2,0,L|127:338,1,70,2|2,0:0|0:0,0:0:0:0:
212,315,70322,1,8,0:0:0:0:
212,315,70474,102,0,P|279:301|346:319,1,140,6|2,0:0|0:0,0:0:0:0:
420,266,70929,2,0,B|434:215|454:155|454:155|421:177,1,140,8|2,0:0|0:0,0:0:0:0:
349,198,71383,1,2,0:0:0:0:
349,198,71535,2,0,P|314:203|279:204,1,70,8|0,0:0|0:0,0:0:0:0:
152,152,71838,6,0,P|129:88|155:25,2,140,2|8|2,0:0|0:0|0:0,0:0:0:0:
228,97,72595,1,2,0:0:0:0:
228,97,72747,1,8,0:0:0:0:
228,97,72898,6,0,P|297:100|353:60,1,140,6|2,0:0|0:0,0:0:0:0:
466,24,73353,2,0,L|446:173,1,140,8|8,0:0|0:0,0:0:0:0:
438,252,73807,1,0,0:0:0:0:
438,252,73959,2,0,L|373:283,1,70,8|0,0:0|0:0,0:0:0:0:
277,226,74262,22,0,L|212:257,1,70,8|0,0:0|0:0,0:0:0:0:
112,208,74565,2,0,L|47:239,1,70,8|0,0:0|0:0,0:0:0:0:
49,107,74868,2,0,P|116:119|174:84,1,140,8|0,0:0|0:0,0:0:0:0:
285,69,75322,86,0,P|352:56|410:91,1,140,6|2,0:0|0:0,0:0:0:0:
461,192,75777,2,0,P|393:204|335:169,2,140,8|8|8,0:0|0:0|0:0,0:0:0:0:
461,192,76535,1,0,0:0:0:0:
461,192,76686,21,6,0:0:0:0:
256,192,76762,12,0,78656,0:0:0:0:
257,193,78959,86,0,L|240:340,1,140,6|2,0:0|0:0,0:0:0:0:
344,291,79413,2,0,L|351:218,1,70,8|0,0:0|0:0,0:0:0:0:
232,133,79716,2,0,L|215:280,1,140,2|8,0:0|0:0,0:0:0:0:
133,349,80171,6,0,P|67:366|4:338,1,140,6|2,0:0|0:0,0:0:0:0:
60,249,80626,2,0,P|54:214|51:179,1,70,8|0,0:0|0:0,0:0:0:0:
139,61,80929,2,0,P|144:95|147:130,1,70,2|2,0:0|0:0,0:0:0:0:
155,235,81232,1,8,0:0:0:0:
246,163,81383,102,0,P|314:176|381:158,1,140,6|2,0:0|0:0,0:0:0:0:
473,103,81838,2,0,L|483:22,1,70,8|0,0:0|0:0,0:0:0:0:
378,53,82141,1,2,0:0:0:0:
378,53,82292,1,2,0:0:0:0:
381,158,82444,1,8,0:0:0:0:
385,262,82595,6,0,B|339:360|339:360|335:328,1,140,6|2,0:0|0:0,0:0:0:0:
268,246,83050,2,0,P|233:244|198:249,1,70,8|0,0:0|0:0,0:0:0:0:
143,339,83353,2,0,P|108:344|73:342,1,70,2|2,0:0|0:0,0:0:0:0:
54,238,83656,2,0,L|42:142,1,70,8|0,0:0|0:0,0:0:0:0:
97,76,83959,70,0,P|162:99|228:78,1,140,6|0,0:0|0:0,0:0:0:0:
313,139,84413,2,0,P|377:116|443:137,1,140,12|0,0:0|0:0,0:0:0:0:
443,137,84868,1,8,0:0:0:0:
443,137,85019,1,6,0:0:0:0:
256,192,85095,12,2,86737,0:0:0:0:
