osu file format v14

[General]
AudioFilename: audio.mp3
AudioLeadIn: 500
PreviewTime: 52595
Countdown: 0
SampleSet: Soft
StackLeniency: 0.2
Mode: 0
LetterboxInBreaks: 0
EpilepsyWarning: 1
WidescreenStoryboard: 1

[Editor]
DistanceSpacing: 1.5
BeatDivisor: 4
GridSize: 32
TimelineZoom: 2.5

[Metadata]
Title:Twintail Dreamer! (TV Size)
TitleUnicode:ツインテール・ドリーマー! (TV Size)
Artist:Twin-Tails
ArtistUnicode:ツインテイルズ
Creator:Moecho
Version:L18's Insane
Source:俺、ツインテールになります。
Tags:Twintails OreTwi Ore, Tsuinteru Tsuintēru ni Narimasu. Gonna be the Twin-Tail!! テイルレッド Tail Red 上坂すみれ Uesaka Sumire テイルブルー Blue 相坂優歌 Aisaka Yuuka テイルイエロー Yellow 赤﨑千夏 Akasaki Chinatsu Ending Theme ED TV Size edit Anime papiyon japanese pop j-pop jpop Kodora Laurier Natteke Kite HabiHolic Loneight L18 Lecana Giralda captin1 jonathanlfj apaffy kisata Nyquill RLC LunarSakuya Mythol meiikyuu Syameimaru-Aya Ayaya caren_sk CRN kiddly Axarious Delis ShirohaMyMommy SMM Koiyuki Minakami Yuki yf_bmp yf Skystar Amamiya Yuko rui rustbell spro sprosive Snow Note 7odoa bakabaka Hollow Wings HW
BeatmapID:2329706
BeatmapSetID:1115213

[Difficulty]
HPDrainRate:6
CircleSize:4.3
OverallDifficulty:7
ApproachRate:9.3
SliderMultiplier:1.8
SliderTickRate:1

[Events]
//Background and Video events
0,0,"bg.jpg",0,0
//Break Periods
//Storyboard Layer 0 (Background)
Sprite,Background,Centre,"sb\sprites\pixel-white.png",320,240 F,0,-60,,0,1 C,0,-60,,0,0,0 V,0,-60,,880,480 F,0,89619,,1,0
Sprite,Background,Centre,"bg.jpg",320,240 F,0,-2559,-1559,0,0.75 S,0,-1559,,0.4444444 F,0,337,487,0.75,0
Sprite,Background,Centre,"bg.jpg",320,240 F,0,88125,89125,0,0.75 S,0,89125,,0.4444444 F,0,89784,89934,0.75,0
Sprite,Background,Centre,"sb\sprites\bg-alt.jpg",320,240 F,0,187,337,0,0.75 S,0,337,,0.4444444 F,0,21156,22306,0.75,0
Sprite,Background,Centre,"sb\sprites\bg-alt.jpg",320,240 F,0,53369,53519,0,0.75 S,0,53519,,0.4444444 F,0,88125,89275,0.75,0
Sprite,Background,Centre,"sb\sprites\bg-alt-bw.jpg",320,240 F,0,22006,22306,0,0.75 S,0,22156,,0.4444444 F,0,39686,40486,0.75,0
Sprite,Background,Centre,"sb\sprites\bg-alt-bw.jpg",320,240 F,0,50491,50791,0,0.75 S,0,50641,,0.4444444 F,0,51807,52607,0.75,0
Sprite,Background,Centre,"sb\sprites\tail-red-ci.jpg",320,240 F,0,40794,41094,0,0.75 S,0,40944,,0.4444444 F,0,48822,50322,0.75,0
Sprite,Background,Centre,"sb\sprites\tail-blue-ci.jpg",320,240 F,0,42915,43215,0,0.75 S,0,43065,,0.4444444 F,0,48822,50322,0.75,0
Sprite,Background,Centre,"sb\sprites\tail-yellow-ci.jpg",320,240 F,0,45339,45639,0,0.75 S,0,45489,,0.4444444 F,0,48822,50322,0.75,0
Sprite,Background,Centre,"sb\sprites\pixel-white.png",320,240 V,0,2610,,854,480 F,0,2610,3210,0.15,0
Sprite,Background,Centre,"sb\sprites\pixel-white.png",320,240 V,0,3822,,854,480 F,0,3822,4422,0.15,0
Sprite,Background,Centre,"sb\sprites\pixel-white.png",320,240 V,0,5034,,854,480 F,0,5034,5634,0.15,0
Sprite,Background,Centre,"sb\sprites\pixel-white.png",320,240 V,0,5792,,854,480 F,0,5792,6392,0.15,0
Sprite,Background,Centre,"sb\sprites\pixel-white.png",320,240 V,0,6247,,854,480 F,0,6247,6847,0.15,0
Sprite,Background,Centre,"sb\sprites\pixel-white.png",320,240 V,0,7459,,854,480 F,0,7459,8059,0.15,0
Sprite,Background,Centre,"sb\sprites\pixel-white.png",320,240 V,0,9883,,854,480 F,0,9883,10483,0.15,0
Sprite,Background,Centre,"sb\sprites\pixel-white.png",320,240 V,0,12307,,854,480 F,0,12307,12907,0.15,0
Sprite,Background,Centre,"sb\sprites\pixel-white.png",320,240 V,0,14731,,854,480 F,0,14731,15331,0.15,0
Sprite,Background,Centre,"sb\sprites\pixel-white.png",320,240 V,0,17156,,854,480 F,0,17156,17756,0.15,0
Sprite,Background,Centre,"sb\sprites\pixel-white.png",320,240 V,0,18368,,854,480 F,0,18368,18968,0.15,0
Sprite,Background,Centre,"sb\sprites\pixel-white.png",320,240 V,0,19580,,854,480 F,0,19580,20180,0.15,0
Sprite,Background,Centre,"sb\sprites\pixel-white.png",320,240 V,0,20792,,854,480 F,0,20792,21392,0.15,0
Sprite,Background,Centre,"sb\sprites\pixel-white.png",320,240 V,0,22156,,854,480 F,0,22156,22756,0.15,0
Sprite,Background,Centre,"sb\sprites\pixel-white.png",320,240 V,0,30489,,854,480 F,0,30489,31089,0.15,0
Sprite,Background,Centre,"sb\sprites\pixel-white.png",320,240 V,0,31853,,854,480 F,0,31853,32453,0.15,0
Sprite,Background,Centre,"sb\sprites\pixel-white.png",320,240 V,0,41550,,854,480 F,0,41550,42150,0.15,0
Sprite,Background,Centre,"sb\sprites\pixel-white.png",320,240 V,0,46247,,854,480 F,0,46247,46847,0.15,0
Sprite,Background,Centre,"sb\sprites\pixel-white.png",320,240 V,0,48822,,854,480 F,0,48822,49422,0.15,0
Sprite,Background,Centre,"sb\sprites\pixel-white.png",320,240 V,0,53519,,854,480 F,0,53519,54119,0.15,0
Sprite,Background,Centre,"sb\sprites\pixel-white.png",320,240 V,0,61398,,854,480 F,0,61398,61998,0.15,0
Sprite,Background,Centre,"sb\sprites\pixel-white.png",320,240 V,0,62004,,854,480 F,0,62004,62604,0.15,0
Sprite,Background,Centre,"sb\sprites\pixel-white.png",320,240 V,0,63216,,854,480 F,0,63216,63816,0.15,0
Sprite,Background,Centre,"sb\sprites\pixel-white.png",320,240 V,0,68065,,854,480 F,0,68065,68665,0.15,0
Sprite,Background,Centre,"sb\sprites\pixel-white.png",320,240 V,0,70489,,854,480 F,0,70489,71089,0.15,0
Sprite,Background,Centre,"sb\sprites\pixel-white.png",320,240 V,0,72913,,854,480 F,0,72913,73513,0.15,0
Sprite,Background,Centre,"sb\sprites\pixel-white.png",320,240 V,0,75338,,854,480 F,0,75338,75938,0.15,0
Sprite,Background,Centre,"sb\sprites\pixel-white.png",320,240 V,0,78974,,854,480 F,0,78974,79574,0.15,0
Sprite,Background,Centre,"sb\sprites\pixel-white.png",320,240 V,0,83974,,854,480 F,0,83974,84574,0.15,0
Sprite,Background,Centre,"sb\sprites\pixel-white.png",320,240 V,0,85034,,854,480 F,0,85034,85634,0.15,0
//Storyboard Layer 1 (Fail)
//Storyboard Layer 2 (Pass)
//Storyboard Layer 3 (Foreground)
Sprite,Foreground,Centre,"sb\lyrics\004c.png",0,0 F,0,12207,12407,0,0.8 M,0,12307,,667.4875,397.8625 S,0,12307,,0.425 C,0,12307,,255,255,255 F,0,86904,87104,0.8,0
Sprite,Foreground,Centre,"sb\lyrics\006f.png",0,0 F,0,12207,12407,0,0.8 M,0,12307,,676.4125,399.35 S,0,12307,,0.425 C,0,12307,,255,255,255 F,0,86904,87104,0.8,0
Sprite,Foreground,Centre,"sb\lyrics\006e.png",0,0 F,0,12207,12407,0,0.8 M,0,12307,,686.1874,399.35 S,0,12307,,0.425 C,0,12307,,255,255,255 F,0,86904,87104,0.8,0
Sprite,Foreground,Centre,"sb\lyrics\0065.png",0,0 F,0,12207,12407,0,0.8 M,0,12307,,695.1124,399.9875 S,0,12307,,0.425 C,0,12307,,255,255,255 F,0,86904,87104,0.8,0
Sprite,Foreground,Centre,"sb\lyrics\0069.png",0,0 F,0,12207,12407,0,0.8 M,0,12307,,704.4624,397.65 S,0,12307,,0.425 C,0,12307,,255,255,255 F,0,86904,87104,0.8,0
Sprite,Foreground,Centre,"sb\lyrics\0067.png",0,0 F,0,12207,12407,0,0.8 M,0,12307,,713.5999,400.4125 S,0,12307,,0.425 C,0,12307,,255,255,255 F,0,86904,87104,0.8,0
Sprite,Foreground,Centre,"sb\lyrics\0068.png",0,0 F,0,12207,12407,0,0.8 M,0,12307,,723.3748,397.8625 S,0,12307,,0.425 C,0,12307,,255,255,255 F,0,86904,87104,0.8,0
Sprite,Foreground,Centre,"sb\lyrics\0074.png",0,0 F,0,12207,12407,0,0.8 M,0,12307,,732.5123,398.075 S,0,12307,,0.425 C,0,12307,,255,255,255 F,0,86904,87104,0.8,0
Sprite,Foreground,Centre,"sb\lyrics\004c.png",0,0 F,0,12207,12407,0,0.8 M,0,12307,,612.75,434.25 S,0,12307,,0.5 C,0,12307,,255,255,255 F,0,86904,87104,0.8,0
Sprite,Foreground,Centre,"sb\lyrics\0031.png",0,0 F,0,12207,12407,0,0.8 M,0,12307,,623.25,434 S,0,12307,,0.5 C,0,12307,,255,255,255 F,0,86904,87104,0.8,0
Sprite,Foreground,Centre,"sb\lyrics\0038.png",0,0 F,0,12207,12407,0,0.8 M,0,12307,,634.25,434 S,0,12307,,0.5 C,0,12307,,255,255,255 F,0,86904,87104,0.8,0
Sprite,Foreground,Centre,"sb\lyrics\0027.png",0,0 F,0,12207,12407,0,0.8 M,0,12307,,643.25,428.75 S,0,12307,,0.5 C,0,12307,,255,255,255 F,0,86904,87104,0.8,0
Sprite,Foreground,Centre,"sb\lyrics\0073.png",0,0 F,0,12207,12407,0,0.8 M,0,12307,,656.5,436.5 S,0,12307,,0.5 C,0,12307,,255,255,255 F,0,86904,87104,0.8,0
Sprite,Foreground,Centre,"sb\lyrics\0049.png",0,0 F,0,12207,12407,0,0.8 M,0,12307,,678.25,434.25 S,0,12307,,0.5 C,0,12307,,255,255,255 F,0,86904,87104,0.8,0
Sprite,Foreground,Centre,"sb\lyrics\006e.png",0,0 F,0,12207,12407,0,0.8 M,0,12307,,689.75,436 S,0,12307,,0.5 C,0,12307,,255,255,255 F,0,86904,87104,0.8,0
Sprite,Foreground,Centre,"sb\lyrics\0073.png",0,0 F,0,12207,12407,0,0.8 M,0,12307,,700.5,436.5 S,0,12307,,0.5 C,0,12307,,255,255,255 F,0,86904,87104,0.8,0
Sprite,Foreground,Centre,"sb\lyrics\0061.png",0,0 F,0,12207,12407,0,0.8 M,0,12307,,711.75,436.25 S,0,12307,,0.5 C,0,12307,,255,255,255 F,0,86904,87104,0.8,0
Sprite,Foreground,Centre,"sb\lyrics\006e.png",0,0 F,0,12207,12407,0,0.8 M,0,12307,,722.75,436 S,0,12307,,0.5 C,0,12307,,255,255,255 F,0,86904,87104,0.8,0
Sprite,Foreground,Centre,"sb\lyrics\0065.png",0,0 F,0,12207,12407,0,0.8 M,0,12307,,733.25,436.75 S,0,12307,,0.5 C,0,12307,,255,255,255 F,0,86904,87104,0.8,0
//Storyboard Layer 4 (Overlay)
//Storyboard Sound Samples

[TimingPoints]
323,303.030303030303,4,2,1,50,1,0
323,-100,4,2,1,50,0,0
1989,-100,4,1,1,50,0,0
2595,-166.666666666667,4,1,1,50,0,0
2747,-166.666666666667,4,2,0,50,0,0
3807,-166.666666666667,4,1,1,50,0,0
3959,-166.666666666667,4,2,0,50,0,0
5019,-166.666666666667,4,1,1,50,0,0
5171,-166.666666666667,4,2,0,50,0,0
5777,-166.666666666667,4,1,1,50,0,0
5929,-166.666666666667,4,2,0,50,0,0
6232,-125,4,1,1,50,0,0
7444,-111.111111111111,4,1,1,50,0,0
9413,-111.111111111111,4,3,1,40,0,0
9716,-100,4,1,1,60,0,0
9868,-111.111111111111,4,1,1,60,0,0
12292,-100,4,1,1,60,0,0
13732,-100,4,2,1,60,0,0
13807,-100,4,1,1,60,0,0
16156,-100,4,2,1,60,0,0
16232,-100,4,1,1,60,0,0
22141,-142.857142857143,4,1,1,60,0,0
22292,-125,4,2,1,60,0,0
22595,-125,4,2,0,60,0,0
22747,-125,4,2,1,60,0,0
23201,-125,4,2,0,60,0,0
23353,-125,4,2,1,60,0,0
24565,-142.857142857143,4,2,1,60,0,0
25019,-125,4,2,0,60,0,0
25171,-125,4,2,1,60,0,0
25626,-125,4,2,0,60,0,0
25777,-125,4,2,1,60,0,0
26989,-142.857142857143,4,2,1,60,0,0
27444,-125,4,2,0,60,0,0
27595,-125,4,2,1,60,0,0
28050,-125,4,2,0,60,0,0
28201,-125,4,2,1,60,0,0
29413,-142.857142857143,4,2,1,60,0,0
29868,-125,4,2,0,60,0,0
30019,-125,4,2,1,60,0,0
30474,-125,4,1,1,60,0,0
30626,-125,4,2,1,60,0,0
31232,-125,4,3,1,60,0,0
31535,-125,4,1,1,60,0,0
31838,-142.857142857143,4,1,1,60,0,0
31989,-111.111111111111,4,2,1,60,0,0
32595,-111.111111111111,4,3,1,60,0,0
32747,-111.111111111111,4,2,1,60,0,0
32898,-142.857142857143,4,3,1,60,0,0
33050,-111.111111111111,4,2,1,60,0,0
34262,-142.857142857143,4,2,1,60,0,0
34413,-111.111111111111,4,2,1,60,0,0
35019,-111.111111111111,4,3,1,60,0,0
35171,-111.111111111111,4,2,1,60,0,0
35322,-142.857142857143,4,3,1,60,0,0
35474,-111.111111111111,4,2,1,60,0,0
36686,-142.857142857143,4,2,1,60,0,0
36838,-111.111111111111,4,2,1,60,0,0
37444,-111.111111111111,4,3,1,60,0,0
37595,-111.111111111111,4,2,1,60,0,0
37747,-142.857142857143,4,3,1,60,0,0
37898,-111.111111111111,4,2,1,60,0,0
39868,-111.111111111111,4,3,1,60,0,0
40019,-111.111111111111,4,2,1,60,0,0
40171,-142.857142857143,4,3,1,60,0,0
40322,-111.111111111111,4,2,1,60,0,0
40929,-100,4,2,1,60,0,0
41232,-66.6666666666667,4,2,1,60,0,0
41535,-142.857142857143,4,2,1,60,0,0
42292,-142.857142857143,4,2,0,60,0,0
42444,-142.857142857143,4,2,1,60,0,0
46232,-111.111111111111,4,2,1,60,0,0
48807,-142.857142857143,4,1,1,60,0,0
48959,-142.857142857143,4,2,1,60,0,0
49262,-142.857142857143,4,2,0,60,0,0
49413,-142.857142857143,4,2,1,60,0,0
49565,-142.857142857143,4,2,0,60,0,0
49716,-142.857142857143,4,2,1,60,0,0
49868,-142.857142857143,4,2,0,60,0,0
50019,-142.857142857143,4,2,1,60,0,0
50474,-142.857142857143,4,2,0,60,0,0
50626,-142.857142857143,4,2,1,60,0,0
50777,-142.857142857143,4,3,1,60,0,0
50929,-142.857142857143,4,2,1,60,0,0
51080,-142.857142857143,4,3,1,60,0,0
51232,-142.857142857143,4,2,0,60,0,0
51535,-142.857142857143,4,2,1,60,0,0
51686,-142.857142857143,4,2,0,60,0,0
52292,-142.857142857143,4,2,1,60,0,0
52747,-142.857142857143,4,2,0,60,0,0
53504,-83.3333333333333,4,1,1,60,0,1
54186,-83.3333333333333,4,2,1,5,0,1
54262,-83.3333333333333,4,1,1,60,0,1
56610,-83.3333333333333,4,2,1,5,0,1
56686,-83.3333333333333,4,1,1,60,0,1
58353,-125,4,1,1,60,0,1
58580,-125,4,2,1,5,0,1
58656,-125,4,1,1,60,0,1
58807,-100,4,1,1,60,0,1
59035,-100,4,2,1,5,0,1
59110,-125,4,1,1,60,0,1
59338,-125,4,2,1,5,0,1
59413,-100,4,1,1,60,0,1
59641,-100,4,2,1,5,0,1
59716,-83.3333333333333,4,1,1,60,0,1
59944,-83.3333333333333,4,2,1,5,0,1
60019,-100,4,1,1,60,0,1
60247,-100,4,2,1,5,0,1
60322,-90.9090909090909,4,1,1,60,0,1
60550,-90.9090909090909,4,2,1,5,0,1
60626,-100,4,1,1,60,0,1
60929,-83.3333333333333,4,1,1,60,0,1
61989,-125,4,1,1,60,0,1
62292,-83.3333333333333,4,1,1,60,0,1
62747,-100,4,1,1,60,0,0
63126,-100,4,2,1,5,0,0
63201,-83.3333333333333,4,1,1,60,0,1
63883,-83.3333333333333,4,2,1,5,0,1
63959,-83.3333333333333,4,1,1,60,0,1
65095,-83.3333333333333,4,2,1,5,0,1
65171,-83.3333333333333,4,1,1,60,0,1
66307,-83.3333333333333,4,2,1,5,0,1
66383,-83.3333333333333,4,1,1,60,0,1
69338,-83.3333333333333,4,2,1,5,0,1
69413,-83.3333333333333,4,1,1,60,0,1
69641,-83.3333333333333,4,2,1,5,0,1
69716,-83.3333333333333,4,1,1,60,0,1
70247,-83.3333333333333,4,2,1,5,0,1
70322,-83.3333333333333,4,1,1,60,0,1
71762,-83.3333333333333,4,2,1,5,0,1
71838,-83.3333333333333,4,1,1,60,0,1
72065,-83.3333333333333,4,2,1,5,0,1
72141,-83.3333333333333,4,1,1,60,0,1
72444,-83.3333333333333,4,1,1,60,0,0
72822,-83.3333333333333,4,2,1,5,0,0
72898,-111.111111111111,4,1,1,60,0,1
74868,-111.111111111111,4,3,1,40,0,1
75171,-111.111111111111,4,1,1,60,0,1
76686,-166.666666666667,4,1,1,60,0,1
76762,-166.666666666667,4,2,1,60,0,1
76913,-166.666666666667,4,2,1,5,0,1
76989,-142.857142857143,4,2,1,60,0,1
77216,-142.857142857143,4,2,1,5,0,1
77292,-125,4,2,1,60,0,1
77595,-125,4,2,1,5,0,1
77747,-166.666666666667,4,2,1,60,0,1
77822,-166.666666666667,4,2,1,5,0,1
78504,-125,4,2,1,60,0,1
78883,-125,4,2,1,5,0,1
78959,-100,4,1,1,60,0,0
80398,-100,4,2,1,60,0,0
80474,-100,4,1,1,60,0,0
82822,-100,4,2,1,60,0,0
82898,-100,4,1,1,60,0,0
85019,-200,4,1,1,60,0,0
85095,-200,4,1,1,5,0,0
86585,-200,4,1,1,20,0,0

[Colours]
Combo1 : 192,192,192
Combo2 : 255,50,50
Combo3 : 255,125,125
Combo4 : 25,100,255
Combo5 : 50,150,255
Combo6 : 255,255,50
Combo7 : 255,255,150
Combo8 : 128,128,128

[HitObjects]
408,280,323,101,2,0:0:0:0:
408,280,474,1,0,0:0:0:0:
408,280,626,1,0,0:0:0:0:
408,280,777,1,2,0:0:0:0:
132,256,1232,5,2,0:0:0:0:
132,256,1383,1,0,0:0:0:0:
132,256,1535,1,0,0:0:0:0:
132,256,1686,1,2,0:0:0:0:
132,256,1838,70,0,P|116:208|120:160,1,90,8|0,0:0|0:0,0:0:0:0:
164,104,2065,1,0,0:0:0:0:
164,104,2141,1,8,0:0:0:0:
16,72,2292,1,8,0:0:0:0:
16,72,2595,54,0,B|32:40|32:40|116:48,1,107.999996704102,4|0,0:0|0:0,0:0:0:0:
228,152,3050,2,0,B|299:158|299:158|315:126,1,107.999996704102,2|0,0:0|0:0,0:0:0:0:
312,36,3504,1,2,0:0:0:0:
312,36,3807,6,0,P|368:20|428:32,1,107.999996704102,4|0,0:0|0:0,0:0:0:0:
457,211,4262,2,0,L|461:103,1,107.999996704102,2|0,0:0|0:0,0:0:0:0:
372,144,4716,1,2,0:0:0:0:
372,144,5019,102,0,L|368:252,1,107.999996704102,4|0,0:0|0:0,0:0:0:0:
452,296,5474,2,0,L|456:229,1,53.9999983520508,2|0,0:0|0:0,0:0:0:0:
368,344,5777,1,4,0:0:0:0:
472,288,5929,2,0,L|476:221,1,53.9999983520508,2|0,0:0|0:0,0:0:0:0:
368,344,6232,6,0,P|312:328|221:350,1,144,4|0,0:0|0:0,0:0:0:0:
143,351,6686,1,8,0:0:0:0:
114,347,6762,1,8,0:0:0:0:
89,332,6838,1,8,0:0:0:0:
77,305,6913,1,8,0:0:0:0:
78,261,6989,2,0,L|85:176,1,72,8|8,0:0|0:0,0:0:0:0:
40,40,7292,1,0,0:0:0:0:
176,192,7444,6,0,P|256:204|336:192,1,161.999995056153,4|0,0:0|0:0,0:0:0:0:
200,92,7898,2,0,L|104:116,1,80.9999975280763,8|0,0:0|0:0,0:0:0:0:
336,192,8201,2,0,L|395:248,1,80.9999975280763,8|0,0:0|0:0,0:0:0:0:
117,248,8504,2,0,L|176:192,1,80.9999975280763,8|0,0:0|0:0,0:0:0:0:
390,111,8807,2,0,L|312:92,1,80.9999975280763,8|0,0:0|0:0,0:0:0:0:
119,22,9110,2,0,L|23:46,1,80.9999975280763,8|0,0:0|0:0,0:0:0:0:
200,92,9413,1,8,0:0:0:0:
208,68,9489,1,8,0:0:0:0:
216,40,9565,1,8,0:0:0:0:
119,22,9716,1,8,0:0:0:0:
311,91,9868,22,0,P|392:96|460:48,1,161.999995056153,4|0,0:0|0:0,0:0:0:0:
448,240,10322,2,0,L|434:160,1,80.9999975280763,8|0,0:0|0:0,0:0:0:0:
300,300,10626,2,0,L|391:316,1,80.9999975280763,8|0,0:0|0:0,0:0:0:0:
64,240,10929,2,0,L|77:160,1,80.9999975280763,8|0,0:0|0:0,0:0:0:0:
212,300,11232,2,0,L|120:316,1,80.9999975280763,8|0,0:0|0:0,0:0:0:0:
256,168,11535,2,0,L|347:184,1,80.9999975280763,8|0,0:0|0:0,0:0:0:0:
160,212,11838,5,8,0:0:0:0:
160,120,11989,1,0,0:0:0:0:
178,93,12065,1,0,0:0:0:0:
205,74,12141,1,0,0:0:0:0:
236,67,12216,1,0,0:0:0:0:
268,69,12292,70,0,P|356:88|448:64,1,180,6|2,0:0|0:0,0:0:0:0:
468,232,12747,2,0,L|480:120,1,90,8|0,0:0|0:0,0:0:0:0:
432,56,12974,1,0,0:0:0:0:
442,67,13050,2,0,P|398:63|334:75,1,90,2|0,0:0|0:0,0:0:0:0:
304,168,13353,1,8,0:0:0:0:
184,36,13504,6,0,B|124:56|44:40,1,135,2|0,0:0|0:0,0:0:0:0:
36,32,13807,1,2,0:0:0:0:
8,132,13959,2,0,L|24:240,1,90,10|0,0:0|0:0,0:0:0:0:
144,152,14262,1,2,0:0:0:0:
140,168,14338,1,2,0:0:0:0:
128,156,14413,1,0,0:0:0:0:
180,72,14565,1,8,0:0:0:0:
380,184,14716,102,0,P|332:240|312:152,1,180,6|2,0:0|0:0,0:0:0:0:
368,368,15171,2,0,P|324:372|268:360,1,90,8|0,0:0|0:0,0:0:0:0:
236,280,15398,1,0,0:0:0:0:
244,292,15474,2,0,P|196:292|152:300,1,90,2|0,0:0|0:0,0:0:0:0:
68,368,15777,1,8,0:0:0:0:
236,280,15929,6,0,L|224:120,1,135,2|0,0:0|0:0,0:0:0:0:
224,124,16232,1,2,0:0:0:0:
428,156,16383,2,0,L|420:272,1,90,10|0,0:0|0:0,0:0:0:0:
308,96,16686,1,2,0:0:0:0:
312,80,16762,1,0,0:0:0:0:
324,92,16838,1,2,0:0:0:0:
308,192,16989,1,8,0:0:0:0:
404,16,17141,102,0,P|456:-4|448:92,1,180,6|2,0:0|0:0,0:0:0:0:
264,32,17595,2,0,B|216:20|168:36,1,90,8|0,0:0|0:0,0:0:0:0:
16,100,17898,1,2,0:0:0:0:
32,88,17974,1,0,0:0:0:0:
16,84,18050,1,2,0:0:0:0:
64,168,18201,1,8,0:0:0:0:
224,124,18353,6,0,P|152:168|216:200,1,180,6|2,0:0|0:0,0:0:0:0:
400,120,18807,2,0,P|352:112|292:132,1,90,8|0,0:0|0:0,0:0:0:0:
360,220,19110,1,2,0:0:0:0:
464,44,19262,1,0,0:0:0:0:
312,121,19413,1,0,0:0:0:0:
464,296,19565,102,0,B|512:240|476:168|476:168|452:184|440:228,1,180,6|2,0:0|0:0,0:0:0:0:
300,344,20019,2,0,B|256:352|256:352|212:344,1,90,8|0,0:0|0:0,0:0:0:0:
48,296,20322,2,0,B|0:240|36:168|36:168|60:184|72:228,1,180,2|8,0:0|0:0,0:0:0:0:
211,344,20777,1,6,0:0:0:0:
211,344,21080,5,2,0:0:0:0:
236,240,21232,1,10,0:0:0:0:
260,136,21383,1,0,0:0:0:0:
288,32,21535,5,8,0:0:0:0:
318,27,21610,1,0,0:0:0:0:
349,24,21686,1,0,0:0:0:0:
380,21,21762,1,0,0:0:0:0:
424,40,21838,5,8,0:0:0:0:
440,67,21913,1,0,0:0:0:0:
444,98,21989,1,0,0:0:0:0:
432,127,22065,1,0,0:0:0:0:
398,155,22141,22,0,L|408:296,1,125.999996154785,4|2,0:0|0:0,0:0:0:0:
312,228,22595,2,0,L|228:216,1,72,2|2,0:0|0:0,0:0:0:0:
88,296,22898,2,0,L|172:284,1,72,0|2,0:0|0:0,0:0:0:0:
372,100,23201,1,2,0:0:0:0:
280,132,23353,86,0,L|196:120,1,72,2|0,0:0|0:0,0:0:0:0:
467,206,23656,2,0,L|396:196,1,72,2|0,0:0|0:0,0:0:0:0:
293,295,23959,2,0,L|304:224,1,72,2|0,0:0|0:0,0:0:0:0:
372,100,24262,2,0,L|384:16,1,72,2|0,0:0|0:0,0:0:0:0:
467,206,24565,22,0,P|472:280|464:344,1,125.999996154785,2|2,0:0|0:0,0:0:0:0:
364,301,25019,2,0,L|264:293,1,72,2|2,0:0|0:0,0:0:0:0:
200,364,25322,2,0,L|100:356,1,72,0|2,0:0|0:0,0:0:0:0:
12,148,25626,1,2,0:0:0:0:
80,212,25777,86,0,L|180:220,1,72,2|0,0:0|0:0,0:0:0:0:
292,268,26080,2,0,L|392:260,1,72,2|0,0:0|0:0,0:0:0:0:
371,278,26383,2,0,L|300:284,1,72,2|0,0:0|0:0,0:0:0:0:
159,233,26686,2,0,L|88:228,1,72,2|0,0:0|0:0,0:0:0:0:
60,72,26989,22,0,P|132:56|196:76,1,125.999996154785,2|2,0:0|0:0,0:0:0:0:
332,44,27444,2,0,L|424:52,1,72,2|2,0:0|0:0,0:0:0:0:
360,172,27747,2,0,L|443:132,1,72,0|2,0:0|0:0,0:0:0:0:
198,72,28050,1,2,0:0:0:0:
136,156,28201,86,0,L|156:236,1,72,2|0,0:0|0:0,0:0:0:0:
16,268,28504,2,0,L|95:290,1,72,2|0,0:0|0:0,0:0:0:0:
260,336,28807,2,0,L|329:316,1,72,2|0,0:0|0:0,0:0:0:0:
464,200,29110,1,2,0:0:0:0:
480,188,29413,22,0,P|492:264|484:320,1,125.999996154785,2|2,0:0|0:0,0:0:0:0:
364,252,29868,2,0,L|287:265,1,72,2|2,0:0|0:0,0:0:0:0:
446,105,30171,1,8,0:0:0:0:
299,25,30322,1,2,0:0:0:0:
316,132,30474,2,0,P|248:144|144:120,1,144,6|2,0:0|0:0,0:0:0:0:
88,32,30929,85,8,0:0:0:0:
76,44,31232,1,2,0:0:0:0:
64,56,31535,1,0,0:0:0:0:
50,81,31610,1,0,0:0:0:0:
45,109,31686,1,0,0:0:0:0:
50,137,31762,1,0,0:0:0:0:
69,175,31838,102,0,P|80:216|64:288,1,94.499997116089,4|0,0:0|0:0,0:0:0:0:
52,296,32141,5,8,0:0:0:0:
160,224,32292,2,0,P|200:220|260:228,1,80.9999975280763,2|0,0:0|0:0,0:0:0:0:
312,292,32595,1,2,0:0:0:0:
320,160,32747,1,8,0:0:0:0:
160,224,32898,102,2,L|168:92,1,125.999996154785
292,36,33353,6,0,P|336:36|376:44,1,80.9999975280763,8|0,0:0|0:0,0:0:0:0:
416,200,33656,2,0,P|394:161|380:123,1,80.9999975280763,2|2,0:0|0:0,0:0:0:0:
500,12,33959,2,0,P|478:50|451:80,1,80.9999975280763,8|0,0:0|0:0,0:0:0:0:
276,140,34262,102,0,L|164:132,1,94.499997116089,2|0,0:0|0:0,0:0:0:0:
116,96,34565,5,8,0:0:0:0:
224,216,34716,2,0,P|228:252|220:316,1,80.9999975280763,2|0,0:0|0:0,0:0:0:0:
132,256,35019,1,2,0:0:0:0:
256,368,35171,1,8,0:0:0:0:
163,167,35322,102,2,P|102:163|52:200,1,125.999996154785
56,312,35777,5,8,0:0:0:0:
144,344,35929,1,0,0:0:0:0:
163,167,36080,2,0,P|124:159|85:170,1,80.9999975280763,2|2,0:0|0:0,0:0:0:0:
256,280,36383,2,0,P|296:280|344:260,1,80.9999975280763,8|0,0:0|0:0,0:0:0:0:
484,320,36686,102,0,L|488:208,1,94.499997116089,2|0,0:0|0:0,0:0:0:0:
464,152,36989,5,8,0:0:0:0:
334,266,37141,2,0,P|292:268|252:256,1,80.9999975280763,2|0,0:0|0:0,0:0:0:0:
276,100,37444,2,0,P|318:98|358:110,1,80.9999975280763,2|8,0:0|0:0,0:0:0:0:
256,280,37747,102,2,L|113:270,1,125.999996154785
72,128,38201,6,0,P|68:88|76:48,1,80.9999975280763,8|0,0:0|0:0,0:0:0:0:
80,204,38504,2,0,P|47:227|8:240,1,80.9999975280763,2|2,0:0|0:0,0:0:0:0:
144,156,38807,2,0,P|180:172|211:199,1,80.9999975280763,8|0,0:0|0:0,0:0:0:0:
256,280,39110,101,2,0:0:0:0:
256,280,39262,1,2,0:0:0:0:
144,156,39413,1,8,0:0:0:0:
304,200,39565,2,0,P|348:204|400:192,1,80.9999975280763,0|2,0:0|0:0,0:0:0:0:
404,340,39868,2,0,P|429:303|445:252,1,80.9999975280763,2|8,0:0|0:0,0:0:0:0:
492,368,40171,6,2,L|476:240,1,125.999996154785
484,104,40626,1,8,0:0:0:0:
484,104,40777,1,2,0:0:0:0:
336,48,40929,38,0,P|279:87|310:130,1,135,2|0,0:0|0:0,0:0:0:0:
338,22,41232,6,0,P|255:75|306:160,1,202.500007724762,8|0,0:0|0:0,0:0:0:0:
316,168,41535,102,0,L|176:156,1,125.999996154785,4|0,0:0|0:0,0:0:0:0:
180,164,42141,1,8,0:0:0:0:
64,96,42292,2,0,L|52:12,1,62.9999980773926,2|2,0:0|0:0,0:0:0:0:
104,200,42595,2,0,L|92:280,1,62.9999980773926,8|2,0:0|0:0,0:0:0:0:
20,172,42898,37,0,0:0:0:0:
152,120,43050,1,2,0:0:0:0:
152,120,43201,1,2,0:0:0:0:
244,240,43353,2,0,L|232:320,1,62.9999980773926,8|2,0:0|0:0,0:0:0:0:
408,264,43656,2,0,L|398:201,1,62.9999980773926,2|8,0:0|0:0,0:0:0:0:
492,64,43959,102,0,P|500:124|488:176,1,94.499997116089,2|0,0:0|0:0,0:0:0:0:
484,176,44262,2,0,L|494:239,1,62.9999980773926,8|0,0:0|0:0,0:0:0:0:
408,112,44565,1,2,0:0:0:0:
408,264,44716,2,0,L|398:202,1,62.9999980773926,2|0,0:0|0:0,0:0:0:0:
264,304,45019,2,0,L|272:160,1,125.999996154785,8|2,0:0|0:0,0:0:0:0:
200,52,45474,38,0,P|144:48|88:64,1,94.499997116089,8|0,0:0|0:0,0:0:0:0:
84,44,45777,2,0,L|72:120,1,62.9999980773926,2|2,0:0|0:0,0:0:0:0:
4,16,46080,1,8,0:0:0:0:
80,192,46232,102,0,P|96:260|32:336,1,161.999995056153,6|2,0:0|0:0,0:0:0:0:
0,248,46686,1,0,0:0:0:0:
164,324,46838,1,2,0:0:0:0:
160,308,46989,2,0,L|252:320,1,80.9999975280763,8|0,0:0|0:0,0:0:0:0:
384,352,47292,2,0,L|464:341,1,80.9999975280763,2|0,0:0|0:0,0:0:0:0:
476,308,47595,6,0,L|395:318,1,80.9999975280763,2|8,0:0|0:0,0:0:0:0:
252,284,47898,2,0,L|171:273,1,80.9999975280763,2|2,0:0|0:0,0:0:0:0:
116,144,48201,1,8,0:0:0:0:
116,144,48353,1,2,0:0:0:0:
252,176,48504,21,8,0:0:0:0:
250,200,48580,1,8,0:0:0:0:
248,224,48656,1,8,0:0:0:0:
247,248,48732,1,8,0:0:0:0:
252,284,48807,102,0,L|260:360,2,62.9999980773926,6|0|2,0:0|0:0|0:0,0:0:0:0:
116,144,49262,2,0,L|112:68,1,62.9999980773926,2|2,0:0|0:0,0:0:0:0:
232,24,49565,2,0,L|288:80,1,62.9999980773926,2|2,0:0|0:0,0:0:0:0:
448,16,49868,2,0,P|456:64|440:132,1,94.499997116089,2|0,0:0|0:0,0:0:0:0:
384,144,50171,1,0,0:0:0:0:
304,88,50322,1,2,0:0:0:0:
232,24,50474,1,2,0:0:0:0:
144,72,50626,6,0,L|68:84,1,62.9999980773926,2|0,0:0|0:0,0:0:0:0:
68,96,50929,2,0,L|-8:84,1,62.9999980773926,2|0,0:0|0:0,0:0:0:0:
96,240,51232,86,0,P|108:204|108:164,1,62.9999980773926,2|0,0:0|0:0,0:0:0:0:
12,196,51535,1,2,0:0:0:0:
144,72,51686,1,2,0:0:0:0:
172,80,51989,1,2,0:0:0:0:
204,92,52292,1,8,0:0:0:0:
204,92,52747,6,0,P|256:104|328:76,1,125.999996154785,2|0,0:0|0:0,0:0:0:0:
256,4,53201,1,2,0:0:0:0:
256,4,53504,22,0,L|272:228,1,215.999993408203,6|0,0:0|0:0,0:0:0:0:
432,324,53959,2,2,P|480:232|408:208,1,161.999995056153,8|2,0:0|0:0,0:0:0:0:
376,216,54262,1,2,0:0:0:0:
384,60,54413,2,2,P|432:44|492:48,1,107.999996704102,0|8,0:0|0:0,0:0:0:0:
332,132,54716,6,0,B|228:144|228:144|124:96,1,215.999993408203,2|0,0:0|0:0,0:0:0:0:
32,20,55171,1,10,0:0:0:0:
20,12,55474,1,2,0:0:0:0:
64,168,55626,2,2,P|64:228|52:288,1,107.999996704102,0|8,0:0|0:0,0:0:0:0:
228,336,55929,102,0,P|196:216|248:120,1,215.999993408203,2|0,0:0|0:0,0:0:0:0:
384,60,56383,2,2,B|490:76|490:76|500:108|488:140,1,161.999995056153,8|2,0:0|0:0,0:0:0:0:
460,204,56686,1,2,0:0:0:0:
288,56,56838,2,2,L|172:68,1,107.999996704102,0|8,0:0|0:0,0:0:0:0:
292,256,57141,6,0,P|324:136|272:40,1,215.999993408203,2|0,0:0|0:0,0:0:0:0:
112,36,57595,1,10,0:0:0:0:
100,32,57898,1,2,0:0:0:0:
288,56,58050,2,2,P|344:56|408:40,1,107.999996704102,0|8,0:0|0:0,0:0:0:0:
196,104,58353,102,2,L|188:232,1,108
240,272,58656,1,0,0:0:0:0:
380,320,58807,6,2,P|396:252|384:176,1,135,10|2,0:0|0:0,0:0:0:0:
248,244,59110,6,2,P|192:248|120:236,1,108,0|0,0:0|0:0,0:0:0:0:
16,140,59413,6,0,L|24:-4,1,135,10|0,0:0|0:0,0:0:0:0:
204,0,59716,102,2,P|212:68|196:172,1,161.999995056153,2|0,0:0|0:0,0:0:0:0:
52,236,60019,6,2,P|28:296|84:312,1,135,8|0,0:0|0:0,0:0:0:0:
268,260,60322,102,0,P|292:192|224:176,1,148.50000453186,2|2,0:0|0:0,0:0:0:0:
392,304,60626,6,2,L|484:292,1,90,8|0,0:0|0:0,0:0:0:0:
356,164,60929,69,2,0:0:0:0:
488,192,61080,1,0,0:0:0:0:
320,32,61232,1,8,0:0:0:0:
476,28,61383,5,6,0:0:0:0:
256,332,61686,1,2,0:0:0:0:
36,28,61989,2,0,P|24:76|96:64,1,144,6|0,0:0|0:0,0:0:0:0:
216,24,62444,38,0,P|224:76|200:140,1,107.999996704102,8|0,0:0|0:0,0:0:0:0:
97,187,62747,1,8,0:0:0:0:
70,216,62822,1,8,0:0:0:0:
68,256,62898,1,8,0:0:0:0:
82,293,62974,1,8,0:0:0:0:
120,313,63050,2,0,P|148:312|176:316,1,45
128,328,63201,54,0,L|360:336,1,215.999993408203,6|0,0:0|0:0,0:0:0:0:
488,224,63656,2,2,B|516:164|488:96|488:96|448:84,1,161.999995056153,8|2,0:0|0:0,0:0:0:0:
376,84,63959,1,2,0:0:0:0:
474,328,64110,2,2,P|491:277|488:224,1,107.999996704102,0|8,0:0|0:0,0:0:0:0:
313,195,64413,6,0,P|236:255|296:332,1,215.999993408203,2|0,0:0|0:0,0:0:0:0:
269,44,64868,2,2,B|149:76|149:76|107:63,1,161.999995056153,8|0,0:0|0:0,0:0:0:0:
38,32,65171,1,2,0:0:0:0:
132,196,65322,2,2,L|120:308,1,107.999996704102,0|8,0:0|0:0,0:0:0:0:
46,114,65626,102,0,B|94:94|142:118|142:118|198:142|262:118,1,215.999993408203,2|0,0:0|0:0,0:0:0:0:
440,192,66080,2,2,P|456:128|428:36,1,161.999995056153,8|2,0:0|0:0,0:0:0:0:
360,12,66383,1,2,0:0:0:0:
256,120,66535,2,2,L|264:236,1,107.999996704102,0|8,0:0|0:0,0:0:0:0:
439,380,66838,6,2,P|483:308|415:176,1,215.999993408203,2|0,0:0|0:0,0:0:0:0:
492,48,67292,2,2,L|360:44,1,107.999996704102,8|0,0:0|0:0,0:0:0:0:
256,120,67595,1,2,0:0:0:0:
256,120,67747,1,0,0:0:0:0:
127,44,67898,1,8,0:0:0:0:
316,64,68050,102,2,P|361:102|323:247,1,215.999993408203,6|0,0:0|0:0,0:0:0:0:
192,192,68504,2,0,P|140:180|76:184,1,107.999996704102,8|0,0:0|0:0,0:0:0:0:
128,328,68807,1,0,0:0:0:0:
128,328,68959,1,0,0:0:0:0:
192,192,69110,6,2,L|172:16,1,161.999995056153,8|2,0:0|0:0,0:0:0:0:
68,20,69413,2,0,L|88:196,1,161.999995056153
204,272,69716,2,2,P|260:272|320:252,1,107.999996704102,8|0,0:0|0:0,0:0:0:0:
452,340,70019,2,0,L|464:168,1,161.999995056153,2|0,0:0|0:0,0:0:0:0:
420,116,70322,1,8,0:0:0:0:
312,280,70474,102,2,P|200:272|88:292,1,215.999993408203,6|0,0:0|0:0,0:0:0:0:
40,144,70929,2,0,L|56:12,1,107.999996704102,8|0,0:0|0:0,0:0:0:0:
200,104,71232,1,0,0:0:0:0:
200,104,71383,1,0,0:0:0:0:
348,36,71535,6,2,B|408:20|468:32|468:32|484:80,1,161.999995056153,8|2,0:0|0:0,0:0:0:0:
412,168,71838,2,0,B|352:184|292:172|292:172|276:124,1,161.999995056153
444,244,72141,2,2,L|432:356,1,107.999996704102,8|0,0:0|0:0,0:0:0:0:
316,268,72444,1,8,0:0:0:0:
313,305,72519,1,0,0:0:0:0:
287,333,72595,1,8,0:0:0:0:
249,339,72671,1,8,0:0:0:0:
222,327,72747,2,0,P|194:322|157:330,1,53.9999983520508
196,344,72898,6,0,L|24:352,1,161.999995056153,4|0,0:0|0:0,0:0:0:0:
116,200,73353,2,0,L|16:232,1,80.9999975280763,8|0,0:0|0:0,0:0:0:0:
174,351,73656,2,0,L|192:272,1,80.9999975280763,8|0,0:0|0:0,0:0:0:0:
396,200,73959,2,0,L|496:232,1,80.9999975280763,8|0,0:0|0:0,0:0:0:0:
337,351,74262,2,0,L|320:272,1,80.9999975280763,8|0,0:0|0:0,0:0:0:0:
388,92,74565,2,0,L|490:69,1,80.9999975280763,8|0,0:0|0:0,0:0:0:0:
328,144,74868,1,8,0:0:0:0:
304,140,74944,1,8,0:0:0:0:
284,136,75019,1,8,0:0:0:0:
388,92,75171,1,8,0:0:0:0:
264,132,75322,22,8,P|184:144|100:120,1,161.999995056153,4|0,0:0|0:0,0:0:0:0:
52,20,75777,2,0,L|152:12,1,80.9999975280763,8|0,0:0|0:0,0:0:0:0:
264,132,76080,2,0,L|344:138,1,80.9999975280763,8|0,0:0|0:0,0:0:0:0:
396,212,76307,85,0,0:0:0:0:
380,208,76383,2,0,L|392:292,1,80.9999975280763,8|0,0:0|0:0,0:0:0:0:
316,276,76610,1,0,0:0:0:0:
320,296,76686,22,0,P|288:328|240:328,1,80.9999975280763
232,320,76989,86,0,P|188:316|124:340,1,94.499997116089
120,352,77292,22,0,P|44:312|64:224,1,180
92,208,77747,86,0,P|140:100|44:72,1,242.999992584229
76,136,78504,22,0,L|268:112,1,180
312,60,78959,86,0,P|400:48|492:80,1,180,6|2,0:0|0:0,0:0:0:0:
432,212,79413,2,0,L|324:204,1,90,8|0,0:0|0:0,0:0:0:0:
264,160,79641,1,0,0:0:0:0:
272,176,79716,2,0,P|224:176|176:184,1,90,2|0,0:0|0:0,0:0:0:0:
264,296,80019,1,8,0:0:0:0:
432,212,80171,6,0,P|445:138|425:74,1,135,2|0,0:0|0:0,0:0:0:0:
360,48,80474,1,2,0:0:0:0:
240,152,80626,2,0,L|136:144,1,90,8|0,0:0|0:0,0:0:0:0:
48,36,80929,1,2,0:0:0:0:
52,20,81004,1,0,0:0:0:0:
64,32,81080,1,2,0:0:0:0:
48,124,81232,1,8,0:0:0:0:
256,96,81383,102,0,P|280:156|184:180,1,180,2|2,0:0|0:0,0:0:0:0:
48,124,81838,2,0,P|88:104|144:104,1,90,8|0,0:0|0:0,0:0:0:0:
112,196,82065,1,0,0:0:0:0:
96,188,82141,2,0,P|112:236|116:288,1,90,2|0,0:0|0:0,0:0:0:0:
20,348,82444,1,8,0:0:0:0:
184,232,82595,6,0,P|252:224|332:244,1,135,2|0,0:0|0:0,0:0:0:0:
368,180,82898,1,2,0:0:0:0:
488,260,83050,2,0,L|476:368,1,90,8|0,0:0|0:0,0:0:0:0:
320,324,83353,1,2,0:0:0:0:
316,308,83429,1,0,0:0:0:0:
332,316,83504,1,2,0:0:0:0:
236,328,83656,1,8,0:0:0:0:
184,232,83807,69,0,0:0:0:0:
184,232,83883,1,0,0:0:0:0:
184,232,83959,1,4,0:0:0:0:
108,64,84110,1,0,0:0:0:0:
288,72,84262,1,0,0:0:0:0:
196,224,84413,5,8,0:0:0:0:
199,41,84565,1,0,0:0:0:0:
351,138,84716,1,0,0:0:0:0:
196,224,84868,101,8,0:0:0:0:
288,72,85019,6,0,B|344:84|399:57|399:57|376:120|392:176|440:212|488:196|528:152|512:92|488:52|488:52|512:16,1,465,4|8,0:0|0:0,0:0:0:0:
488,16,86661,102,0,L|464:16,1,22.5,8|0,0:0|0:0,0:0:0:0:
