osu file format v14

[General]
AudioFilename: audio.mp3
AudioLeadIn: 500
PreviewTime: 52595
Countdown: 0
SampleSet: Soft
StackLeniency: 0.2
Mode: 0
LetterboxInBreaks: 0
EpilepsyWarning: 1
WidescreenStoryboard: 1

[Editor]
DistanceSpacing: 0.5
BeatDivisor: 4
GridSize: 32
TimelineZoom: 3.399999

[Metadata]
Title:Twintail Dreamer! (TV Size)
TitleUnicode:ツインテール・ドリーマー! (TV Size)
Artist:Twin-Tails
ArtistUnicode:ツインテイルズ
Creator:Moecho
Version:Koiyuki's Blaze Extra
Source:俺、ツインテールになります。
Tags:Twintails OreTwi Ore, Tsuinteru Tsuintēru ni Narimasu. Gonna be the Twin-Tail!! テイルレッド Tail Red 上坂すみれ Uesaka Sumire テイルブルー Blue 相坂優歌 Aisaka Yuuka テイルイエロー Yellow 赤﨑千夏 Akasaki Chinatsu Ending Theme ED TV Size edit Anime papiyon japanese pop j-pop jpop Kodora Laurier Natteke Kite HabiHolic Loneight L18 Lecana Giralda captin1 jonathanlfj apaffy kisata Nyquill RLC LunarSakuya Mythol meiikyuu Syameimaru-Aya Ayaya caren_sk CRN kiddly Axarious Delis ShirohaMyMommy SMM Koiyuki Minakami Yuki yf_bmp yf Skystar Amamiya Yuko rui rustbell spro sprosive Snow Note 7odoa bakabaka Hollow Wings HW
BeatmapID:2329705
BeatmapSetID:1115213

[Difficulty]
HPDrainRate:6.5
CircleSize:4.5
OverallDifficulty:8.5
ApproachRate:9.3
SliderMultiplier:1.6
SliderTickRate:1

[Events]
//Background and Video events
0,0,"bg.jpg",0,0
//Break Periods
//Storyboard Layer 0 (Background)
Sprite,Background,Centre,"sb\sprites\pixel-white.png",320,240 F,0,-60,,0,1 C,0,-60,,0,0,0 V,0,-60,,880,480 F,0,89619,,1,0
Sprite,Background,Centre,"bg.jpg",320,240 F,0,-2559,-1559,0,0.75 S,0,-1559,,0.4444444 F,0,337,487,0.75,0
Sprite,Background,Centre,"bg.jpg",320,240 F,0,88125,89125,0,0.75 S,0,89125,,0.4444444 F,0,89784,89934,0.75,0
Sprite,Background,Centre,"sb\sprites\bg-alt.jpg",320,240 F,0,187,337,0,0.75 S,0,337,,0.4444444 F,0,21156,22306,0.75,0
Sprite,Background,Centre,"sb\sprites\bg-alt.jpg",320,240 F,0,53369,53519,0,0.75 S,0,53519,,0.4444444 F,0,88125,89275,0.75,0
Sprite,Background,Centre,"sb\sprites\bg-alt-bw.jpg",320,240 F,0,22006,22306,0,0.75 S,0,22156,,0.4444444 F,0,39686,40486,0.75,0
Sprite,Background,Centre,"sb\sprites\bg-alt-bw.jpg",320,240 F,0,50491,50791,0,0.75 S,0,50641,,0.4444444 F,0,51807,52607,0.75,0
Sprite,Background,Centre,"sb\sprites\tail-red-ci.jpg",320,240 F,0,40794,41094,0,0.75 S,0,40944,,0.4444444 F,0,48822,50322,0.75,0
Sprite,Background,Centre,"sb\sprites\tail-blue-ci.jpg",320,240 F,0,42915,43215,0,0.75 S,0,43065,,0.4444444 F,0,48822,50322,0.75,0
Sprite,Background,Centre,"sb\sprites\tail-yellow-ci.jpg",320,240 F,0,45339,45639,0,0.75 S,0,45489,,0.4444444 F,0,48822,50322,0.75,0
Sprite,Background,Centre,"sb\sprites\pixel-white.png",320,240 V,0,2610,,854,480 F,0,2610,3210,0.15,0
Sprite,Background,Centre,"sb\sprites\pixel-white.png",320,240 V,0,5034,,854,480 F,0,5034,5634,0.15,0
Sprite,Background,Centre,"sb\sprites\pixel-white.png",320,240 V,0,6247,,854,480 F,0,6247,6847,0.15,0
Sprite,Background,Centre,"sb\sprites\pixel-white.png",320,240 V,0,7004,,854,480 F,0,7004,7604,0.15,0
Sprite,Background,Centre,"sb\sprites\pixel-white.png",320,240 V,0,7307,,854,480 F,0,7307,7907,0.15,0
Sprite,Background,Centre,"sb\sprites\pixel-white.png",320,240 V,0,7459,,854,480 F,0,7459,8059,0.15,0
Sprite,Background,Centre,"sb\sprites\pixel-white.png",320,240 V,0,9883,,854,480 F,0,9883,10483,0.15,0
Sprite,Background,Centre,"sb\sprites\pixel-white.png",320,240 V,0,12307,,854,480 F,0,12307,12907,0.15,0
Sprite,Background,Centre,"sb\sprites\pixel-white.png",320,240 V,0,14731,,854,480 F,0,14731,15331,0.15,0
Sprite,Background,Centre,"sb\sprites\pixel-white.png",320,240 V,0,17156,,854,480 F,0,17156,17756,0.15,0
Sprite,Background,Centre,"sb\sprites\pixel-white.png",320,240 V,0,22156,,854,480 F,0,22156,22756,0.15,0
Sprite,Background,Centre,"sb\sprites\pixel-white.png",320,240 V,0,27004,,854,480 F,0,27004,27604,0.15,0
Sprite,Background,Centre,"sb\sprites\pixel-white.png",320,240 V,0,31853,,854,480 F,0,31853,32453,0.15,0
Sprite,Background,Centre,"sb\sprites\pixel-white.png",320,240 V,0,41550,,854,480 F,0,41550,42150,0.15,0
Sprite,Background,Centre,"sb\sprites\pixel-white.png",320,240 V,0,48822,,854,480 F,0,48822,49422,0.15,0
Sprite,Background,Centre,"sb\sprites\pixel-white.png",320,240 V,0,52307,,854,480 F,0,52307,52907,0.15,0
Sprite,Background,Centre,"sb\sprites\pixel-white.png",320,240 V,0,53519,,854,480 F,0,53519,54119,0.15,0
Sprite,Background,Centre,"sb\sprites\pixel-white.png",320,240 V,0,55944,,854,480 F,0,55944,56544,0.15,0
Sprite,Background,Centre,"sb\sprites\pixel-white.png",320,240 V,0,58368,,854,480 F,0,58368,58968,0.15,0
Sprite,Background,Centre,"sb\sprites\pixel-white.png",320,240 V,0,60944,,854,480 F,0,60944,61544,0.15,0
Sprite,Background,Centre,"sb\sprites\pixel-white.png",320,240 V,0,62004,,854,480 F,0,62004,62604,0.15,0
Sprite,Background,Centre,"sb\sprites\pixel-white.png",320,240 V,0,63216,,854,480 F,0,63216,63816,0.15,0
Sprite,Background,Centre,"sb\sprites\pixel-white.png",320,240 V,0,65641,,854,480 F,0,65641,66241,0.15,0
Sprite,Background,Centre,"sb\sprites\pixel-white.png",320,240 V,0,68065,,854,480 F,0,68065,68665,0.15,0
Sprite,Background,Centre,"sb\sprites\pixel-white.png",320,240 V,0,70489,,854,480 F,0,70489,71089,0.15,0
Sprite,Background,Centre,"sb\sprites\pixel-white.png",320,240 V,0,72913,,854,480 F,0,72913,73513,0.15,0
Sprite,Background,Centre,"sb\sprites\pixel-white.png",320,240 V,0,75338,,854,480 F,0,75338,75938,0.15,0
Sprite,Background,Centre,"sb\sprites\pixel-white.png",320,240 V,0,76701,,854,480 F,0,76701,77301,0.15,0
Sprite,Background,Centre,"sb\sprites\pixel-white.png",320,240 V,0,78974,,854,480 F,0,78974,79574,0.15,0
Sprite,Background,Centre,"sb\sprites\pixel-white.png",320,240 V,0,81398,,854,480 F,0,81398,81998,0.15,0
Sprite,Background,Centre,"sb\sprites\pixel-white.png",320,240 V,0,83974,,854,480 F,0,83974,84574,0.15,0
Sprite,Background,Centre,"sb\sprites\pixel-white.png",320,240 V,0,84428,,854,480 F,0,84428,85028,0.15,0
Sprite,Background,Centre,"sb\sprites\pixel-white.png",320,240 V,0,85034,,854,480 F,0,85034,85634,0.15,0
//Storyboard Layer 1 (Fail)
//Storyboard Layer 2 (Pass)
//Storyboard Layer 3 (Foreground)
Sprite,Foreground,Centre,"sb\lyrics\004b.png",0,0 F,0,12207,12407,0,0.8 M,0,12307,,677.525,398.325 S,0,12307,,0.45 C,0,12307,,255,255,255 F,0,86904,87104,0.8,0
Sprite,Foreground,Centre,"sb\lyrics\006f.png",0,0 F,0,12207,12407,0,0.8 M,0,12307,,686.975,399.9 S,0,12307,,0.45 C,0,12307,,255,255,255 F,0,86904,87104,0.8,0
Sprite,Foreground,Centre,"sb\lyrics\0069.png",0,0 F,0,12207,12407,0,0.8 M,0,12307,,696.875,398.1 S,0,12307,,0.45 C,0,12307,,255,255,255 F,0,86904,87104,0.8,0
Sprite,Foreground,Centre,"sb\lyrics\0079.png",0,0 F,0,12207,12407,0,0.8 M,0,12307,,706.775,400.8 S,0,12307,,0.45 C,0,12307,,255,255,255 F,0,86904,87104,0.8,0
Sprite,Foreground,Centre,"sb\lyrics\0075.png",0,0 F,0,12207,12407,0,0.8 M,0,12307,,716.9001,399.9 S,0,12307,,0.45 C,0,12307,,255,255,255 F,0,86904,87104,0.8,0
Sprite,Foreground,Centre,"sb\lyrics\006b.png",0,0 F,0,12207,12407,0,0.8 M,0,12307,,726.8001,398.1 S,0,12307,,0.45 C,0,12307,,255,255,255 F,0,86904,87104,0.8,0
Sprite,Foreground,Centre,"sb\lyrics\0069.png",0,0 F,0,12207,12407,0,0.8 M,0,12307,,736.4751,398.1 S,0,12307,,0.45 C,0,12307,,255,255,255 F,0,86904,87104,0.8,0
Sprite,Foreground,Centre,"sb\lyrics\004b.png",0,0 F,0,12207,12407,0,0.8 M,0,12307,,581.175,434.475 S,0,12307,,0.35 C,0,12307,,255,255,255 F,0,86904,87104,0.8,0
Sprite,Foreground,Centre,"sb\lyrics\006f.png",0,0 F,0,12207,12407,0,0.8 M,0,12307,,588.525,435.7 S,0,12307,,0.35 C,0,12307,,255,255,255 F,0,86904,87104,0.8,0
Sprite,Foreground,Centre,"sb\lyrics\0069.png",0,0 F,0,12207,12407,0,0.8 M,0,12307,,596.225,434.3 S,0,12307,,0.35 C,0,12307,,255,255,255 F,0,86904,87104,0.8,0
Sprite,Foreground,Centre,"sb\lyrics\0079.png",0,0 F,0,12207,12407,0,0.8 M,0,12307,,603.925,436.4 S,0,12307,,0.35 C,0,12307,,255,255,255 F,0,86904,87104,0.8,0
Sprite,Foreground,Centre,"sb\lyrics\0075.png",0,0 F,0,12207,12407,0,0.8 M,0,12307,,611.8,435.7 S,0,12307,,0.35 C,0,12307,,255,255,255 F,0,86904,87104,0.8,0
Sprite,Foreground,Centre,"sb\lyrics\006b.png",0,0 F,0,12207,12407,0,0.8 M,0,12307,,619.5001,434.3 S,0,12307,,0.35 C,0,12307,,255,255,255 F,0,86904,87104,0.8,0
Sprite,Foreground,Centre,"sb\lyrics\0069.png",0,0 F,0,12207,12407,0,0.8 M,0,12307,,627.0251,434.3 S,0,12307,,0.35 C,0,12307,,255,255,255 F,0,86904,87104,0.8,0
Sprite,Foreground,Centre,"sb\lyrics\0027.png",0,0 F,0,12207,12407,0,0.8 M,0,12307,,633.3251,430.625 S,0,12307,,0.35 C,0,12307,,255,255,255 F,0,86904,87104,0.8,0
Sprite,Foreground,Centre,"sb\lyrics\0073.png",0,0 F,0,12207,12407,0,0.8 M,0,12307,,642.6001,436.05 S,0,12307,,0.35 C,0,12307,,255,255,255 F,0,86904,87104,0.8,0
Sprite,Foreground,Centre,"sb\lyrics\0042.png",0,0 F,0,12207,12407,0,0.8 M,0,12307,,658.1752,434.475 S,0,12307,,0.35 C,0,12307,,255,255,255 F,0,86904,87104,0.8,0
Sprite,Foreground,Centre,"sb\lyrics\006c.png",0,0 F,0,12207,12407,0,0.8 M,0,12307,,665.7001,434.3 S,0,12307,,0.35 C,0,12307,,255,255,255 F,0,86904,87104,0.8,0
Sprite,Foreground,Centre,"sb\lyrics\0061.png",0,0 F,0,12207,12407,0,0.8 M,0,12307,,673.5752,435.875 S,0,12307,,0.35 C,0,12307,,255,255,255 F,0,86904,87104,0.8,0
Sprite,Foreground,Centre,"sb\lyrics\007a.png",0,0 F,0,12207,12407,0,0.8 M,0,12307,,680.9252,435.875 S,0,12307,,0.35 C,0,12307,,255,255,255 F,0,86904,87104,0.8,0
Sprite,Foreground,Centre,"sb\lyrics\0065.png",0,0 F,0,12207,12407,0,0.8 M,0,12307,,688.6252,436.225 S,0,12307,,0.35 C,0,12307,,255,255,255 F,0,86904,87104,0.8,0
Sprite,Foreground,Centre,"sb\lyrics\0045.png",0,0 F,0,12207,12407,0,0.8 M,0,12307,,704.3752,434.475 S,0,12307,,0.35 C,0,12307,,255,255,255 F,0,86904,87104,0.8,0
Sprite,Foreground,Centre,"sb\lyrics\0078.png",0,0 F,0,12207,12407,0,0.8 M,0,12307,,711.9002,435.875 S,0,12307,,0.35 C,0,12307,,255,255,255 F,0,86904,87104,0.8,0
Sprite,Foreground,Centre,"sb\lyrics\0074.png",0,0 F,0,12207,12407,0,0.8 M,0,12307,,719.4252,434.65 S,0,12307,,0.35 C,0,12307,,255,255,255 F,0,86904,87104,0.8,0
Sprite,Foreground,Centre,"sb\lyrics\0072.png",0,0 F,0,12207,12407,0,0.8 M,0,12307,,727.3002,435.7 S,0,12307,,0.35 C,0,12307,,255,255,255 F,0,86904,87104,0.8,0
Sprite,Foreground,Centre,"sb\lyrics\0061.png",0,0 F,0,12207,12407,0,0.8 M,0,12307,,735.1753,435.875 S,0,12307,,0.35 C,0,12307,,255,255,255 F,0,86904,87104,0.8,0
//Storyboard Layer 4 (Overlay)
//Storyboard Sound Samples

[TimingPoints]
323,303.030303030303,4,2,1,50,1,0
1838,-100,4,1,1,50,0,0
2898,-100,4,2,0,50,0,0
6686,-100,4,1,1,50,0,0
7444,-90.9090909090909,4,1,1,50,0,0
7747,-100,4,1,1,50,0,0
9868,-90.9090909090909,4,1,1,50,0,0
10171,-100,4,1,1,50,0,0
22141,-125,4,2,1,50,0,0
31535,-125,4,2,1,40,0,0
31838,-100,4,2,1,50,0,0
41535,-125,4,2,0,50,0,0
48504,-125,4,1,1,40,0,0
48807,-100,4,2,1,50,0,0
50701,-100,4,2,1,10,0,0
50777,-100,4,2,1,50,0,0
50853,-100,4,2,1,10,0,0
50929,-100,4,2,1,50,0,0
51004,-100,4,2,1,10,0,0
51080,-100,4,2,1,50,0,0
51156,-100,4,2,1,10,0,0
51232,-100,4,2,1,50,0,0
52747,-125,4,2,1,50,0,0
53504,-90.9090909090909,4,1,1,50,0,1
76686,-100,4,1,1,50,0,0
76762,-133.333333333333,4,2,1,50,0,0
78504,-100,4,2,1,50,0,0
78959,-100,4,1,1,50,0,0
85019,-200,4,1,1,50,0,0
85038,-200,4,2,1,20,0,0
86585,-100,4,3,1,25,0,0

[Colours]
Combo1 : 192,192,192
Combo2 : 255,50,50
Combo3 : 255,125,125
Combo4 : 25,100,255
Combo5 : 50,150,255
Combo6 : 255,255,50
Combo7 : 255,255,150
Combo8 : 128,128,128

[HitObjects]
32,309,323,101,2,0:0:0:0:
118,285,474,1,0,0:0:0:0:
140,198,626,1,0,0:0:0:0:
182,348,777,1,0,0:0:0:0:
182,348,1232,5,2,0:0:0:0:
140,198,1383,1,0,0:0:0:0:
32,309,1535,1,0,0:0:0:0:
118,285,1686,1,0,0:0:0:0:
76,135,1838,69,0,0:0:0:0:
84,126,1913,1,0,0:0:0:0:
92,117,1989,1,8,0:3:0:0:
337,156,2141,1,4,0:3:0:0:
182,348,2292,1,4,0:3:0:0:
139,198,2595,54,0,P|185:135|167:59,1,160,4|0,1:2|0:0,0:0:0:0:
62,207,3050,2,0,P|102:210|140:198,1,80,2|0,0:0|0:0,0:0:0:0:
214,151,3353,1,0,0:0:0:0:
300,156,3504,2,0,L|379:160,1,80
460,165,3807,6,0,L|301:156,1,160,0|0,1:0|0:0,0:0:0:0:
464,87,4262,2,0,P|470:126|460:165,1,80,2|0,0:0|0:0,0:0:0:0:
380,202,4565,1,0,0:0:0:0:
436,269,4716,2,0,L|442:348,1,80
442,349,5019,102,0,P|457:274|407:215,1,160,4|0,1:2|0:0,0:0:0:0:
275,281,5474,2,0,L|355:285,1,80,2|0,0:0|0:0,0:0:0:0:
214,151,5777,1,0,1:0:0:0:
134,348,5929,2,0,L|214:344,1,80
288,192,6232,6,0,P|224:235|150:212,1,160,4|0,1:2|0:0,0:0:0:0:
264,34,6686,1,8,0:0:0:0:
413,91,6838,1,8,0:0:0:0:
288,192,6989,102,0,L|228:188,1,40,4|0,0:0|0:0,0:0:0:0:
264,34,7141,2,0,L|286:0,1,40,8|0,0:0|0:0,0:0:0:0:
413,91,7292,2,0,L|430:126,1,40,4|0,0:0|0:0,0:0:0:0:
339,273,7444,22,0,L|163:260,1,176.000005371094,4|0,0:0|0:0,0:0:0:0:
96,294,7898,22,0,P|135:287|164:260,1,80,8|0,0:0|0:0,0:0:0:0:
108,72,8201,2,0,P|128:106|162:126,1,80,8|0,0:0|0:0,0:0:0:0:
324,15,8504,2,0,P|297:44|289:82,1,80,8|0,0:0|0:0,0:0:0:0:
445,202,8807,2,0,P|409:185|370:190,1,80,8|0,0:0|0:0,0:0:0:0:
301,376,9110,2,0,P|306:337|290:300,1,80,8|0,0:0|0:0,0:0:0:0:
289,82,9413,5,8,0:3:0:0:
298,120,9489,1,0,0:0:0:0:
288,158,9565,1,8,0:3:0:0:
260,187,9641,1,0,0:0:0:0:
222,199,9716,1,8,0:0:0:0:
184,191,9792,1,0,0:0:0:0:
154,166,9868,70,0,L|329:178,1,176.000005371094,4|0,0:0|0:0,0:0:0:0:
324,15,10322,22,0,P|297:44|289:82,1,80,8|0,0:0|0:0,0:0:0:0:
108,72,10626,2,0,P|128:106|162:126,1,80,8|0,0:0|0:0,0:0:0:0:
96,294,10929,2,0,P|135:287|164:260,1,80,8|0,0:0|0:0,0:0:0:0:
301,376,11232,2,0,P|306:337|290:300,1,80,8|0,0:0|0:0,0:0:0:0:
445,202,11535,2,0,P|409:185|370:190,1,80,8|0,0:0|0:0,0:0:0:0:
164,260,11838,5,8,0:0:0:0:
137,230,11913,1,0,0:0:0:0:
99,218,11989,1,8,0:0:0:0:
60,227,12065,1,0,0:0:0:0:
31,254,12141,1,8,0:0:0:0:
20,292,12216,1,0,0:0:0:0:
29,330,12292,70,0,B|37:274|37:274|27:229|27:229|35:170,1,160,6|0,0:0|0:0,0:0:0:0:
49,96,12747,2,0,P|51:135|35:172,1,80,10|0,0:0|0:0,0:0:0:0:
29,330,13050,1,0,0:0:0:0:
111,299,13201,1,0,0:0:0:0:
181,351,13353,1,8,0:0:0:0:
35,172,13504,6,0,B|54:150|57:114|49:96|49:96|85:66|132:105,1,160,2|0,0:0|0:0,0:0:0:0:
259,160,13959,2,0,L|338:151,1,80,8|0,0:0|0:0,0:0:0:0:
172,169,14262,2,0,L|195:219,2,40,2|0|0,0:0|0:0|0:0,0:0:0:0:
290,73,14565,1,10,0:0:0:0:
426,140,14716,102,0,P|485:97|451:31,1,160,6|0,0:0|0:0,0:0:0:0:
338,151,15171,2,0,L|259:160,1,80,10|0,0:0|0:0,0:0:0:0:
451,31,15474,1,0,0:0:0:0:
505,101,15626,1,0,0:0:0:0:
499,188,15777,1,0,0:0:0:0:
259,160,15929,6,0,B|337:151|337:151|377:183|362:221,1,160,2|0,0:0|0:0,0:0:0:0:
172,281,16383,2,0,P|169:242|185:206,1,80,8|0,0:0|0:0,0:0:0:0:
331,304,16686,2,0,L|339:349,2,40,2|0|0,0:0|0:0|0:0,0:0:0:0:
259,160,16989,1,8,0:0:0:0:
172,281,17141,102,0,P|96:272|42:327,1,160,6|0,0:0|0:0,0:0:0:0:
180,192,17595,2,0,L|170:112,1,80,10|0,0:0|0:0,0:0:0:0:
42,328,17898,1,0,0:0:0:0:
125,355,18050,1,0,0:0:0:0:
172,281,18201,1,8,0:0:0:0:
170,113,18353,6,0,P|143:70|188:109,1,160
259,160,18807,1,10,0:0:0:0:
83,127,18959,1,0,0:0:0:0:
259,160,19110,2,0,L|355:147,1,80,2|2,0:0|0:0,0:0:0:0:
201,95,19413,1,8,0:0:0:0:
54,209,19565,102,0,P|0:156|9:79,1,160,2|0,0:0|0:0,0:0:0:0:
259,160,20019,2,0,P|240:233|168:263,1,160,10|2,0:0|0:0,0:0:0:0:
83,127,20474,1,0,0:0:0:0:
173,175,20626,1,8,0:0:0:0:
286,76,20777,6,0,B|345:81|345:81|391:65|391:65|455:70,1,160,2|0,0:0|0:0,0:0:0:0:
199,93,21232,2,0,P|199:50|218:19,1,80,8|0,0:0|0:0,0:0:0:0:
403,148,21535,1,8,0:0:0:0:
401,159,21610,1,0,0:0:0:0:
399,170,21686,1,8,0:0:0:0:
397,181,21762,1,0,0:0:0:0:
395,192,21838,5,8,0:0:0:0:
434,196,21913,1,0,0:0:0:0:
467,218,21989,1,0,0:0:0:0:
486,253,22065,1,0,0:0:0:0:
486,292,22141,38,0,L|475:372,1,64,4|0,1:2|0:0,0:0:0:0:
395,192,22444,1,0,1:0:0:0:
404,274,22595,2,0,P|350:294|286:266,1,128
208,241,23050,1,0,1:0:0:0:
91,248,23201,86,0,P|148:222|208:241,1,128
288,268,23656,1,0,1:0:0:0:
155,305,23807,1,0,0:0:0:0:
297,257,23959,2,0,L|290:179,1,64
165,315,24262,2,0,L|172:393,1,64,0|0,1:0|0:0,0:0:0:0:
307,246,24565,22,0,P|318:184|279:128,1,128,0|0,0:0|1:0,0:0:0:0:
175,196,25019,2,0,L|239:201,1,64
310,53,25322,2,0,L|246:57,1,64,0|0,0:0|1:0,0:0:0:0:
111,192,25626,86,0,L|239:201,1,128
246,57,26080,1,0,1:0:0:0:
284,131,26232,1,0,0:0:0:0:
215,59,26383,1,0,0:0:0:0:
315,134,26535,1,0,0:0:0:0:
183,61,26686,1,0,1:0:0:0:
347,136,26838,1,0,3:3:0:0:
150,64,26989,22,0,P|120:74|83:72,1,64,4|0,1:2|0:0,0:0:0:0:
17,30,27292,1,0,1:0:0:0:
51,179,27444,2,0,P|105:150|165:166,1,128
200,244,27898,1,0,1:0:0:0:
106,362,28050,86,0,L|117:235,1,128
38,125,28504,1,0,1:0:0:0:
167,167,28656,1,0,0:0:0:0:
38,208,28807,1,0,0:0:0:0:
117,99,28959,1,0,0:0:0:0:
117,234,29110,1,0,1:0:0:0:
117,234,29413,22,0,P|178:246|230:213,1,128,0|0,0:0|1:0,0:0:0:0:
228,68,29868,2,0,P|228:100|240:130,1,64
381,147,30171,1,8,1:0:0:0:
306,180,30322,1,0,1:0:0:0:
446,195,30474,86,0,P|462:134|431:81,1,128,0|0,1:0|0:0,0:0:0:0:
371,231,30929,2,0,L|380:308,1,64,0|0,1:0|0:0,0:0:0:0:
431,81,31232,2,0,L|438:17,1,64
447,195,31535,1,0,1:0:0:0:
450,226,31610,1,0,1:0:0:0:
454,258,31686,1,0,1:0:0:0:
458,290,31762,1,0,1:0:0:0:
461,322,31838,102,0,L|470:242,1,80,4|0,1:2|0:0,0:0:0:0:
431,81,32141,1,8,1:0:0:0:
371,231,32292,2,0,P|296:215|238:265,1,160
371,231,32747,1,8,1:0:0:0:
237,266,32898,6,0,P|161:283|103:233,1,160
178,115,33353,2,0,L|184:195,1,80,8|0,1:0|0:0,0:0:0:0:
113,56,33656,1,0,1:0:0:0:
263,90,33807,1,0,0:0:0:0:
184,195,33959,1,8,1:0:0:0:
197,31,34110,1,0,0:0:0:0:
36,103,34262,102,0,P|24:63|32:19,1,80,0|0,1:0|0:0,0:0:0:0:
178,115,34565,1,8,1:0:0:0:
103,233,34716,2,0,P|123:307|78:370,1,160
38,291,35171,1,8,1:0:0:0:
209,323,35322,6,0,P|154:378|78:371,1,160
184,195,35777,2,0,L|263:199,1,80,8|0,1:0|0:0,0:0:0:0:
105,154,36080,1,0,1:0:0:0:
263,90,36232,1,0,0:0:0:0:
234,231,36383,2,0,L|155:227,1,80,8|0,1:0|0:0,0:0:0:0:
188,72,36686,102,0,P|263:90|323:42,1,160,0|8,1:0|1:0,0:0:0:0:
486,162,37141,2,0,P|429:110|353:124,1,160
405,195,37595,1,8,1:0:0:0:
452,27,37747,6,0,P|379:51|353:124,1,160
395,274,38201,2,0,L|405:195,1,80,8|0,1:0|0:0,0:0:0:0:
353,124,38504,1,0,1:0:0:0:
486,162,38656,1,0,0:0:0:0:
353,124,38807,1,8,1:0:0:0:
486,162,38959,1,0,0:0:0:0:
392,281,39110,102,0,L|312:289,1,80,0|0,1:0|0:0,0:0:0:0:
379,367,39413,1,8,1:0:0:0:
405,194,39565,2,0,P|329:208|271:157,1,160
405,194,40019,1,8,1:0:0:0:
271,157,40171,6,0,P|194:142|137:194,1,160
120,352,40626,1,8,1:0:0:0:
218,227,40777,1,0,0:0:0:0:
58,205,40929,53,8,1:0:0:0:
130,267,41080,1,0,0:0:0:0:
218,227,41232,1,8,1:0:0:0:
290,289,41383,1,0,0:0:0:0:
146,164,41535,102,0,B|156:111|156:111|132:75|143:40,1,128,4|2,0:2|0:0,0:0:0:0:
280,53,42141,2,0,L|217:61,1,64,0|0,1:0|0:0,0:0:0:0:
362,39,42444,1,0,0:0:0:0:
210,156,42595,6,0,L|147:164,1,64,2|0,0:0|0:0,0:0:0:0:
290,142,42898,1,2,0:0:0:0:
217,61,43050,21,0,0:0:0:0:
300,162,43201,1,0,0:0:0:0:
333,57,43353,1,0,1:0:0:0:
310,182,43504,1,0,0:0:0:0:
417,158,43656,1,0,0:0:0:0:
320,202,43807,1,2,0:0:0:0:
492,123,43959,102,0,P|494:185|453:232,1,128,0|0,0:0|1:0,0:0:0:0:
453,232,44565,1,0,0:0:0:0:
489,306,44716,2,0,L|484:371,1,64,0|2,0:0|0:0,0:0:0:0:
330,222,45019,2,0,L|320:94,1,128,0|0,1:0|0:0,0:0:0:0:
330,222,45474,37,0,1:0:0:0:
433,242,45626,1,0,0:0:0:0:
278,287,45777,1,0,0:0:0:0:
413,252,45929,1,0,0:0:0:0:
226,352,46080,1,0,1:0:0:0:
166,197,46232,102,0,B|121:191|121:191|84:202|84:202|23:192,1,128,2|0,0:0|0:0,0:0:0:0:
196,275,46686,1,0,0:0:0:0:
330,222,46838,1,0,0:0:0:0:
226,352,46989,1,0,1:0:0:0:
248,210,47141,1,0,0:0:0:0:
278,287,47292,1,2,0:0:0:0:
166,197,47444,1,0,0:0:0:0:
300,145,47595,6,0,B|308:111|308:111|304:63,1,64
196,275,47898,2,0,B|188:309|188:309|192:357,1,64,2|0,0:0|0:0,0:0:0:0:
330,222,48201,1,0,1:0:0:0:
166,197,48353,1,0,0:0:0:0:
244,24,48504,1,0,0:0:0:0:
221,46,48580,1,0,0:0:0:0:
191,57,48656,1,0,0:0:0:0:
159,54,48732,1,0,0:0:0:0:
131,38,48807,21,4,0:0:0:0:
305,82,48959,2,0,L|396:73,1,80,0|2,0:0|0:0,0:0:0:0:
473,65,49262,1,0,0:0:0:0:
295,92,49565,102,0,L|385:82,1,80,2|0,0:0|0:0,0:0:0:0:
463,75,49868,1,2,0:0:0:0:
285,102,50019,6,0,L|375:92,1,80
131,38,50322,2,0,L|40:28,1,80,2|0,0:0|0:0,0:0:0:0:
89,234,50626,102,0,L|126:217,1,40
275,112,50777,6,0,L|271:152,1,40
255,326,50929,102,0,L|216:314,1,40,2|0,0:0|0:0,0:0:0:0:
141,120,51080,6,0,L|137:81,1,40
409,104,51232,85,0,0:0:0:0:
382,221,51383,1,0,0:0:0:0:
263,239,51535,1,2,0:0:0:0:
425,139,51686,101,0,0:0:0:0:
316,255,51838,1,0,0:0:0:0:
167,197,51989,1,2,0:0:0:0:
442,175,52141,5,2,0:0:0:0:
71,155,52292,1,4,0:2:0:0:
71,155,52747,6,0,P|89:112|78:65,1,96
45,39,53050,1,0,0:0:0:0:
217,86,53201,1,0,0:0:0:0:
217,86,53504,22,0,P|300:91|347:21,1,176.000005371094,6|2,0:0|0:0,0:0:0:0:
459,211,53959,2,0,L|371:218,1,88.000002685547,8|0,0:0|0:0,0:0:0:0:
217,86,54262,2,0,L|305:93,1,88.000002685547,2|0,0:0|0:0,0:0:0:0:
391,98,54565,1,8,0:0:0:0:
362,305,54716,6,0,P|291:262|291:177,1,176.000005371094,2|0,0:0|0:0,0:0:0:0:
443,269,55171,2,0,B|445:316|445:316|433:366,1,88.000002685547,8|0,0:0|0:0,0:0:0:0:
371,217,55474,1,0,0:0:0:0:
391,98,55626,1,0,0:0:0:0:
451,173,55777,1,8,0:0:0:0:
291,261,55929,102,0,B|233:259|233:259|176:280|176:280|118:277,1,176.000005371094,6|2,0:0|0:0,0:0:0:0:
41,134,56383,2,0,P|84:135|118:162,1,88.000002685547,8|0,0:0|0:0,0:0:0:0:
291,261,56686,2,0,P|256:287|213:289,1,88.000002685547,2|0,0:0|0:0,0:0:0:0:
50,222,56989,1,10,0:0:0:0:
119,377,57141,6,0,L|136:202,1,176.000005371094,2|0,0:0|0:0,0:0:0:0:
30,50,57595,2,0,P|24:93|40:133,1,88.000002685547,10|0,0:0|0:0,0:0:0:0:
222,181,57898,1,2,0:0:0:0:
112,84,58050,1,0,0:0:0:0:
50,222,58201,1,8,0:0:0:0:
307,160,58353,102,0,B|371:166|371:166|411:188|411:188|476:195,1,176.000005371094,6|0,0:0|0:0,0:0:0:0:
222,181,58807,2,0,B|224:137|224:137|245:98,1,88.000002685547,8|0,0:0|0:0,0:0:0:0:
491,281,59110,2,0,L|403:271,1,88.000002685547,2|0,0:0|0:0,0:0:0:0:
330,74,59413,2,0,L|417:83,1,88.000002685547,10|0,0:0|0:0,0:0:0:0:
222,181,59716,5,2,0:0:0:0:
267,13,59868,1,0,0:0:0:0:
307,160,60019,1,10,0:0:0:0:
137,202,60171,1,0,0:0:0:0:
403,271,60322,101,2,0:0:0:0:
267,13,60474,1,0,0:0:0:0:
177,349,60626,1,10,0:0:0:0:
307,160,60777,1,0,0:0:0:0:
112,284,60929,6,0,P|51:227|71:145,1,176.000005371094,14|0,0:0|0:0,0:0:0:0:
440,238,61383,1,10,0:0:0:0:
28,262,61686,1,0,0:0:0:0:
484,122,61989,1,4,0:0:0:0:
137,202,62292,101,0,0:0:0:0:
198,138,62444,2,0,L|192:48,1,88.000002685547,8|0,0:0|0:0,0:0:0:0:
71,145,62747,1,8,0:0:0:0:
71,145,62822,1,0,0:0:0:0:
71,145,62898,1,8,0:0:0:0:
50,183,62974,1,0,0:0:0:0:
51,227,63050,1,8,0:0:0:0:
74,264,63126,1,0,0:0:0:0:
112,284,63201,6,0,B|177:280|177:280|220:256|220:256|281:252,1,176.000005371094,6|0,0:0|0:0,0:0:0:0:
389,376,63656,2,0,P|348:363|323:329,1,88.000002685547,8|0,0:0|0:0,0:0:0:0:
112,284,63959,2,0,P|153:271|178:236,1,88.000002685547,2|0,0:0|0:0,0:0:0:0:
192,50,64262,1,8,0:0:0:0:
212,135,64413,102,0,P|131:110|106:29,1,176.000005371094,2|2,0:0|0:0,0:0:0:0:
277,75,64868,2,0,L|364:66,1,88.000002685547,8|0,0:0|0:0,0:0:0:0:
487,216,65171,1,2,0:0:0:0:
428,152,65322,1,0,0:0:0:0:
464,300,65474,1,8,0:0:0:0:
510,130,65626,6,0,L|335:149,1,176.000005371094,6|0,0:0|0:0,0:0:0:0:
295,299,66080,2,0,P|339:302|378:322,1,88.000002685547,8|0,0:0|0:0,0:0:0:0:
510,130,66383,2,0,P|472:150|428:152,1,88.000002685547,2|2,0:0|0:0,0:0:0:0:
464,300,66686,1,8,0:0:0:0:
335,149,66838,102,0,B|277:123|277:123|130:139,1,176.000005371094,2|0,0:0|0:0,0:0:0:0:
38,204,67292,1,10,0:0:0:0:
144,136,67444,1,0,0:0:0:0:
67,287,67595,1,8,0:0:0:0:
122,138,67747,1,8,0:0:0:0:
97,371,67898,1,8,0:0:0:0:
102,141,68050,6,0,P|123:222|68:287,1,176.000005371094,6|0,0:0|0:0,0:0:0:0:
411,242,68504,2,0,P|390:161|445:96,1,176.000005371094,8|2,0:0|0:0,0:0:0:0:
484,293,68959,1,0,0:0:0:0:
390,163,69110,2,0,L|295:172,1,88.000002685547,8|0,0:0|0:0,0:0:0:0:
67,287,69413,102,0,B|130:257|130:257|252:270,1,176.000005371094,2|8,0:0|0:0,0:0:0:0:
304,348,69868,1,0,0:0:0:0:
484,293,70019,2,0,L|389:302,1,88.000002685547,2|0,0:0|0:0,0:0:0:0:
304,348,70322,1,8,0:0:0:0:
485,204,70474,6,0,L|295:222,1,176.000005371094,6|0,0:0|0:0,0:0:0:0:
100,141,70929,2,0,P|100:97|123:60,1,88.000002685547,8|0,0:0|0:0,0:0:0:0:
235,268,71232,2,0,P|235:311|211:348,1,88.000002685547
185,122,71535,2,0,L|272:113,1,88.000002685547,8|0,0:0|0:0,0:0:0:0:
149,284,71838,102,0,L|62:275,1,88.000002685547
320,220,72141,2,0,L|407:211,1,88.000002685547,8|0,0:0|0:0,0:0:0:0:
122,60,72444,1,8,0:0:0:0:
100,97,72519,1,0,0:0:0:0:
98,141,72595,1,8,0:0:0:0:
118,180,72671,1,0,0:0:0:0:
153,204,72747,1,8,0:0:0:0:
197,208,72822,1,0,0:0:0:0:
237,191,72898,22,0,L|28:169,1,176.000005371094,6|0,0:0|0:0,0:0:0:0:
211,347,73353,21,8,0:0:0:0:
394,54,73504,1,0,0:0:0:0:
208,325,73656,5,8,0:0:0:0:
438,131,73807,1,0,0:0:0:0:
206,303,73959,101,8,0:0:0:0:
428,219,74110,1,0,0:0:0:0:
204,281,74262,5,8,0:0:0:0:
370,285,74413,1,0,0:0:0:0:
201,259,74565,102,0,P|164:281|120:282,1,88.000002685547,8|0,0:0|0:0,0:0:0:0:
320,357,74868,1,8,0:3:0:0:
361,371,74944,1,0,0:0:0:0:
404,365,75019,1,8,0:3:0:0:
439,338,75095,1,0,0:0:0:0:
456,298,75171,1,8,0:0:0:0:
452,255,75247,1,0,0:0:0:0:
427,218,75322,86,0,P|360:170|363:84,1,176.000005371094,4|0,0:0|0:0,0:0:0:0:
438,131,75777,21,8,0:0:0:0:
185,122,75929,1,0,0:0:0:0:
363,84,76080,5,8,0:0:0:0:
163,125,76232,1,0,0:0:0:0:
289,35,76383,101,8,0:0:0:0:
141,128,76535,1,0,0:0:0:0:
163,125,76610,1,0,0:0:0:0:
185,122,76686,5,4,0:0:0:0:
111,152,76989,1,0,0:0:0:0:
36,120,77292,2,0,P|76:78|135:74,1,120.000004577637
179,193,77747,102,0,P|74:223|36:120,1,240.000009155274
179,193,78504,6,0,P|124:251|48:237,1,160
179,193,78959,70,0,P|230:137|307:147,1,160,6|2,0:0|0:0,0:0:0:0:
449,194,79413,2,0,P|412:208|373:203,1,80,10|0,0:0|0:0,0:0:0:0:
179,193,79716,1,0,0:0:0:0:
242,253,79868,1,0,0:0:0:0:
222,338,80019,1,10,0:0:0:0:
373,203,80171,6,0,B|402:214|432:208|449:195|449:195|475:156|515:154,1,160,2|2,0:0|0:0,0:0:0:0:
300,300,80626,2,0,P|278:267|242:253,1,80,8|0,0:0|0:0,0:0:0:0:
330,126,80929,2,0,L|326:86,2,40,2|0|0,0:0|0:0|0:0,0:0:0:0:
449,194,81232,1,8,0:0:0:0:
251,166,81383,102,0,L|235:6,1,160,6|2,0:0|0:0,0:0:0:0:
163,160,81838,2,0,P|169:199|195:232,1,80,10|0,0:0|0:0,0:0:0:0:
235,7,82141,1,0,0:0:0:0:
159,51,82292,1,0,0:0:0:0:
73,29,82444,1,10,0:0:0:0:
193,231,82595,6,0,B|161:203|163:160|163:160|151:214|87:234,1,160,2|2,0:0|0:0,0:0:0:0:
251,165,83050,2,0,L|342:156,1,80,8|0,0:0|0:0,0:0:0:0:
77,142,83353,2,0,L|13:135,2,40,2|0|0,0:0|0:0|0:0,0:0:0:0:
278,249,83656,2,0,L|369:240,1,80,10|0,0:0|0:0,0:0:0:0:
508,108,83959,69,6,0:0:0:0:
439,276,84110,1,0,0:0:0:0:
439,276,84262,1,0,0:0:0:0:
500,126,84413,5,6,0:0:0:0:
278,249,84565,1,0,0:0:0:0:
278,249,84716,1,0,0:0:0:0:
492,144,84868,101,2,0:0:0:0:
116,221,85019,2,0,B|214:189|184:35|41:46|7:130|38:191|38:191|48:215|46:248|23:267,1,413.333333333333,4|8,0:0|0:3,0:0:0:0:
98,156,86661,2,0,L|94:116,1,40
