osu file format v14

[General]
AudioFilename: audio.mp3
AudioLeadIn: 500
PreviewTime: 52595
Countdown: 0
SampleSet: Soft
StackLeniency: 0.7
Mode: 0
LetterboxInBreaks: 0
EpilepsyWarning: 1
WidescreenStoryboard: 1

[Editor]
DistanceSpacing: 0.4
BeatDivisor: 4
GridSize: 32
TimelineZoom: 2.4

[Metadata]
Title:Twintail Dreamer! (TV Size)
TitleUnicode:ツインテール・ドリーマー! (TV Size)
Artist:Twin-Tails
ArtistUnicode:ツインテイルズ
Creator:Moecho
Version:Kite's Insane
Source:俺、ツインテールになります。
Tags:Twintails OreTwi Ore, Tsuinteru Tsuintēru ni Narimasu. Gonna be the Twin-Tail!! テイルレッド Tail Red 上坂すみれ Uesaka Sumire テイルブルー Blue 相坂優歌 Aisaka Yuuka テイルイエロー Yellow 赤﨑千夏 Akasaki Chinatsu Ending Theme ED TV Size edit Anime papiyon japanese pop j-pop jpop Kodora Laurier Natteke Kite HabiHolic Loneight L18 Lecana Giralda captin1 jonathanlfj apaffy kisata Nyquill RLC LunarSakuya Mythol meiikyuu Syameimaru-Aya Ayaya caren_sk CRN kiddly Axarious Delis ShirohaMyMommy SMM Koiyuki Minakami Yuki yf_bmp yf Skystar Amamiya Yuko rui rustbell spro sprosive Snow Note 7odoa bakabaka Hollow Wings HW
BeatmapID:2339150
BeatmapSetID:1115213

[Difficulty]
HPDrainRate:5
CircleSize:4
OverallDifficulty:7
ApproachRate:8.6
SliderMultiplier:1.7
SliderTickRate:1

[Events]
//Background and Video events
0,0,"bg.jpg",0,0
//Break Periods
//Storyboard Layer 0 (Background)
Sprite,Background,Centre,"sb\sprites\pixel-white.png",320,240 F,0,-60,,0,1 C,0,-60,,0,0,0 V,0,-60,,880,480 F,0,89619,,1,0
Sprite,Background,Centre,"bg.jpg",320,240 F,0,-2559,-1559,0,0.75 S,0,-1559,,0.4444444 F,0,337,487,0.75,0
Sprite,Background,Centre,"bg.jpg",320,240 F,0,88125,89125,0,0.75 S,0,89125,,0.4444444 F,0,89784,89934,0.75,0
Sprite,Background,Centre,"sb\sprites\bg-alt.jpg",320,240 F,0,187,337,0,0.75 S,0,337,,0.4444444 F,0,21156,22306,0.75,0
Sprite,Background,Centre,"sb\sprites\bg-alt.jpg",320,240 F,0,53369,53519,0,0.75 S,0,53519,,0.4444444 F,0,88125,89275,0.75,0
Sprite,Background,Centre,"sb\sprites\bg-alt-bw.jpg",320,240 F,0,22006,22306,0,0.75 S,0,22156,,0.4444444 F,0,39686,40486,0.75,0
Sprite,Background,Centre,"sb\sprites\bg-alt-bw.jpg",320,240 F,0,50491,50791,0,0.75 S,0,50641,,0.4444444 F,0,51807,52607,0.75,0
Sprite,Background,Centre,"sb\sprites\tail-red-ci.jpg",320,240 F,0,40794,41094,0,0.75 S,0,40944,,0.4444444 F,0,48822,50322,0.75,0
Sprite,Background,Centre,"sb\sprites\tail-blue-ci.jpg",320,240 F,0,42915,43215,0,0.75 S,0,43065,,0.4444444 F,0,48822,50322,0.75,0
Sprite,Background,Centre,"sb\sprites\tail-yellow-ci.jpg",320,240 F,0,45339,45639,0,0.75 S,0,45489,,0.4444444 F,0,48822,50322,0.75,0
Sprite,Background,Centre,"sb\sprites\pixel-white.png",320,240 V,0,2610,,854,480 F,0,2610,3210,0.15,0
Sprite,Background,Centre,"sb\sprites\pixel-white.png",320,240 V,0,3822,,854,480 F,0,3822,4422,0.15,0
Sprite,Background,Centre,"sb\sprites\pixel-white.png",320,240 V,0,5034,,854,480 F,0,5034,5634,0.15,0
Sprite,Background,Centre,"sb\sprites\pixel-white.png",320,240 V,0,5792,,854,480 F,0,5792,6392,0.15,0
Sprite,Background,Centre,"sb\sprites\pixel-white.png",320,240 V,0,6247,,854,480 F,0,6247,6847,0.15,0
Sprite,Background,Centre,"sb\sprites\pixel-white.png",320,240 V,0,7004,,854,480 F,0,7004,7604,0.15,0
Sprite,Background,Centre,"sb\sprites\pixel-white.png",320,240 V,0,7459,,854,480 F,0,7459,8059,0.15,0
Sprite,Background,Centre,"sb\sprites\pixel-white.png",320,240 V,0,9883,,854,480 F,0,9883,10483,0.15,0
Sprite,Background,Centre,"sb\sprites\pixel-white.png",320,240 V,0,12307,,854,480 F,0,12307,12907,0.15,0
Sprite,Background,Centre,"sb\sprites\pixel-white.png",320,240 V,0,13519,,854,480 F,0,13519,14119,0.15,0
Sprite,Background,Centre,"sb\sprites\pixel-white.png",320,240 V,0,14731,,854,480 F,0,14731,15331,0.15,0
Sprite,Background,Centre,"sb\sprites\pixel-white.png",320,240 V,0,15944,,854,480 F,0,15944,16544,0.15,0
Sprite,Background,Centre,"sb\sprites\pixel-white.png",320,240 V,0,17156,,854,480 F,0,17156,17756,0.15,0
Sprite,Background,Centre,"sb\sprites\pixel-white.png",320,240 V,0,18368,,854,480 F,0,18368,18968,0.15,0
Sprite,Background,Centre,"sb\sprites\pixel-white.png",320,240 V,0,19580,,854,480 F,0,19580,20180,0.15,0
Sprite,Background,Centre,"sb\sprites\pixel-white.png",320,240 V,0,20792,,854,480 F,0,20792,21392,0.15,0
Sprite,Background,Centre,"sb\sprites\pixel-white.png",320,240 V,0,22156,,854,480 F,0,22156,22756,0.15,0
Sprite,Background,Centre,"sb\sprites\pixel-white.png",320,240 V,0,30489,,854,480 F,0,30489,31089,0.15,0
Sprite,Background,Centre,"sb\sprites\pixel-white.png",320,240 V,0,31853,,854,480 F,0,31853,32453,0.15,0
Sprite,Background,Centre,"sb\sprites\pixel-white.png",320,240 V,0,34277,,854,480 F,0,34277,34877,0.15,0
Sprite,Background,Centre,"sb\sprites\pixel-white.png",320,240 V,0,36701,,854,480 F,0,36701,37301,0.15,0
Sprite,Background,Centre,"sb\sprites\pixel-white.png",320,240 V,0,39125,,854,480 F,0,39125,39725,0.15,0
Sprite,Background,Centre,"sb\sprites\pixel-white.png",320,240 V,0,41550,,854,480 F,0,41550,42150,0.15,0
Sprite,Background,Centre,"sb\sprites\pixel-white.png",320,240 V,0,48822,,854,480 F,0,48822,49422,0.15,0
Sprite,Background,Centre,"sb\sprites\pixel-white.png",320,240 V,0,53519,,854,480 F,0,53519,54119,0.15,0
Sprite,Background,Centre,"sb\sprites\pixel-white.png",320,240 V,0,54731,,854,480 F,0,54731,55331,0.15,0
Sprite,Background,Centre,"sb\sprites\pixel-white.png",320,240 V,0,55944,,854,480 F,0,55944,56544,0.15,0
Sprite,Background,Centre,"sb\sprites\pixel-white.png",320,240 V,0,57156,,854,480 F,0,57156,57756,0.15,0
Sprite,Background,Centre,"sb\sprites\pixel-white.png",320,240 V,0,58368,,854,480 F,0,58368,58968,0.15,0
Sprite,Background,Centre,"sb\sprites\pixel-white.png",320,240 V,0,60944,,854,480 F,0,60944,61544,0.15,0
Sprite,Background,Centre,"sb\sprites\pixel-white.png",320,240 V,0,61398,,854,480 F,0,61398,61998,0.15,0
Sprite,Background,Centre,"sb\sprites\pixel-white.png",320,240 V,0,61701,,854,480 F,0,61701,62301,0.15,0
Sprite,Background,Centre,"sb\sprites\pixel-white.png",320,240 V,0,62004,,854,480 F,0,62004,62604,0.15,0
Sprite,Background,Centre,"sb\sprites\pixel-white.png",320,240 V,0,63216,,854,480 F,0,63216,63816,0.15,0
Sprite,Background,Centre,"sb\sprites\pixel-white.png",320,240 V,0,64428,,854,480 F,0,64428,65028,0.15,0
Sprite,Background,Centre,"sb\sprites\pixel-white.png",320,240 V,0,65641,,854,480 F,0,65641,66241,0.15,0
Sprite,Background,Centre,"sb\sprites\pixel-white.png",320,240 V,0,66095,,854,480 F,0,66095,66695,0.15,0
Sprite,Background,Centre,"sb\sprites\pixel-white.png",320,240 V,0,66853,,854,480 F,0,66853,67453,0.15,0
Sprite,Background,Centre,"sb\sprites\pixel-white.png",320,240 V,0,68065,,854,480 F,0,68065,68665,0.15,0
Sprite,Background,Centre,"sb\sprites\pixel-white.png",320,240 V,0,70489,,854,480 F,0,70489,71089,0.15,0
Sprite,Background,Centre,"sb\sprites\pixel-white.png",320,240 V,0,72913,,854,480 F,0,72913,73513,0.15,0
Sprite,Background,Centre,"sb\sprites\pixel-white.png",320,240 V,0,75338,,854,480 F,0,75338,75938,0.15,0
Sprite,Background,Centre,"sb\sprites\pixel-white.png",320,240 V,0,76701,,854,480 F,0,76701,77301,0.15,0
Sprite,Background,Centre,"sb\sprites\pixel-white.png",320,240 V,0,78974,,854,480 F,0,78974,79574,0.15,0
Sprite,Background,Centre,"sb\sprites\pixel-white.png",320,240 V,0,81398,,854,480 F,0,81398,81998,0.15,0
Sprite,Background,Centre,"sb\sprites\pixel-white.png",320,240 V,0,83974,,854,480 F,0,83974,84574,0.15,0
Sprite,Background,Centre,"sb\sprites\pixel-white.png",320,240 V,0,84428,,854,480 F,0,84428,85028,0.15,0
Sprite,Background,Centre,"sb\sprites\pixel-white.png",320,240 V,0,85034,,854,480 F,0,85034,85634,0.15,0
//Storyboard Layer 1 (Fail)
//Storyboard Layer 2 (Pass)
//Storyboard Layer 3 (Foreground)
Sprite,Foreground,Centre,"sb\lyrics\004b.png",0,0 F,0,12207,12407,0,0.8 M,0,12307,,706.1875,397.8625 S,0,12307,,0.425 C,0,12307,,255,255,255 F,0,86904,87104,0.8,0
Sprite,Foreground,Centre,"sb\lyrics\0069.png",0,0 F,0,12207,12407,0,0.8 M,0,12307,,715.1125,397.65 S,0,12307,,0.425 C,0,12307,,255,255,255 F,0,86904,87104,0.8,0
Sprite,Foreground,Centre,"sb\lyrics\0074.png",0,0 F,0,12207,12407,0,0.8 M,0,12307,,724.4625,398.075 S,0,12307,,0.425 C,0,12307,,255,255,255 F,0,86904,87104,0.8,0
Sprite,Foreground,Centre,"sb\lyrics\0065.png",0,0 F,0,12207,12407,0,0.8 M,0,12307,,733.8124,399.9875 S,0,12307,,0.425 C,0,12307,,255,255,255 F,0,86904,87104,0.8,0
Sprite,Foreground,Centre,"sb\lyrics\004b.png",0,0 F,0,12207,12407,0,0.8 M,0,12307,,603.25,434.25 S,0,12307,,0.5 C,0,12307,,255,255,255 F,0,86904,87104,0.8,0
Sprite,Foreground,Centre,"sb\lyrics\0069.png",0,0 F,0,12207,12407,0,0.8 M,0,12307,,613.75,434 S,0,12307,,0.5 C,0,12307,,255,255,255 F,0,86904,87104,0.8,0
Sprite,Foreground,Centre,"sb\lyrics\0074.png",0,0 F,0,12207,12407,0,0.8 M,0,12307,,624.75,434.5 S,0,12307,,0.5 C,0,12307,,255,255,255 F,0,86904,87104,0.8,0
Sprite,Foreground,Centre,"sb\lyrics\0065.png",0,0 F,0,12207,12407,0,0.8 M,0,12307,,635.75,436.75 S,0,12307,,0.5 C,0,12307,,255,255,255 F,0,86904,87104,0.8,0
Sprite,Foreground,Centre,"sb\lyrics\0027.png",0,0 F,0,12207,12407,0,0.8 M,0,12307,,644.75,428.75 S,0,12307,,0.5 C,0,12307,,255,255,255 F,0,86904,87104,0.8,0
Sprite,Foreground,Centre,"sb\lyrics\0073.png",0,0 F,0,12207,12407,0,0.8 M,0,12307,,658,436.5 S,0,12307,,0.5 C,0,12307,,255,255,255 F,0,86904,87104,0.8,0
Sprite,Foreground,Centre,"sb\lyrics\0049.png",0,0 F,0,12207,12407,0,0.8 M,0,12307,,679.75,434.25 S,0,12307,,0.5 C,0,12307,,255,255,255 F,0,86904,87104,0.8,0
Sprite,Foreground,Centre,"sb\lyrics\006e.png",0,0 F,0,12207,12407,0,0.8 M,0,12307,,691.25,436 S,0,12307,,0.5 C,0,12307,,255,255,255 F,0,86904,87104,0.8,0
Sprite,Foreground,Centre,"sb\lyrics\0073.png",0,0 F,0,12207,12407,0,0.8 M,0,12307,,702,436.5 S,0,12307,,0.5 C,0,12307,,255,255,255 F,0,86904,87104,0.8,0
Sprite,Foreground,Centre,"sb\lyrics\0061.png",0,0 F,0,12207,12407,0,0.8 M,0,12307,,713.25,436.25 S,0,12307,,0.5 C,0,12307,,255,255,255 F,0,86904,87104,0.8,0
Sprite,Foreground,Centre,"sb\lyrics\006e.png",0,0 F,0,12207,12407,0,0.8 M,0,12307,,724.25,436 S,0,12307,,0.5 C,0,12307,,255,255,255 F,0,86904,87104,0.8,0
Sprite,Foreground,Centre,"sb\lyrics\0065.png",0,0 F,0,12207,12407,0,0.8 M,0,12307,,734.75,436.75 S,0,12307,,0.5 C,0,12307,,255,255,255 F,0,86904,87104,0.8,0
//Storyboard Layer 4 (Overlay)
//Storyboard Sound Samples

[TimingPoints]
323,303.030303030303,4,2,50,60,1,0
323,-133.333333333333,4,2,50,60,0,0
1838,-100,4,2,50,60,0,0
2595,-133.333333333333,4,2,50,60,0,0
6232,-100,4,2,50,60,0,0
7444,-100,4,2,50,65,0,1
11838,-100,4,2,50,65,0,0
12292,-100,4,2,50,70,0,1
21686,-142.857142857143,4,2,50,70,0,1
22141,-166.666666666667,4,2,50,60,0,0
30474,-125,4,2,50,60,0,0
31535,-100,4,2,50,60,0,0
41232,-166.666666666667,4,2,50,60,0,0
41535,-133.333333333333,4,2,50,60,0,0
48201,-117.647058823529,4,2,50,60,0,0
48807,-133.333333333333,4,2,50,60,0,0
50626,-250,4,2,50,60,0,0
51232,-117.647058823529,4,2,50,60,0,0
52747,-133.333333333333,4,2,50,60,0,0
53504,-100,4,2,50,75,0,1
72444,-100,4,2,50,75,0,0
72898,-100,4,2,50,65,0,1
76686,-100,4,2,50,65,0,0
78504,-100,4,2,50,32,0,0
78959,-100,4,2,50,70,0,1
85019,-100,4,2,50,70,0,0
86737,-100,4,2,50,35,0,0

[Colours]
Combo1 : 192,192,192
Combo2 : 255,50,50
Combo3 : 255,125,125
Combo4 : 25,100,255
Combo5 : 50,150,255
Combo6 : 255,255,50
Combo7 : 255,255,150
Combo8 : 128,128,128

[HitObjects]
20,251,323,102,0,P|49:235|81:235,1,63.7500024318696,2|0,0:0|0:0,0:0:0:0:
157,260,626,1,0,0:0:0:0:
210,328,777,1,0,0:0:0:0:
509,191,1232,6,0,P|479:175|447:175,1,63.7500024318696,2|0,0:0|0:0,0:0:0:0:
372,200,1535,1,0,0:0:0:0:
319,268,1686,1,0,0:0:0:0:
290,189,1838,70,0,B|280:158|280:158|293:101,1,85,8|8,0:0|1:2,0:0:0:0:
297,93,2065,1,8,1:2:0:0:
302,80,2141,1,8,0:0:0:0:
402,279,2292,1,8,0:0:0:0:
330,344,2595,54,0,L|132:355,1,191.250007295609,6|0,1:2|0:0,0:0:0:0:
46,252,3353,1,2,0:0:0:0:
132,237,3504,1,2,0:0:0:0:
33,68,3807,6,0,B|60:117|60:117|46:251,1,191.250007295609,6|0,1:2|0:0,0:0:0:0:
139,354,4565,1,2,0:0:0:0:
225,339,4716,1,2,0:0:0:0:
484,269,5019,102,0,L|286:280,1,191.250007295609,6|0,1:2|0:0,0:0:0:0:
208,193,5777,2,0,B|202:160|202:160|211:125,1,63.7500024318696,6|0,1:2|0:0,0:0:0:0:
468,106,6232,2,0,B|495:155|495:155|481:289,1,170,6|0,1:2|0:0,0:0:0:0:
469,353,6686,1,8,0:0:0:0:
367,345,6838,1,8,1:2:0:0:
341,343,6913,1,8,1:2:0:0:
315,341,6989,2,0,B|301:309|301:309|308:259,1,85,6|0,1:2|0:0,0:0:0:0:
225,351,7292,1,8,1:2:0:0:
154,210,7444,22,0,P|84:192|30:262,1,170,6|0,1:2|0:0,0:0:0:0:
214,258,7898,2,0,P|231:227|224:176,1,85,10|0,1:2|0:0,0:0:0:0:
96,111,8201,2,0,P|79:80|86:29,1,85,10|0,1:2|0:0,0:0:0:0:
256,7,8504,22,0,L|427:16,1,170,10|8,1:2|0:0,0:0:0:0:
498,70,8959,1,2,0:0:0:0:
421,100,9110,2,0,B|407:130|407:130|414:187,1,85,10|0,1:2|0:0,0:0:0:0:
465,270,9413,1,8,0:0:0:0:
463,286,9489,1,8,0:0:0:0:
461,302,9565,1,8,1:2:0:0:
459,318,9641,1,8,1:2:0:0:
457,334,9716,1,8,0:0:0:0:
350,373,9868,86,0,L|335:197,1,170,6|0,1:2|0:0,0:0:0:0:
243,143,10322,2,0,L|255:43,1,85,10|0,1:2|0:0,0:0:0:0:
440,75,10626,2,0,L|428:175,1,85,10|0,1:2|0:0,0:0:0:0:
261,318,10929,22,0,L|77:334,2,170,10|8|8,1:2|0:0|0:0,0:0:0:0:
350,373,11686,1,2,0:0:0:0:
433,304,11838,2,0,L|443:210,1,85,10|8,1:2|1:2,0:0:0:0:
445,202,12065,1,8,1:2:0:0:
448,185,12141,1,8,0:0:0:0:
336,238,12292,86,0,P|266:253|211:178,1,170,6|0,1:2|0:0,0:0:0:0:
225,103,12747,1,8,1:2:0:0:
88,49,13050,2,0,P|134:31|175:47,1,85,2|0,1:2|0:0,0:0:0:0:
225,103,13353,1,8,1:2:0:0:
464,69,13504,6,0,L|295:56,1,170,6|0,1:2|0:0,0:0:0:0:
88,49,13959,2,0,B|72:89|72:89|81:132,1,85,8|0,1:2|0:0,0:0:0:0:
141,235,14262,1,2,1:2:0:0:
141,235,14338,1,2,0:0:0:0:
141,235,14413,2,0,L|229:248,1,85,0|8,1:0|0:0,0:0:0:0:
421,332,14716,102,0,L|249:347,1,170,6|0,1:2|0:0,0:0:0:0:
171,352,15171,1,8,1:2:0:0:
13,333,15474,2,0,P|58:323|92:341,1,85,2|0,1:2|0:0,0:0:0:0:
171,352,15777,1,8,1:2:0:0:
326,256,15929,6,0,P|347:174|287:125,1,170,6|0,1:2|0:0,0:0:0:0:
147,195,16383,2,0,B|134:225|134:225|141:282,1,85,8|0,1:2|0:0,0:0:0:0:
272,359,16686,1,2,1:2:0:0:
272,359,16762,1,2,0:0:0:0:
272,359,16838,2,0,L|368:353,1,85,0|8,1:0|0:0,0:0:0:0:
499,210,17141,102,0,B|518:164|518:164|499:42,1,170,6|0,1:2|0:0,0:0:0:0:
394,152,17595,2,0,P|351:157|316:137,1,85,8|0,1:2|0:0,0:0:0:0:
219,42,17898,2,0,P|176:37|141:57,1,85,2|0,1:2|0:0,0:0:0:0:
16,15,18201,1,8,1:2:0:0:
121,217,18353,6,0,P|78:149|0:164,1,170,6|0,1:2|0:0,0:0:0:0:
88,289,18807,2,0,P|129:300|167:282,1,85,8|0,1:2|0:0,0:0:0:0:
246,165,19110,1,2,1:2:0:0:
320,115,19262,2,0,P|367:112|404:137,1,85,2|8,1:2|0:0,0:0:0:0:
371,329,19565,102,0,P|305:282|322:204,1,170,6|0,1:2|0:0,0:0:0:0:
320,115,20019,1,8,1:2:0:0:
180,33,20322,2,0,P|225:28|258:50,1,85,2|0,1:2|0:0,0:0:0:0:
320,115,20626,1,8,1:2:0:0:
511,18,20777,6,0,L|336:35,1,170,6|0,1:2|0:0,0:0:0:0:
180,33,21232,1,8,1:2:0:0:
109,262,21535,1,8,1:2:0:0:
47,200,21686,2,0,P|34:191|16:189,2,29.7499990921021,8|8|0,0:0|0:0|1:0,0:0:0:0:
128,174,21989,1,8,0:0:0:0:
146,166,22065,1,8,0:0:0:0:
170,164,22141,54,0,P|217:169|252:210,1,101.999996887207,6|0,1:2|1:0,0:0:0:0:
247,292,22595,1,2,0:0:0:0:
431,217,22898,1,2,0:0:0:0:
348,307,23201,2,0,L|241:291,1,101.999996887207,2|0,0:0|0:0,0:0:0:0:
129,232,23656,2,0,L|183:229,1,50.9999984436036,0|0,1:0|0:0,0:0:0:0:
41,265,23959,1,2,1:2:0:0:
253,171,24262,1,2,1:2:0:0:
100,124,24565,86,0,P|90:76|128:28,1,101.999996887207,2|0,1:2|1:0,0:0:0:0:
196,15,25019,1,2,0:0:0:0:
253,171,25322,1,2,0:0:0:0:
431,120,25626,2,0,L|327:125,1,101.999996887207,2|0,0:0|0:0,0:0:0:0:
253,171,26080,2,0,B|245:201|245:201|249:225,1,50.9999984436036,0|0,1:0|0:0,0:0:0:0:
265,314,26383,1,2,1:2:0:0:
265,314,26535,1,0,0:0:0:0:
347,266,26686,2,0,P|382:264|404:274,1,50.9999984436036,0|0,1:0|0:0,0:0:0:0:
265,314,26989,22,0,L|156:319,1,101.999996887207,2|0,1:2|1:0,0:0:0:0:
77,288,27444,1,2,0:0:0:0:
234,183,27747,1,2,0:0:0:0:
348,85,28050,2,0,P|291:79|252:110,1,101.999996887207,2|0,0:0|0:0,0:0:0:0:
167,222,28504,2,0,P|156:196|159:167,1,50.9999984436036,0|0,1:0|0:0,0:0:0:0:
315,152,28807,1,2,1:2:0:0:
354,219,28959,1,0,0:0:0:0:
315,290,29110,2,0,P|282:298|253:291,1,50.9999984436036,0|0,1:0|0:0,0:0:0:0:
396,152,29413,86,0,L|503:148,1,101.999996887207,2|0,1:2|1:0,0:0:0:0:
315,152,29868,2,0,B|306:122|306:122|313:95,1,50.9999984436036,2|0,0:0|1:0,0:0:0:0:
333,23,30171,1,8,0:0:0:0:
226,71,30322,1,2,1:2:0:0:
13,17,30474,22,0,L|161:26,1,136,4|0,1:2|0:0,0:0:0:0:
226,71,30929,2,0,B|238:107|238:107|228:144,1,68,8|0,0:0|0:0,0:0:0:0:
335,128,31232,2,0,L|405:133,1,68,0|0,1:0|0:0,0:0:0:0:
495,88,31535,1,8,0:0:0:0:
488,186,31686,1,8,0:0:0:0:
485,202,31762,1,8,0:0:0:0:
482,218,31838,70,0,L|488:302,1,85,6|0,1:2|0:0,0:0:0:0:
389,329,32141,1,8,0:0:0:0:
389,329,32292,2,0,P|314:300|259:358,1,170,2|0,1:2|0:0,0:0:0:0:
173,308,32747,1,8,0:0:0:0:
42,196,32898,2,0,P|117:167|172:225,1,170,2|0,1:2|0:0,0:0:0:0:
173,308,33353,1,8,0:0:0:0:
258,358,33504,1,0,0:0:0:0:
389,329,33656,2,0,B|402:298|402:298|391:240,1,85,2|0,1:2|0:0,0:0:0:0:
324,144,33959,2,0,L|225:136,1,85,8|0,1:2|0:0,0:0:0:0:
63,52,34262,6,0,L|236:33,1,170,6|8,1:2|0:0,0:0:0:0:
395,19,34716,2,0,B|410:64|410:64|398:102,1,85,2|0,1:2|0:0,0:0:0:0:
285,218,35019,2,0,L|186:210,1,85,2|8,1:2|0:0,0:0:0:0:
314,334,35322,2,0,L|487:315,1,170,2|0,1:2|0:0,0:0:0:0:
437,219,35777,1,8,0:0:0:0:
437,219,35929,1,2,0:0:0:0:
493,154,36080,2,0,B|504:116|504:116|491:61,1,85,2|0,1:2|0:0,0:0:0:0:
331,164,36383,102,0,L|313:339,1,170,8|4,0:0|0:0,0:0:0:0:
54,229,36989,1,8,0:0:0:0:
54,229,37141,2,0,B|42:195|42:195|52:142,1,85,2|0,1:2|0:0,0:0:0:0:
170,52,37444,2,0,L|257:46,1,85,2|8,1:2|0:0,0:0:0:0:
485,75,37747,2,0,P|386:24|361:132,1,255,2|8,1:2|0:0,0:0:0:0:
419,190,38353,1,0,0:0:0:0:
463,263,38504,1,2,1:2:0:0:
444,342,38656,1,0,0:0:0:0:
368,375,38807,2,0,P|332:383|290:357,1,85,8|0,0:0|0:0,0:0:0:0:
48,300,39110,6,0,L|225:286,1,170,6|8,1:2|0:0,0:0:0:0:
300,194,39565,2,0,B|318:229|318:229|309:278,1,85,2|0,1:2|0:0,0:0:0:0:
195,173,39868,2,0,L|206:83,1,85,2|8,1:2|0:0,0:0:0:0:
302,21,40171,2,0,L|477:32,1,170,2|0,1:2|0:0,0:0:0:0:
506,111,40626,1,8,0:0:0:0:
215,13,40929,37,2,0:0:0:0:
128,26,41232,2,0,L|71:20,1,50.9999984436036,8|0,0:0|0:0,0:0:0:0:
180,91,41535,2,0,B|190:133|190:133|175:224,1,127.500004863739,6|0,1:2|0:0,0:0:0:0:
105,295,41989,2,0,L|109:367,1,63.7500024318696,2|8,1:2|0:0,0:0:0:0:
310,321,42292,2,0,P|258:286|199:307,1,127.500004863739,2|0,1:2|0:0,0:0:0:0:
105,295,42747,1,2,0:0:0:0:
45,231,42898,1,0,0:0:0:0:
63,148,43050,22,0,P|99:130|128:133,1,63.7500024318696,2|0,1:2|0:0,0:0:0:0:
324,157,43353,2,0,P|267:136|212:172,1,127.500004863739,8|0,1:2|0:0,0:0:0:0:
188,245,43807,1,8,0:0:0:0:
384,206,43959,2,0,P|402:169|395:132,1,63.7500024318696,2|0,1:2|0:0,0:0:0:0:
381,63,44262,2,0,P|355:30|319:20,1,63.7500024318696,8|0,1:2|0:0,0:0:0:0:
247,14,44565,1,2,0:0:0:0:
56,85,44716,2,0,L|184:72,1,127.500004863739,0|8,1:0|0:0,0:0:0:0:
247,14,45171,1,2,0:0:0:0:
319,69,45322,1,0,0:0:0:0:
402,41,45474,22,0,L|475:46,1,63.7500024318696,8|0,1:2|0:0,0:0:0:0:
405,222,45777,1,2,0:0:0:0:
348,163,45929,2,0,P|319:152|279:159,1,63.7500024318696,0|8,1:0|0:0,0:0:0:0:
124,213,46232,2,0,P|163:195|229:244,1,127.500004863739,2|0,1:2|0:0,0:0:0:0:
302,311,46686,2,0,L|367:305,1,63.7500024318696,2|0,1:2|0:0,0:0:0:0:
486,223,46989,2,0,L|474:88,2,127.500004863739,8|0|0,1:2|0:0|0:0,0:0:0:0:
447,361,47747,1,0,0:0:0:0:
447,361,47898,2,0,B|453:326|453:326|443:292,1,63.7500024318696,2|0,1:2|0:0,0:0:0:0:
302,311,48201,2,0,L|154:298,1,144.500002756119,8|8,1:2|0:0,0:0:0:0:
50,233,48656,1,8,0:0:0:0:
47,215,48732,1,8,0:0:0:0:
50,194,48807,38,0,P|101:161|158:184,1,127.500004863739,6|0,1:2|0:0,0:0:0:0:
238,158,49262,1,2,0:0:0:0:
395,57,49565,1,2,0:0:0:0:
473,218,49868,1,2,0:0:0:0:
318,106,50171,101,2,0:0:0:0:
356,177,50322,1,2,0:0:0:0:
334,251,50474,1,2,0:0:0:0:
410,242,50626,6,0,L|447:237,3,34,0|2|0|2,1:0|0:0|1:0|0:0,0:0:0:0:
277,193,51232,86,0,B|211:201|211:201|191:195|191:195|134:202,1,144.500002756119,2|0,1:2|0:0,0:0:0:0:
53,213,51686,1,2,0:0:0:0:
80,137,51838,1,8,1:2:0:0:
55,62,51989,1,10,1:2:0:0:
134,75,52141,1,8,1:2:0:0:
290,31,52292,101,10,0:0:0:0:
368,52,52595,21,2,0:0:0:0:
307,108,52747,2,0,B|301:133|301:133|307:172,2,63.7500024318696,2|0|0,0:0|0:0|0:0,0:0:0:0:
290,31,53201,1,2,0:0:0:0:
448,315,53504,22,0,B|466:275|466:275|454:149,1,170,6|0,1:2|0:0,0:0:0:0:
290,31,53959,2,0,L|204:34,1,85,8|0,1:2|0:0,0:0:0:0:
107,38,54262,1,0,1:0:0:0:
159,114,54413,2,0,B|175:142|175:142|167:199,1,85,2|8,0:0|0:0,0:0:0:0:
146,352,54716,2,0,P|101:286|25:308,1,170,6|0,1:2|0:0,0:0:0:0:
252,304,55171,5,8,1:2:0:0:
453,118,55474,1,2,1:2:0:0:
365,127,55626,2,0,L|275:137,1,85,2|8,0:0|0:0,0:0:0:0:
101,185,55929,2,0,B|81:140|81:140|94:20,1,170,6|0,1:2|0:0,0:0:0:0:
281,136,56383,2,0,L|265:306,1,170,8|0,1:2|0:0,0:0:0:0:
197,358,56838,1,10,0:0:0:0:
220,88,57141,2,0,P|274:59|357:128,1,170,14|0,1:2|0:0,0:0:0:0:
403,191,57595,101,8,1:2:0:0:
473,138,57747,1,2,0:0:0:0:
486,54,57898,1,0,1:0:0:0:
483,223,58050,2,0,L|472:311,1,85,2|8,0:0|0:0,0:0:0:0:
279,186,58353,6,0,L|267:7,1,170,6|0,1:2|0:0,0:0:0:0:
168,108,58807,2,0,P|133:118|82:98,1,85,8|0,1:2|0:0,0:0:0:0:
268,16,59110,2,0,P|304:15|348:47,1,85,2|0,1:2|0:0,0:0:0:0:
342,233,59413,2,0,P|314:257|260:261,1,85,8|0,1:2|0:0,0:0:0:0:
35,50,59716,2,0,P|75:29|113:33,1,85,2|0,1:2|0:0,0:0:0:0:
268,263,60019,2,0,P|270:313|248:344,1,85,8|0,1:2|0:0,0:0:0:0:
1,238,60322,2,0,P|15:190|50:167,1,85,2|0,1:2|0:0,0:0:0:0:
252,341,60626,2,0,P|210:361|170:351,1,85,8|0,1:2|0:0,0:0:0:0:
221,140,60929,101,12,1:2:0:0:
325,120,61080,1,2,1:2:0:0:
405,180,61232,1,2,1:2:0:0:
457,26,61383,5,12,1:2:0:0:
490,298,61686,1,12,1:2:0:0:
118,153,61989,2,0,P|101:106|245:79,1,255,12|8,1:2|0:0,0:0:0:0:
258,190,62595,1,2,1:2:0:0:
339,132,62747,1,8,0:0:0:0:
355,129,62822,1,8,0:0:0:0:
371,126,62898,1,8,1:2:0:0:
387,122,62974,1,8,1:2:0:0:
404,119,63050,1,8,0:0:0:0:
486,286,63201,102,0,B|445:304|445:304|311:278,1,170,6|0,1:2|0:0,0:0:0:0:
258,190,63656,2,0,L|169:193,1,85,8|0,1:2|0:0,0:0:0:0:
54,176,63959,1,2,1:2:0:0:
98,279,64110,2,0,B|108:311|108:311|97:363,1,85,2|8,0:0|0:0,0:0:0:0:
54,176,64413,2,0,L|77:-2,1,170,6|0,1:2|0:0,0:0:0:0:
161,60,64868,5,8,1:2:0:0:
446,92,65171,1,2,1:2:0:0:
390,36,65322,2,0,P|346:29|310:53,1,85,2|8,0:0|0:0,0:0:0:0:
147,166,65626,2,0,P|212:143|268:214,1,170,6|0,1:2|0:0,0:0:0:0:
496,255,66080,2,0,P|431:232|375:303,1,170,6|0,1:2|0:0,0:0:0:0:
314,360,66535,1,10,0:0:0:0:
33,232,66838,102,0,L|16:49,1,170,14|0,1:2|0:0,0:0:0:0:
101,24,67292,1,8,1:2:0:0:
168,67,67444,1,2,0:0:0:0:
205,140,67595,1,8,1:2:0:0:
253,72,67747,2,0,B|280:61|280:61|346:66,1,85,2|8,0:0|0:0,0:0:0:0:
480,292,68050,6,0,L|308:307,1,170,6|0,1:2|0:0,0:0:0:0:
230,275,68504,1,8,1:2:0:0:
396,134,68807,2,0,P|405:93|388:55,1,85,2|0,1:2|0:0,0:0:0:0:
304,23,69110,1,8,1:2:0:0:
133,49,69413,2,0,P|155:102|254:93,1,170,2|8,1:2|0:0,0:0:0:0:
304,23,69868,1,2,0:0:0:0:
396,134,70019,2,0,B|404:168|404:168|390:224,1,85,2|0,1:2|0:0,0:0:0:0:
360,309,70322,1,8,1:2:0:0:
192,226,70474,102,0,P|125:208|114:352,1,255,6|8,1:2|0:0,0:0:0:0:
192,357,71080,1,2,0:0:0:0:
271,321,71232,2,0,P|317:318|349:344,1,85,2|0,1:2|0:0,0:0:0:0:
424,326,71535,1,8,1:2:0:0:
481,101,71838,1,2,1:2:0:0:
226,52,72141,2,0,B|192:45|192:45|136:60,1,85,8|0,1:2|0:0,0:0:0:0:
243,186,72444,2,0,L|330:175,1,85,8|8,1:2|1:2,0:0:0:0:
341,173,72671,1,8,1:2:0:0:
354,171,72747,1,8,0:0:0:0:
486,343,72898,22,0,L|316:318,1,170,6|0,1:2|0:0,0:0:0:0:
168,340,73353,1,10,1:2:0:0:
168,340,73504,1,0,0:0:0:0:
58,257,73656,2,0,B|45:213|45:213|61:175,1,85,10|0,1:2|0:0,0:0:0:0:
275,191,73959,2,0,B|288:235|288:235|272:273,1,85,10|0,1:2|0:0,0:0:0:0:
184,58,74262,2,0,L|370:41,1,170,10|8,1:2|0:0,0:0:0:0:
475,31,74716,1,2,0:0:0:0:
428,130,74868,2,0,B|419:158|419:158|429:228,1,85,8|8,1:2|1:2,0:0:0:0:
430,229,75095,1,8,1:2:0:0:
433,245,75171,1,8,0:0:0:0:
241,366,75322,22,0,P|295:305|370:345,1,170,6|0,1:2|0:0,0:0:0:0:
169,247,75777,2,0,P|124:235|84:258,1,85,10|0,1:2|0:0,0:0:0:0:
283,124,76080,2,0,P|332:120|366:141,1,85,10|0,1:2|0:0,0:0:0:0:
406,252,76383,1,10,1:2:0:0:
505,187,76535,1,8,0:0:0:0:
507,175,76610,1,8,0:0:0:0:
506,164,76686,1,6,1:2:0:0:
256,192,76762,12,0,78504,0:0:0:0:
129,71,78959,86,0,B|89:91|89:91|56:215,1,170,6|0,1:2|0:0,0:0:0:0:
103,324,79413,2,0,L|203:318,1,85,8|0,1:2|0:0,0:0:0:0:
381,225,79716,2,0,L|209:203,1,170,2|8,1:2|0:0,0:0:0:0:
203,120,80171,1,2,1:2:0:0:
444,38,80474,1,2,1:2:0:0:
387,93,80626,2,0,P|344:106|309:92,1,85,8|0,1:2|0:0,0:0:0:0:
470,122,80929,1,2,1:2:0:0:
470,122,81004,1,2,0:0:0:0:
470,122,81080,2,0,B|479:161|479:161|470:217,1,85,0|8,1:0|0:0,0:0:0:0:
336,370,81383,6,0,L|324:196,1,170,6|0,1:2|0:0,0:0:0:0:
263,79,81838,2,0,B|232:68|232:68|174:76,1,85,8|0,1:2|0:0,0:0:0:0:
15,161,82141,2,0,P|68:143|125:230,1,170,2|8,1:2|0:0,0:0:0:0:
92,297,82595,1,2,1:2:0:0:
336,370,82898,1,2,1:2:0:0:
288,302,83050,2,0,P|248:291|203:312,1,85,8|0,1:2|0:0,0:0:0:0:
374,300,83353,1,2,1:2:0:0:
374,300,83429,1,2,0:0:0:0:
374,300,83504,2,0,B|387:273|387:273|382:212,1,85,0|8,1:0|0:0,0:0:0:0:
368,75,83807,69,8,0:0:0:0:
368,75,83883,1,8,0:0:0:0:
368,75,83959,2,0,L|274:62,1,85,4|0,1:2|0:0,0:0:0:0:
173,44,84262,1,8,0:0:0:0:
34,217,84413,2,0,L|128:204,1,85,6|0,1:2|0:0,0:0:0:0:
229,186,84716,1,8,0:0:0:0:
327,290,84868,1,2,1:2:0:0:
461,176,85019,1,6,1:2:0:0:
256,192,85095,12,0,86737,1:0:0:0:
