osu file format v14

[General]
AudioFilename: audio.mp3
AudioLeadIn: 500
PreviewTime: 52595
Countdown: 0
SampleSet: Soft
StackLeniency: 0.2
Mode: 0
LetterboxInBreaks: 0
EpilepsyWarning: 1
WidescreenStoryboard: 1

[Editor]
DistanceSpacing: 1
BeatDivisor: 4
GridSize: 4
TimelineZoom: 2.200001

[Metadata]
Title:Twintail Dreamer! (TV Size)
TitleUnicode:ツインテール・ドリーマー! (TV Size)
Artist:Twin-Tails
ArtistUnicode:ツインテイルズ
Creator:Moecho
Version:HW's EX
Source:俺、ツインテールになります。
Tags:Twintails OreTwi Ore, Tsuinteru Tsuintēru ni Narimasu. Gonna be the Twin-Tail!! テイルレッド Tail Red 上坂すみれ Uesaka Sumire テイルブルー Blue 相坂優歌 Aisaka Yuuka テイルイエロー Yellow 赤﨑千夏 Akasaki Chinatsu Ending Theme ED TV Size edit Anime papiyon japanese pop j-pop jpop Kodora Laurier Natteke Kite HabiHolic Loneight L18 Lecana Giralda captin1 jonathanlfj apaffy kisata Nyquill RLC LunarSakuya Mythol meiikyuu Syameimaru-Aya Ayaya caren_sk CRN kiddly Axarious Delis ShirohaMyMommy SMM Koiyuki Minakami Yuki yf_bmp yf Skystar Amamiya Yuko rui rustbell spro sprosive Snow Note 7odoa bakabaka Hollow Wings HW
BeatmapID:2329704
BeatmapSetID:1115213

[Difficulty]
HPDrainRate:6
CircleSize:4.5
OverallDifficulty:9
ApproachRate:9.3
SliderMultiplier:1.6
SliderTickRate:1

[Events]
//Background and Video events
0,0,"bg.jpg",0,0
//Break Periods
//Storyboard Layer 0 (Background)
Sprite,Background,Centre,"sb\sprites\pixel-white.png",320,240 F,0,-75,,0,1 C,0,-75,,0,0,0 V,0,-75,,880,480 F,0,89604,,1,0
Sprite,Background,Centre,"bg.jpg",320,240 F,0,-2574,-1574,0,0.75 S,0,-1574,,0.4444444 F,0,322,472,0.75,0
Sprite,Background,Centre,"bg.jpg",320,240 F,0,88110,89110,0,0.75 S,0,89110,,0.4444444 F,0,89769,89919,0.75,0
Sprite,Background,Centre,"sb\sprites\bg-alt.jpg",320,240 F,0,172,322,0,0.75 S,0,322,,0.4444444 F,0,21141,22291,0.75,0
Sprite,Background,Centre,"sb\sprites\bg-alt.jpg",320,240 F,0,53354,53504,0,0.75 S,0,53504,,0.4444444 F,0,88110,89260,0.75,0
Sprite,Background,Centre,"sb\sprites\bg-alt-bw.jpg",320,240 F,0,21991,22291,0,0.75 S,0,22141,,0.4444444 F,0,39671,40471,0.75,0
Sprite,Background,Centre,"sb\sprites\bg-alt-bw.jpg",320,240 F,0,50476,50776,0,0.75 S,0,50626,,0.4444444 F,0,51792,52592,0.75,0
Sprite,Background,Centre,"sb\sprites\tail-red-ci.jpg",320,240 F,0,40779,41079,0,0.75 S,0,40929,,0.4444444 F,0,48807,50307,0.75,0
Sprite,Background,Centre,"sb\sprites\tail-blue-ci.jpg",320,240 F,0,42900,43200,0,0.75 S,0,43050,,0.4444444 F,0,48807,50307,0.75,0
Sprite,Background,Centre,"sb\sprites\tail-yellow-ci.jpg",320,240 F,0,45324,45624,0,0.75 S,0,45474,,0.4444444 F,0,48807,50307,0.75,0
Sprite,Background,Centre,"sb\sprites\pixel-white.png",320,240 V,0,2595,,854,480 F,0,2595,3195,0.15,0
Sprite,Background,Centre,"sb\sprites\pixel-white.png",320,240 V,0,3807,,854,480 F,0,3807,4407,0.15,0
Sprite,Background,Centre,"sb\sprites\pixel-white.png",320,240 V,0,5019,,854,480 F,0,5019,5619,0.15,0
Sprite,Background,Centre,"sb\sprites\pixel-white.png",320,240 V,0,5777,,854,480 F,0,5777,6377,0.15,0
Sprite,Background,Centre,"sb\sprites\pixel-white.png",320,240 V,0,6232,,854,480 F,0,6232,6832,0.15,0
Sprite,Background,Centre,"sb\sprites\pixel-white.png",320,240 V,0,7444,,854,480 F,0,7444,8044,0.15,0
Sprite,Background,Centre,"sb\sprites\pixel-white.png",320,240 V,0,9868,,854,480 F,0,9868,10468,0.15,0
Sprite,Background,Centre,"sb\sprites\pixel-white.png",320,240 V,0,12292,,854,480 F,0,12292,12892,0.15,0
Sprite,Background,Centre,"sb\sprites\pixel-white.png",320,240 V,0,17141,,854,480 F,0,17141,17741,0.15,0
Sprite,Background,Centre,"sb\sprites\pixel-white.png",320,240 V,0,22141,,854,480 F,0,22141,22741,0.15,0
Sprite,Background,Centre,"sb\sprites\pixel-white.png",320,240 V,0,30474,,854,480 F,0,30474,31074,0.15,0
Sprite,Background,Centre,"sb\sprites\pixel-white.png",320,240 V,0,31838,,854,480 F,0,31838,32438,0.15,0
Sprite,Background,Centre,"sb\sprites\pixel-white.png",320,240 V,0,41535,,854,480 F,0,41535,42135,0.15,0
Sprite,Background,Centre,"sb\sprites\pixel-white.png",320,240 V,0,48807,,854,480 F,0,48807,49407,0.15,0
Sprite,Background,Centre,"sb\sprites\pixel-white.png",320,240 V,0,53504,,854,480 F,0,53504,54104,0.15,0
Sprite,Background,Centre,"sb\sprites\pixel-white.png",320,240 V,0,58353,,854,480 F,0,58353,58953,0.15,0
Sprite,Background,Centre,"sb\sprites\pixel-white.png",320,240 V,0,61383,,854,480 F,0,61383,61983,0.15,0
Sprite,Background,Centre,"sb\sprites\pixel-white.png",320,240 V,0,63201,,854,480 F,0,63201,63801,0.15,0
Sprite,Background,Centre,"sb\sprites\pixel-white.png",320,240 V,0,68050,,854,480 F,0,68050,68650,0.15,0
Sprite,Background,Centre,"sb\sprites\pixel-white.png",320,240 V,0,70474,,854,480 F,0,70474,71074,0.15,0
Sprite,Background,Centre,"sb\sprites\pixel-white.png",320,240 V,0,72898,,854,480 F,0,72898,73498,0.15,0
Sprite,Background,Centre,"sb\sprites\pixel-white.png",320,240 V,0,75323,,854,480 F,0,75323,75923,0.15,0
Sprite,Background,Centre,"sb\sprites\pixel-white.png",320,240 V,0,78959,,854,480 F,0,78959,79559,0.15,0
Sprite,Background,Centre,"sb\sprites\pixel-white.png",320,240 V,0,83959,,854,480 F,0,83959,84559,0.15,0
Sprite,Background,Centre,"sb\sprites\pixel-white.png",320,240 V,0,84413,,854,480 F,0,84413,85013,0.15,0
Sprite,Background,Centre,"sb\sprites\pixel-white.png",320,240 V,0,84868,,854,480 F,0,84868,85468,0.15,0
Sprite,Background,Centre,"sb\sprites\pixel-white.png",320,240 V,0,85019,,854,480 F,0,85019,85619,0.15,0
//Storyboard Layer 1 (Fail)
//Storyboard Layer 2 (Pass)
//Storyboard Layer 3 (Foreground)
Sprite,Foreground,Centre,"sb\lyrics\0048.png",0,0 F,0,12192,12392,0,0.8 M,0,12292,,656.975,398.0125 S,0,12292,,0.325 C,0,12292,,255,255,255 F,0,86889,87089,0.8,0
Sprite,Foreground,Centre,"sb\lyrics\006f.png",0,0 F,0,12192,12392,0,0.8 M,0,12292,,663.9625,399.15 S,0,12292,,0.325 C,0,12292,,255,255,255 F,0,86889,87089,0.8,0
Sprite,Foreground,Centre,"sb\lyrics\006c.png",0,0 F,0,12192,12392,0,0.8 M,0,12292,,671.2751,397.85 S,0,12292,,0.325 C,0,12292,,255,255,255 F,0,86889,87089,0.8,0
Sprite,Foreground,Centre,"sb\lyrics\006c.png",0,0 F,0,12192,12392,0,0.8 M,0,12292,,678.4251,397.85 S,0,12292,,0.325 C,0,12292,,255,255,255 F,0,86889,87089,0.8,0
Sprite,Foreground,Centre,"sb\lyrics\006f.png",0,0 F,0,12192,12392,0,0.8 M,0,12292,,685.4126,399.15 S,0,12292,,0.325 C,0,12292,,255,255,255 F,0,86889,87089,0.8,0
Sprite,Foreground,Centre,"sb\lyrics\0077.png",0,0 F,0,12192,12392,0,0.8 M,0,12292,,692.5626,399.3125 S,0,12292,,0.325 C,0,12292,,255,255,255 F,0,86889,87089,0.8,0
Sprite,Foreground,Centre,"sb\lyrics\0057.png",0,0 F,0,12192,12392,0,0.8 M,0,12292,,704.2626,398.0125 S,0,12292,,0.325 C,0,12292,,255,255,255 F,0,86889,87089,0.8,0
Sprite,Foreground,Centre,"sb\lyrics\0069.png",0,0 F,0,12192,12392,0,0.8 M,0,12292,,711.4127,397.85 S,0,12292,,0.325 C,0,12292,,255,255,255 F,0,86889,87089,0.8,0
Sprite,Foreground,Centre,"sb\lyrics\006e.png",0,0 F,0,12192,12392,0,0.8 M,0,12292,,718.8877,399.15 S,0,12292,,0.325 C,0,12292,,255,255,255 F,0,86889,87089,0.8,0
Sprite,Foreground,Centre,"sb\lyrics\0067.png",0,0 F,0,12192,12392,0,0.8 M,0,12292,,725.5502,399.9625 S,0,12292,,0.325 C,0,12292,,255,255,255 F,0,86889,87089,0.8,0
Sprite,Foreground,Centre,"sb\lyrics\0073.png",0,0 F,0,12192,12392,0,0.8 M,0,12292,,733.0253,399.475 S,0,12292,,0.325 C,0,12292,,255,255,255 F,0,86889,87089,0.8,0
Sprite,Foreground,Centre,"sb\lyrics\0048.png",0,0 F,0,12192,12392,0,0.8 M,0,12292,,671,435.25 S,0,12292,,0.5 C,0,12292,,255,255,255 F,0,86889,87089,0.8,0
Sprite,Foreground,Centre,"sb\lyrics\0057.png",0,0 F,0,12192,12392,0,0.8 M,0,12292,,681.75,435.25 S,0,12292,,0.5 C,0,12292,,255,255,255 F,0,86889,87089,0.8,0
Sprite,Foreground,Centre,"sb\lyrics\0027.png",0,0 F,0,12192,12392,0,0.8 M,0,12292,,690.75,429.75 S,0,12292,,0.5 C,0,12292,,255,255,255 F,0,86889,87089,0.8,0
Sprite,Foreground,Centre,"sb\lyrics\0073.png",0,0 F,0,12192,12392,0,0.8 M,0,12292,,704,437.5 S,0,12292,,0.5 C,0,12292,,255,255,255 F,0,86889,87089,0.8,0
Sprite,Foreground,Centre,"sb\lyrics\0045.png",0,0 F,0,12192,12392,0,0.8 M,0,12292,,722.25,435.25 S,0,12292,,0.5 C,0,12292,,255,255,255 F,0,86889,87089,0.8,0
Sprite,Foreground,Centre,"sb\lyrics\0058.png",0,0 F,0,12192,12392,0,0.8 M,0,12292,,732.75,435.25 S,0,12292,,0.5 C,0,12292,,255,255,255 F,0,86889,87089,0.8,0
//Storyboard Layer 4 (Overlay)
//Storyboard Sound Samples

[TimingPoints]
323,303.030303030303,4,2,0,50,1,0
1838,-100,4,2,1,60,0,0
2595,-100,4,2,1,70,0,0
7444,-100,4,2,1,80,0,0
12292,-100,4,2,1,90,0,0
22141,-100,4,2,1,60,0,0
31838,-100,4,2,1,70,0,0
41535,-100,4,2,1,60,0,0
53504,-100,4,2,1,90,0,1
76686,-100,4,2,1,70,0,0
78959,-100,4,2,1,80,0,0
83959,-100,4,2,1,70,0,0

[Colours]
Combo1 : 192,192,192
Combo2 : 255,50,50
Combo3 : 255,125,125
Combo4 : 25,100,255
Combo5 : 50,150,255
Combo6 : 255,255,50
Combo7 : 255,255,150
Combo8 : 128,128,128

[HitObjects]
19,244,323,101,2,0:0:0:0:
177,209,474,1,0,0:0:0:0:
89,189,626,1,0,0:0:0:0:
322,185,777,1,0,0:0:0:0:
16,147,1232,5,2,0:0:0:0:
177,163,1383,1,0,0:0:0:0:
99,116,1535,1,0,0:0:0:0:
322,185,1686,1,0,0:0:0:0:
424,231,1838,69,8,0:0:0:0:
434,176,1913,1,4,0:3:0:0:
413,123,1989,1,8,0:3:0:0:
449,80,2065,1,4,0:3:0:0:
503,96,2141,5,8,0:0:0:0:
479,360,2292,1,8,0:1:0:0:
491,24,2595,37,6,0:0:0:0:
24,27,3807,1,6,0:0:0:0:
491,24,5019,5,4,0:0:0:0:
125,212,5777,1,4,0:0:0:0:
24,27,6232,1,4,0:0:0:0:
272,56,6535,101,2,0:0:0:0:
483,118,6686,1,8,0:0:0:0:
252,132,6838,1,8,0:3:0:0:
205,100,6913,1,8,0:3:0:0:
189,45,6989,5,8,0:0:0:0:
190,247,7141,1,2,0:3:0:0:
11,239,7292,1,8,0:0:0:0:
184,173,7444,5,4,0:0:0:0:
255,211,7747,21,2,0:0:0:0:
268,297,7898,1,8,0:0:0:0:
317,268,7974,1,4,0:3:0:0:
337,216,8050,1,4,0:3:0:0:
252,132,8201,1,8,0:0:0:0:
487,208,8353,1,2,0:0:0:0:
184,173,8504,85,8,0:0:0:0:
64,187,8656,1,2,0:0:0:0:
252,132,8807,1,8,0:0:0:0:
86,94,8959,1,2,0:0:0:0:
336,122,9110,1,8,0:0:0:0:
149,19,9262,1,2,0:0:0:0:
355,333,9413,21,8,0:0:0:0:
399,282,9489,1,4,0:3:0:0:
415,216,9565,1,8,0:3:0:0:
417,149,9641,1,4,0:3:0:0:
393,85,9716,85,8,0:0:0:0:
38,32,9868,1,6,0:0:0:0:
86,94,10171,21,2,0:0:0:0:
327,52,10323,1,8,0:0:0:0:
252,132,10474,1,2,0:0:0:0:
202,41,10626,1,8,0:0:0:0:
184,173,10777,1,2,0:0:0:0:
86,94,10929,85,8,0:0:0:0:
145,239,11080,1,2,0:0:0:0:
34,329,11232,21,8,0:0:0:0:
77,207,11383,1,2,0:0:0:0:
222,243,11535,85,8,0:0:0:0:
415,216,11686,1,2,0:0:0:0:
184,173,11838,21,8,0:0:0:0:
396,322,11989,1,4,0:3:0:0:
349,354,12065,1,4,0:3:0:0:
293,362,12141,1,8,0:3:0:0:
236,319,12216,1,8,0:3:0:0:
222,243,12292,85,4,0:0:0:0:
298,269,12595,5,2,0:0:0:0:
115,333,12747,1,8,0:0:0:0:
34,329,13050,101,2,0:0:0:0:
236,319,13201,1,2,0:0:0:0:
415,216,13353,1,8,0:0:0:0:
25,150,13504,1,2,0:0:0:0:
228,143,13807,5,2,0:0:0:0:
58,81,13959,1,8,0:0:0:0:
251,24,14262,101,2,0:0:0:0:
50,9,14413,1,2,0:0:0:0:
95,175,14565,1,8,0:0:0:0:
34,329,14716,1,2,0:0:0:0:
298,269,15019,5,2,0:0:0:0:
115,333,15171,1,8,0:0:0:0:
78,262,15474,101,2,0:0:0:0:
192,251,15626,1,2,0:0:0:0:
377,335,15777,1,8,0:0:0:0:
474,47,15929,1,2,0:0:0:0:
412,92,16232,5,2,0:0:0:0:
232,116,16383,1,8,0:0:0:0:
142,37,16686,101,2,0:0:0:0:
335,77,16838,1,2,0:0:0:0:
377,335,16989,1,8,0:0:0:0:
115,333,17141,1,6,0:0:0:0:
47,367,17444,5,2,0:0:0:0:
192,342,17595,1,8,0:0:0:0:
296,196,17898,101,2,0:0:0:0:
211,192,18050,1,2,0:0:0:0:
371,234,18201,1,8,0:0:0:0:
456,230,18353,1,2,0:0:0:0:
486,307,18656,5,2,0:0:0:0:
493,156,18807,1,8,0:0:0:0:
456,230,18959,1,2,0:0:0:0:
422,81,19110,1,2,0:0:0:0:
485,33,19262,1,2,0:0:0:0:
345,53,19413,1,8,0:0:0:0:
128,78,19565,1,2,0:0:0:0:
31,33,19868,101,2,0:0:0:0:
232,43,20019,1,8,0:0:0:0:
289,103,20171,1,0,0:0:0:0:
128,78,20323,5,2,0:0:0:0:
116,153,20474,1,2,0:0:0:0:
158,225,20626,1,8,0:0:0:0:
156,304,20777,1,2,0:0:0:0:
195,153,21080,101,2,0:0:0:0:
208,362,21232,1,8,0:0:0:0:
266,130,21535,5,8,0:0:0:0:
231,286,21686,1,8,0:3:0:0:
231,286,21762,1,8,0:3:0:0:
231,286,21838,1,4,0:3:0:0:
371,358,21989,1,4,0:3:0:0:
371,358,22065,1,4,0:3:0:0:
371,358,22141,53,6,0:0:0:0:
400,289,22444,1,2,0:0:0:0:
383,219,22747,85,2,0:0:0:0:
455,169,22898,1,0,0:0:0:0:
319,183,23050,1,2,0:0:0:0:
439,101,23201,1,0,0:0:0:0:
246,183,23353,21,2,0:0:0:0:
187,225,23656,1,2,0:0:0:0:
114,233,23959,85,2,0:0:0:0:
254,261,24110,1,0,0:0:0:0:
51,201,24262,1,2,0:0:0:0:
32,359,24565,21,2,0:0:0:0:
104,339,24868,1,2,0:0:0:0:
158,294,25171,85,2,0:0:0:0:
21,136,25322,1,0,0:0:0:0:
187,225,25474,1,2,0:0:0:0:
91,142,25626,1,0,0:0:0:0:
182,152,25777,21,2,0:0:0:0:
211,85,26080,1,2,0:0:0:0:
273,41,26383,85,2,0:0:0:0:
322,93,26535,1,0,0:0:0:0:
345,27,26686,1,2,0:0:0:0:
336,168,26838,1,0,0:0:0:0:
203,13,26989,21,2,0:0:0:0:
131,16,27292,1,2,0:0:0:0:
64,41,27595,85,2,0:0:0:0:
211,85,27747,1,0,0:0:0:0:
17,97,27898,1,2,0:0:0:0:
182,152,28050,1,0,0:0:0:0:
118,188,28201,21,2,0:0:0:0:
480,231,28504,1,2,0:0:0:0:
510,356,28807,1,2,0:0:0:0:
407,209,29110,1,2,0:0:0:0:
482,92,29262,1,0,0:0:0:0:
459,159,29413,85,2,0:0:0:0:
409,107,29716,1,2,0:0:0:0:
337,91,30019,21,2,0:0:0:0:
198,145,30171,1,8,0:0:0:0:
262,101,30322,1,2,0:0:0:0:
336,225,30474,1,4,0:0:0:0:
263,214,30777,85,2,0:0:0:0:
164,211,30929,1,8,0:3:0:0:
162,285,31232,21,2,0:0:0:0:
291,282,31383,1,2,0:0:0:0:
395,345,31535,1,8,0:0:0:0:
470,242,31686,1,8,0:0:0:0:
470,242,31762,1,8,0:0:0:0:
470,242,31838,69,6,0:0:0:0:
412,184,32141,5,8,0:0:0:0:
292,355,32292,1,2,0:0:0:0:
137,368,32444,1,0,0:0:0:0:
214,361,32595,1,2,0:0:0:0:
58,374,32747,1,8,0:0:0:0:
122,233,32898,1,0,0:0:0:0:
298,80,33050,101,0,0:0:0:0:
181,55,33201,1,2,0:0:0:0:
60,32,33353,1,8,0:0:0:0:
97,73,33656,5,2,0:0:0:0:
108,149,33807,1,2,0:0:0:0:
199,248,33959,1,8,0:0:0:0:
171,324,34110,1,0,0:0:0:0:
336,126,34262,101,2,0:0:0:0:
408,111,34413,1,0,0:0:0:0:
480,99,34565,1,8,0:0:0:0:
305,11,34716,1,0,0:0:0:0:
296,85,34868,1,2,0:0:0:0:
286,158,35019,1,2,0:0:0:0:
451,154,35171,1,8,0:0:0:0:
469,226,35323,1,2,0:0:0:0:
364,350,35474,5,0,0:0:0:0:
315,206,35626,1,2,0:0:0:0:
258,46,35777,1,8,0:0:0:0:
376,293,36080,101,2,0:0:0:0:
243,284,36232,1,2,0:0:0:0:
188,265,36383,5,8,0:0:0:0:
386,237,36535,1,0,0:0:0:0:
364,350,36686,101,2,0:0:0:0:
295,304,36838,1,0,0:0:0:0:
136,244,36989,1,8,0:0:0:0:
162,358,37141,1,2,0:0:0:0:
80,355,37292,1,0,0:0:0:0:
72,187,37444,1,2,0:0:0:0:
151,159,37595,1,8,0:0:0:0:
170,42,37747,5,2,0:0:0:0:
22,27,37898,1,0,0:0:0:0:
22,27,38050,1,2,0:0:0:0:
117,92,38201,1,8,0:0:0:0:
117,92,38353,1,0,0:0:0:0:
72,187,38504,101,2,0:0:0:0:
151,159,38656,1,0,0:0:0:0:
80,355,38807,1,8,0:0:0:0:
162,358,38959,1,0,0:0:0:0:
14,322,39110,5,2,0:0:0:0:
143,301,39262,1,2,0:0:0:0:
368,377,39413,1,8,0:0:0:0:
219,371,39565,1,0,0:0:0:0:
174,253,39716,1,2,0:0:0:0:
452,285,39868,1,2,0:0:0:0:
316,352,40019,1,8,0:0:0:0:
500,364,40171,1,2,0:0:0:0:
452,285,40474,101,2,0:0:0:0:
253,293,40626,1,8,0:0:0:0:
253,293,40777,1,0,0:0:0:0:
174,253,40929,69,2,0:0:0:0:
275,223,41080,1,0,0:0:0:0:
342,286,41232,1,10,0:0:0:0:
316,352,41383,1,0,0:0:0:0:
368,377,41535,101,4,0:0:0:0:
337,186,41989,1,2,0:0:0:0:
410,179,42141,1,8,0:0:0:0:
472,144,42444,5,2,0:0:0:0:
413,106,42595,1,2,0:0:0:0:
340,97,42747,1,2,0:0:0:0:
210,113,42898,1,2,0:0:0:0:
272,74,43050,21,2,0:0:0:0:
272,74,43201,1,2,0:0:0:0:
142,58,43353,1,8,0:0:0:0:
50,159,43504,1,2,0:0:0:0:
109,206,43807,101,2,0:0:0:0:
42,232,43959,1,2,0:0:0:0:
263,223,44262,1,8,0:0:0:0:
1,291,44565,1,2,0:0:0:0:
134,269,44716,1,2,0:0:0:0:
123,338,45019,5,8,0:0:0:0:
406,312,45322,21,2,0:0:0:0:
293,289,45474,1,8,0:0:0:0:
192,313,45777,101,2,0:0:0:0:
192,313,45929,1,2,0:0:0:0:
348,235,46080,1,8,0:0:0:0:
204,243,46232,1,2,0:0:0:0:
241,177,46535,5,2,0:0:0:0:
304,128,46838,101,2,0:0:0:0:
424,219,46989,1,8,0:0:0:0:
503,227,47292,5,2,0:0:0:0:
386,100,47595,1,2,0:0:0:0:
386,100,47747,1,2,0:0:0:0:
228,98,47898,1,2,0:0:0:0:
267,56,48050,1,2,0:0:0:0:
112,184,48201,1,8,0:0:0:0:
123,103,48353,1,2,0:0:0:0:
95,342,48504,101,4,0:3:0:0:
57,295,48580,1,4,0:3:0:0:
102,259,48656,1,4,0:3:0:0:
149,295,48732,1,4,0:3:0:0:
206,309,48807,37,4,0:0:0:0:
206,309,49110,1,2,0:0:0:0:
206,309,49413,1,2,0:0:0:0:
206,309,49716,1,2,0:0:0:0:
206,309,50019,1,2,0:0:0:0:
206,309,50322,1,2,0:0:0:0:
206,309,50626,101,2,0:0:0:0:
373,292,50777,1,0,0:0:0:0:
373,292,50929,1,2,0:0:0:0:
373,292,51080,1,0,0:0:0:0:
414,222,51232,101,2,0:0:0:0:
414,222,51535,1,2,0:0:0:0:
414,222,51838,101,2,0:0:0:0:
176,235,51989,1,2,0:0:0:0:
103,199,52141,1,2,0:0:0:0:
24,205,52292,1,10,0:0:0:0:
485,92,53504,53,4,0:0:0:0:
133,31,53807,5,0,0:0:0:0:
419,49,53959,1,8,0:0:0:0:
65,78,54262,101,2,0:0:0:0:
217,42,54413,1,2,0:0:0:0:
418,124,54565,1,8,0:0:0:0:
275,86,54716,1,2,0:0:0:0:
455,189,55019,5,2,0:0:0:0:
206,113,55171,1,8,0:0:0:0:
485,259,55474,101,2,0:0:0:0:
224,300,55626,1,2,0:0:0:0:
308,319,55777,1,8,0:0:0:0:
45,154,55929,1,2,0:0:0:0:
44,361,56232,5,2,0:0:0:0:
282,241,56383,1,8,0:0:0:0:
26,288,56686,101,2,0:0:0:0:
225,182,56838,1,2,0:0:0:0:
410,250,56989,1,8,0:0:0:0:
150,155,57141,1,2,0:0:0:0:
166,230,57444,5,2,0:0:0:0:
5,209,57595,1,8,0:0:0:0:
87,203,57898,101,2,0:0:0:0:
349,199,58050,1,2,0:0:0:0:
430,330,58201,1,8,0:0:0:0:
374,45,58353,1,6,0:0:0:0:
330,113,58656,5,2,0:0:0:0:
11,129,58807,1,8,0:0:0:0:
449,17,59110,101,2,0:0:0:0:
13,339,59413,1,8,0:0:0:0:
498,207,59716,1,2,0:0:0:0:
25,55,60019,1,8,0:0:0:0:
87,13,60322,5,2,0:0:0:0:
145,66,60474,1,2,0:0:0:0:
374,45,60626,1,8,0:0:0:0:
167,135,60777,1,2,0:0:0:0:
231,337,60929,101,8,0:0:0:0:
155,213,61080,1,2,0:0:0:0:
216,80,61232,1,2,0:0:0:0:
322,297,61383,5,12,0:0:0:0:
281,158,61535,1,2,0:0:0:0:
415,312,61686,1,8,0:0:0:0:
429,129,61838,1,2,0:0:0:0:
482,370,61989,1,8,0:0:0:0:
500,284,62292,101,2,0:0:0:0:
491,19,62444,1,8,0:0:0:0:
415,312,62595,1,2,0:0:0:0:
342,62,62747,1,8,0:0:0:0:
264,51,62822,1,4,0:3:0:0:
186,38,62898,1,4,0:3:0:0:
110,23,62974,1,4,0:3:0:0:
37,10,63050,1,4,0:3:0:0:
214,112,63201,5,6,0:0:0:0:
280,159,63504,101,2,0:0:0:0:
11,219,63656,1,8,0:0:0:0:
368,171,63959,5,2,0:0:0:0:
57,158,64110,1,2,0:0:0:0:
69,82,64262,1,8,0:0:0:0:
447,142,64413,1,2,0:0:0:0:
489,71,64716,101,2,0:0:0:0:
37,10,64868,1,8,0:0:0:0:
99,371,65171,5,2,0:0:0:0:
68,300,65322,1,2,0:0:0:0:
432,229,65474,1,8,0:0:0:0:
89,227,65626,1,2,0:0:0:0:
57,158,65929,101,2,0:0:0:0:
467,299,66080,1,8,0:0:0:0:
457,375,66383,5,2,0:0:0:0:
396,327,66535,1,2,0:0:0:0:
315,318,66686,1,8,0:0:0:0:
19,359,66838,1,2,0:0:0:0:
68,300,67141,101,2,0:0:0:0:
246,354,67292,1,8,0:0:0:0:
89,227,67444,1,2,0:0:0:0:
362,254,67595,1,2,0:0:0:0:
391,87,67747,1,2,0:0:0:0:
393,171,67898,1,8,0:0:0:0:
87,155,68050,1,6,0:0:0:0:
59,86,68353,5,0,0:0:0:0:
348,11,68504,1,8,0:0:0:0:
12,142,68807,101,2,0:0:0:0:
254,104,68959,1,2,0:0:0:0:
478,63,69110,1,8,0:0:0:0:
19,359,69413,5,2,0:0:0:0:
422,17,69716,1,8,0:0:0:0:
119,316,70019,101,2,0:0:0:0:
494,135,70171,1,2,0:0:0:0:
32,259,70323,1,8,0:0:0:0:
476,206,70474,1,6,0:0:0:0:
480,278,70777,5,2,0:0:0:0:
6,168,70929,1,8,0:0:0:0:
269,303,71232,101,2,0:0:0:0:
504,345,71383,1,0,0:0:0:0:
32,259,71535,1,8,0:0:0:0:
27,78,71838,5,2,0:0:0:0:
291,147,72141,101,8,0:0:0:0:
102,189,72292,1,2,0:0:0:0:
467,106,72444,1,8,0:0:0:0:
512,20,72595,1,4,0:3:0:0:
454,10,72671,1,4,0:3:0:0:
398,36,72747,21,4,0:3:0:0:
417,252,72898,1,6,0:0:0:0:
333,222,73201,21,2,0:0:0:0:
218,315,73353,85,8,0:0:0:0:
493,229,73504,1,2,0:0:0:0:
189,172,73656,1,8,0:0:0:0:
455,184,73807,1,2,0:0:0:0:
58,129,73959,21,8,0:0:0:0:
342,67,74110,1,2,0:0:0:0:
423,107,74262,85,8,0:0:0:0:
63,188,74413,1,2,0:0:0:0:
35,238,74565,21,8,0:0:0:0:
437,279,74716,1,2,0:0:0:0:
423,107,74868,85,8,0:3:0:0:
328,132,74944,1,8,0:3:0:0:
240,153,75019,1,4,0:3:0:0:
152,170,75095,1,4,0:3:0:0:
63,188,75171,21,2,0:0:0:0:
390,199,75323,1,6,0:0:0:0:
21,30,75626,85,2,0:0:0:0:
334,44,75777,21,8,0:0:0:0:
66,102,75929,1,2,0:0:0:0:
328,132,76080,85,8,0:0:0:0:
120,120,76232,1,2,0:0:0:0:
339,223,76383,21,8,0:0:0:0:
37,331,76535,1,4,0:3:0:0:
37,331,76610,1,4,0:3:0:0:
37,331,76686,85,8,0:0:0:0:
184,316,76989,1,0,0:0:0:0:
322,318,77292,1,0,0:0:0:0:
417,286,77747,21,0,0:0:0:0:
108,296,78959,85,6,0:0:0:0:
214,269,79262,5,2,0:0:0:0:
397,333,79413,1,8,0:0:0:0:
478,329,79716,101,2,0:0:0:0:
276,319,79868,1,2,0:0:0:0:
97,216,80019,1,8,0:0:0:0:
487,150,80171,1,2,0:0:0:0:
284,143,80474,5,2,0:0:0:0:
454,81,80626,1,8,0:0:0:0:
261,24,80929,101,2,0:0:0:0:
462,9,81080,1,2,0:0:0:0:
417,175,81232,1,8,0:0:0:0:
478,329,81383,1,2,0:0:0:0:
214,269,81686,5,2,0:0:0:0:
397,333,81838,1,8,0:0:0:0:
434,262,82141,101,2,0:0:0:0:
320,251,82292,1,2,0:0:0:0:
135,335,82444,1,8,0:0:0:0:
38,47,82595,1,2,0:0:0:0:
100,92,82898,5,2,0:0:0:0:
280,116,83050,1,8,0:0:0:0:
370,37,83353,101,2,0:0:0:0:
177,77,83504,1,2,0:0:0:0:
135,335,83656,1,8,0:0:0:0:
397,333,83807,1,4,0:3:0:0:
397,333,83883,1,4,0:3:0:0:
397,333,83959,85,12,0:0:0:0:
35,263,84110,1,2,0:0:0:0:
112,248,84262,1,2,0:0:0:0:
57,186,84413,5,12,0:0:0:0:
494,232,84565,1,2,0:0:0:0:
366,199,84716,1,2,0:0:0:0:
486,0,84868,101,12,0:0:0:0:
38,115,85019,1,14,0:0:0:0:
