osu file format v14

[General]
AudioFilename: audio.mp3
AudioLeadIn: 500
PreviewTime: 52595
Countdown: 0
SampleSet: Soft
StackLeniency: 0.2
Mode: 0
LetterboxInBreaks: 0
EpilepsyWarning: 1
WidescreenStoryboard: 1

[Editor]
DistanceSpacing: 2.4
BeatDivisor: 4
GridSize: 32
TimelineZoom: 2.200001

[Metadata]
Title:Twintail Dreamer! (TV Size)
TitleUnicode:ツインテール・ドリーマー! (TV Size)
Artist:Twin-Tails
ArtistUnicode:ツインテイルズ
Creator:Moecho
Version:Delis' Twin-Bun Extra
Source:俺、ツインテールになります。
Tags:Twintails OreTwi Ore, Tsuinteru Tsuintēru ni Narimasu. Gonna be the Twin-Tail!! テイルレッド Tail Red 上坂すみれ Uesaka Sumire テイルブルー Blue 相坂優歌 Aisaka Yuuka テイルイエロー Yellow 赤﨑千夏 Akasaki Chinatsu Ending Theme ED TV Size edit Anime papiyon japanese pop j-pop jpop Kodora Laurier Natteke Kite HabiHolic Loneight L18 Lecana Giralda captin1 jonathanlfj apaffy kisata Nyquill RLC LunarSakuya Mythol meiikyuu Syameimaru-Aya Ayaya caren_sk CRN kiddly Axarious Delis ShirohaMyMommy SMM Koiyuki Minakami Yuki yf_bmp yf Skystar Amamiya Yuko rui rustbell spro sprosive Snow Note 7odoa bakabaka Hollow Wings HW
BeatmapID:2365935
BeatmapSetID:1115213

[Difficulty]
HPDrainRate:7
CircleSize:4
OverallDifficulty:8
ApproachRate:9
SliderMultiplier:1.8
SliderTickRate:1

[Events]
//Background and Video events
0,0,"bg.jpg",0,0
//Break Periods
//Storyboard Layer 0 (Background)
Sprite,Background,Centre,"sb\sprites\pixel-white.png",320,240 F,0,-60,,0,1 C,0,-60,,0,0,0 V,0,-60,,880,480 F,0,89619,,1,0
Sprite,Background,Centre,"bg.jpg",320,240 F,0,-2559,-1559,0,0.75 S,0,-1559,,0.4444444 F,0,337,487,0.75,0
Sprite,Background,Centre,"bg.jpg",320,240 F,0,88125,89125,0,0.75 S,0,89125,,0.4444444 F,0,89784,89934,0.75,0
Sprite,Background,Centre,"sb\sprites\bg-alt.jpg",320,240 F,0,187,337,0,0.75 S,0,337,,0.4444444 F,0,21156,22306,0.75,0
Sprite,Background,Centre,"sb\sprites\bg-alt.jpg",320,240 F,0,53369,53519,0,0.75 S,0,53519,,0.4444444 F,0,88125,89275,0.75,0
Sprite,Background,Centre,"sb\sprites\bg-alt-bw.jpg",320,240 F,0,22006,22306,0,0.75 S,0,22156,,0.4444444 F,0,39686,40486,0.75,0
Sprite,Background,Centre,"sb\sprites\bg-alt-bw.jpg",320,240 F,0,50491,50791,0,0.75 S,0,50641,,0.4444444 F,0,51807,52607,0.75,0
Sprite,Background,Centre,"sb\sprites\tail-red-ci.jpg",320,240 F,0,40794,41094,0,0.75 S,0,40944,,0.4444444 F,0,48822,50322,0.75,0
Sprite,Background,Centre,"sb\sprites\tail-blue-ci.jpg",320,240 F,0,42915,43215,0,0.75 S,0,43065,,0.4444444 F,0,48822,50322,0.75,0
Sprite,Background,Centre,"sb\sprites\tail-yellow-ci.jpg",320,240 F,0,45339,45639,0,0.75 S,0,45489,,0.4444444 F,0,48822,50322,0.75,0
Sprite,Background,Centre,"sb\sprites\pixel-white.png",320,240 V,0,2610,,854,480 F,0,2610,3210,0.15,0
Sprite,Background,Centre,"sb\sprites\pixel-white.png",320,240 V,0,3822,,854,480 F,0,3822,4422,0.15,0
Sprite,Background,Centre,"sb\sprites\pixel-white.png",320,240 V,0,5034,,854,480 F,0,5034,5634,0.15,0
Sprite,Background,Centre,"sb\sprites\pixel-white.png",320,240 V,0,5792,,854,480 F,0,5792,6392,0.15,0
Sprite,Background,Centre,"sb\sprites\pixel-white.png",320,240 V,0,6247,,854,480 F,0,6247,6847,0.15,0
Sprite,Background,Centre,"sb\sprites\pixel-white.png",320,240 V,0,7459,,854,480 F,0,7459,8059,0.15,0
Sprite,Background,Centre,"sb\sprites\pixel-white.png",320,240 V,0,9883,,854,480 F,0,9883,10483,0.15,0
Sprite,Background,Centre,"sb\sprites\pixel-white.png",320,240 V,0,12307,,854,480 F,0,12307,12907,0.15,0
Sprite,Background,Centre,"sb\sprites\pixel-white.png",320,240 V,0,14731,,854,480 F,0,14731,15331,0.15,0
Sprite,Background,Centre,"sb\sprites\pixel-white.png",320,240 V,0,17156,,854,480 F,0,17156,17756,0.15,0
Sprite,Background,Centre,"sb\sprites\pixel-white.png",320,240 V,0,22156,,854,480 F,0,22156,22756,0.15,0
Sprite,Background,Centre,"sb\sprites\pixel-white.png",320,240 V,0,24580,,854,480 F,0,24580,25180,0.15,0
Sprite,Background,Centre,"sb\sprites\pixel-white.png",320,240 V,0,27004,,854,480 F,0,27004,27604,0.15,0
Sprite,Background,Centre,"sb\sprites\pixel-white.png",320,240 V,0,29428,,854,480 F,0,29428,30028,0.15,0
Sprite,Background,Centre,"sb\sprites\pixel-white.png",320,240 V,0,30489,,854,480 F,0,30489,31089,0.15,0
Sprite,Background,Centre,"sb\sprites\pixel-white.png",320,240 V,0,31853,,854,480 F,0,31853,32453,0.15,0
Sprite,Background,Centre,"sb\sprites\pixel-white.png",320,240 V,0,41550,,854,480 F,0,41550,42150,0.15,0
Sprite,Background,Centre,"sb\sprites\pixel-white.png",320,240 V,0,46247,,854,480 F,0,46247,46847,0.15,0
Sprite,Background,Centre,"sb\sprites\pixel-white.png",320,240 V,0,48822,,854,480 F,0,48822,49422,0.15,0
Sprite,Background,Centre,"sb\sprites\pixel-white.png",320,240 V,0,53519,,854,480 F,0,53519,54119,0.15,0
Sprite,Background,Centre,"sb\sprites\pixel-white.png",320,240 V,0,58368,,854,480 F,0,58368,58968,0.15,0
Sprite,Background,Centre,"sb\sprites\pixel-white.png",320,240 V,0,60944,,854,480 F,0,60944,61544,0.15,0
Sprite,Background,Centre,"sb\sprites\pixel-white.png",320,240 V,0,61398,,854,480 F,0,61398,61998,0.15,0
Sprite,Background,Centre,"sb\sprites\pixel-white.png",320,240 V,0,61701,,854,480 F,0,61701,62301,0.15,0
Sprite,Background,Centre,"sb\sprites\pixel-white.png",320,240 V,0,62004,,854,480 F,0,62004,62604,0.15,0
Sprite,Background,Centre,"sb\sprites\pixel-white.png",320,240 V,0,63216,,854,480 F,0,63216,63816,0.15,0
Sprite,Background,Centre,"sb\sprites\pixel-white.png",320,240 V,0,68065,,854,480 F,0,68065,68665,0.15,0
Sprite,Background,Centre,"sb\sprites\pixel-white.png",320,240 V,0,72913,,854,480 F,0,72913,73513,0.15,0
Sprite,Background,Centre,"sb\sprites\pixel-white.png",320,240 V,0,75338,,854,480 F,0,75338,75938,0.15,0
Sprite,Background,Centre,"sb\sprites\pixel-white.png",320,240 V,0,76701,,854,480 F,0,76701,77301,0.15,0
Sprite,Background,Centre,"sb\sprites\pixel-white.png",320,240 V,0,78974,,854,480 F,0,78974,79574,0.15,0
Sprite,Background,Centre,"sb\sprites\pixel-white.png",320,240 V,0,81398,,854,480 F,0,81398,81998,0.15,0
Sprite,Background,Centre,"sb\sprites\pixel-white.png",320,240 V,0,83974,,854,480 F,0,83974,84574,0.15,0
Sprite,Background,Centre,"sb\sprites\pixel-white.png",320,240 V,0,85034,,854,480 F,0,85034,85634,0.15,0
//Storyboard Layer 1 (Fail)
//Storyboard Layer 2 (Pass)
//Storyboard Layer 3 (Foreground)
Sprite,Foreground,Centre,"sb\lyrics\0044.png",0,0 F,0,12207,12407,0,0.8 M,0,12307,,688,394.25 S,0,12307,,0.5 C,0,12307,,255,255,255 F,0,86904,87104,0.8,0
Sprite,Foreground,Centre,"sb\lyrics\0065.png",0,0 F,0,12207,12407,0,0.8 M,0,12307,,698.75,396.75 S,0,12307,,0.5 C,0,12307,,255,255,255 F,0,86904,87104,0.8,0
Sprite,Foreground,Centre,"sb\lyrics\006c.png",0,0 F,0,12207,12407,0,0.8 M,0,12307,,710,394 S,0,12307,,0.5 C,0,12307,,255,255,255 F,0,86904,87104,0.8,0
Sprite,Foreground,Centre,"sb\lyrics\0069.png",0,0 F,0,12207,12407,0,0.8 M,0,12307,,720.75,394 S,0,12307,,0.5 C,0,12307,,255,255,255 F,0,86904,87104,0.8,0
Sprite,Foreground,Centre,"sb\lyrics\0073.png",0,0 F,0,12207,12407,0,0.8 M,0,12307,,732,396.5 S,0,12307,,0.5 C,0,12307,,255,255,255 F,0,86904,87104,0.8,0
Sprite,Foreground,Centre,"sb\lyrics\0044.png",0,0 F,0,12207,12407,0,0.8 M,0,12307,,580,434.475 S,0,12307,,0.35 C,0,12307,,255,255,255 F,0,86904,87104,0.8,0
Sprite,Foreground,Centre,"sb\lyrics\0065.png",0,0 F,0,12207,12407,0,0.8 M,0,12307,,587.525,436.225 S,0,12307,,0.35 C,0,12307,,255,255,255 F,0,86904,87104,0.8,0
Sprite,Foreground,Centre,"sb\lyrics\006c.png",0,0 F,0,12207,12407,0,0.8 M,0,12307,,595.4,434.3 S,0,12307,,0.35 C,0,12307,,255,255,255 F,0,86904,87104,0.8,0
Sprite,Foreground,Centre,"sb\lyrics\0069.png",0,0 F,0,12207,12407,0,0.8 M,0,12307,,602.925,434.3 S,0,12307,,0.35 C,0,12307,,255,255,255 F,0,86904,87104,0.8,0
Sprite,Foreground,Centre,"sb\lyrics\0073.png",0,0 F,0,12207,12407,0,0.8 M,0,12307,,610.8,436.05 S,0,12307,,0.35 C,0,12307,,255,255,255 F,0,86904,87104,0.8,0
Sprite,Foreground,Centre,"sb\lyrics\0027.png",0,0 F,0,12207,12407,0,0.8 M,0,12307,,616.9251,430.625 S,0,12307,,0.35 C,0,12307,,255,255,255 F,0,86904,87104,0.8,0
Sprite,Foreground,Centre,"sb\lyrics\0054.png",0,0 F,0,12207,12407,0,0.8 M,0,12307,,633.9001,434.475 S,0,12307,,0.35 C,0,12307,,255,255,255 F,0,86904,87104,0.8,0
Sprite,Foreground,Centre,"sb\lyrics\0077.png",0,0 F,0,12207,12407,0,0.8 M,0,12307,,641.4251,435.875 S,0,12307,,0.35 C,0,12307,,255,255,255 F,0,86904,87104,0.8,0
Sprite,Foreground,Centre,"sb\lyrics\0069.png",0,0 F,0,12207,12407,0,0.8 M,0,12307,,649.1251,434.3 S,0,12307,,0.35 C,0,12307,,255,255,255 F,0,86904,87104,0.8,0
Sprite,Foreground,Centre,"sb\lyrics\006e.png",0,0 F,0,12207,12407,0,0.8 M,0,12307,,657.1752,435.7 S,0,12307,,0.35 C,0,12307,,255,255,255 F,0,86904,87104,0.8,0
Sprite,Foreground,Centre,"sb\lyrics\002d.png",0,0 F,0,12207,12407,0,0.8 M,0,12307,,664.7001,434.65 S,0,12307,,0.35 C,0,12307,,255,255,255 F,0,86904,87104,0.8,0
Sprite,Foreground,Centre,"sb\lyrics\0042.png",0,0 F,0,12207,12407,0,0.8 M,0,12307,,672.5752,434.475 S,0,12307,,0.35 C,0,12307,,255,255,255 F,0,86904,87104,0.8,0
Sprite,Foreground,Centre,"sb\lyrics\0075.png",0,0 F,0,12207,12407,0,0.8 M,0,12307,,680.1002,435.7 S,0,12307,,0.35 C,0,12307,,255,255,255 F,0,86904,87104,0.8,0
Sprite,Foreground,Centre,"sb\lyrics\006e.png",0,0 F,0,12207,12407,0,0.8 M,0,12307,,687.9752,435.7 S,0,12307,,0.35 C,0,12307,,255,255,255 F,0,86904,87104,0.8,0
Sprite,Foreground,Centre,"sb\lyrics\0045.png",0,0 F,0,12207,12407,0,0.8 M,0,12307,,703.3752,434.475 S,0,12307,,0.35 C,0,12307,,255,255,255 F,0,86904,87104,0.8,0
Sprite,Foreground,Centre,"sb\lyrics\0078.png",0,0 F,0,12207,12407,0,0.8 M,0,12307,,710.9002,435.875 S,0,12307,,0.35 C,0,12307,,255,255,255 F,0,86904,87104,0.8,0
Sprite,Foreground,Centre,"sb\lyrics\0074.png",0,0 F,0,12207,12407,0,0.8 M,0,12307,,718.4252,434.65 S,0,12307,,0.35 C,0,12307,,255,255,255 F,0,86904,87104,0.8,0
Sprite,Foreground,Centre,"sb\lyrics\0072.png",0,0 F,0,12207,12407,0,0.8 M,0,12307,,726.3002,435.7 S,0,12307,,0.35 C,0,12307,,255,255,255 F,0,86904,87104,0.8,0
Sprite,Foreground,Centre,"sb\lyrics\0061.png",0,0 F,0,12207,12407,0,0.8 M,0,12307,,734.1753,435.875 S,0,12307,,0.35 C,0,12307,,255,255,255 F,0,86904,87104,0.8,0
//Storyboard Layer 4 (Overlay)
//Storyboard Sound Samples

[TimingPoints]
323,303.030303030303,4,2,50,50,1,0
323,-100,4,2,50,50,0,0
1838,-100,4,2,50,75,0,0
1913,-100,4,2,50,37,0,0
1989,-100,4,2,50,75,0,0
2595,-125,4,2,50,60,0,0
6459,-125,4,2,50,30,0,0
6535,-125,4,2,50,60,0,0
6686,-125,4,2,50,65,0,0
7444,-100,4,2,50,70,0,0
10095,-100,4,2,50,35,0,0
10171,-100,4,2,50,70,0,0
12292,-100,4,2,50,75,0,0
16156,-100,4,2,50,37,0,0
16232,-100,4,2,50,75,0,0
21989,-83.3333333333333,4,2,50,75,0,0
22065,-83.3333333333333,4,2,50,37,0,0
22141,-83.3333333333333,4,2,50,50,0,0
28504,-125,4,2,50,50,0,0
30474,-125,4,2,50,55,0,0
31686,-100,4,2,50,55,0,0
31838,-100,4,2,50,60,0,0
40929,-100,4,2,50,55,0,0
46232,-125,4,2,50,55,0,0
48201,-100,4,2,50,55,0,0
48277,-100,4,2,50,27,0,0
48353,-100,4,2,50,55,0,0
48429,-100,4,2,50,27,0,0
48504,-100,4,2,50,55,0,0
48807,-100,4,2,50,60,0,0
50626,-100,4,2,50,40,0,0
50701,-100,4,2,50,20,0,0
50777,-100,4,2,50,40,0,0
50853,-100,4,2,50,20,0,0
50929,-100,4,2,50,40,0,0
51004,-100,4,2,50,20,0,0
51080,-100,4,2,50,40,0,0
51156,-100,4,2,50,20,0,0
51232,-100,4,2,50,65,0,0
53353,-100,4,2,50,5,0,0
53504,-100,4,2,50,75,0,0
55398,-100,4,2,50,37,0,0
55474,-100,4,2,50,75,0,0
60550,-100,4,2,50,37,0,0
60626,-100,4,2,50,75,0,0
60853,-100,4,2,50,37,0,0
60929,-83.3333333333333,4,2,50,75,0,0
61004,-83.3333333333333,4,2,50,37,0,0
61080,-83.3333333333333,4,2,50,75,0,0
61307,-83.3333333333333,4,2,50,37,0,0
61383,-83.3333333333333,4,2,50,75,0,0
62747,-100,4,2,50,75,0,0
72898,-100,4,2,50,70,0,0
76686,-200,4,2,50,70,0,0
76989,-200,4,2,50,35,0,0
78353,-200,4,2,50,5,0,0
78504,-125,4,2,50,65,0,0
78807,-125,4,2,50,32,0,0
78959,-100,4,2,50,75,0,0
83959,-100,4,2,50,80,0,0
86585,-100,4,2,50,40,0,0

[Colours]
Combo1 : 192,192,192
Combo2 : 255,50,50
Combo3 : 255,125,125
Combo4 : 25,100,255
Combo5 : 50,150,255
Combo6 : 255,255,50
Combo7 : 255,255,150
Combo8 : 128,128,128

[HitObjects]
196,144,323,101,2,0:0:0:0:
120,196,474,1,0,0:0:0:0:
164,76,626,1,0,0:0:0:0:
56,88,777,1,0,0:0:0:0:
248,184,1232,5,2,0:0:0:0:
176,248,1383,1,0,0:0:0:0:
208,112,1535,1,0,0:0:0:0:
104,108,1686,1,0,0:0:0:0:
264,236,1838,70,0,P|292:228|312:204,1,45,10|0,0:0|0:0,0:0:0:0:
400,148,1989,1,0,1:0:0:0:
404,104,2065,1,0,1:0:0:0:
388,64,2141,1,10,0:0:0:0:
320,312,2292,1,10,0:0:0:0:
316,316,2595,54,0,B|292:232|204:208|204:208|144:240,1,216,6|2,1:2|0:0,0:0:0:0:
152,240,3353,1,2,0:0:0:0:
344,332,3504,1,2,0:0:0:0:
48,160,3807,6,0,P|16:264|96:360,1,216,6|2,1:2|0:0,0:0:0:0:
220,172,4565,1,2,0:0:0:0:
76,340,4716,1,2,0:0:0:0:
392,328,5019,102,0,B|444:268|408:188|408:188|440:100,1,216,6|2,1:2|0:0,0:0:0:0:
248,336,5777,6,0,P|264:264|244:192,1,144,6|0,1:2|0:0,0:0:0:0:
56,324,6232,102,0,L|32:192,1,108,6|0,1:2|0:0,0:0:0:0:
37,218,6535,1,0,1:0:0:0:
228,96,6686,1,10,0:0:0:0:
116,92,6838,5,8,0:0:0:0:
116,92,6913,1,8,0:0:0:0:
116,92,6989,1,10,0:0:0:0:
296,176,7141,1,8,0:0:0:0:
120,284,7292,1,10,0:0:0:0:
336,308,7444,6,0,B|428:332|468:256|468:256|436:284,1,180,6|0,1:2|0:0,0:0:0:0:
248,348,7898,1,8,0:0:0:0:
320,216,8050,1,0,1:0:0:0:
164,164,8201,1,8,0:0:0:0:
248,260,8353,1,0,1:0:0:0:
128,284,8504,1,10,0:0:0:0:
256,168,8656,1,0,1:0:0:0:
76,112,8807,22,0,P|64:160|52:208,1,90,10|0,0:0|0:0,0:0:0:0:
184,288,9110,2,0,P|200:232|212:188,1,90,10|0,0:0|0:0,0:0:0:0:
176,76,9413,2,0,B|252:80|296:36|296:36|344:56,1,180,10|8,1:2|0:0,0:0:0:0:
464,292,9868,86,0,P|472:232|432:168,1,135,6|0,1:2|0:0,0:0:0:0:
412,160,10171,1,0,1:0:0:0:
340,340,10322,1,8,0:0:0:0:
240,216,10474,1,0,1:0:0:0:
312,264,10626,2,0,P|356:264|428:260,1,90,8|0,0:0|0:0,0:0:0:0:
460,128,10929,2,0,P|416:128|344:132,1,90,8|0,0:0|0:0,0:0:0:0:
208,168,11232,21,8,0:0:0:0:
256,52,11383,1,0,1:0:0:0:
144,120,11535,1,8,0:0:0:0:
204,248,11686,1,0,1:0:0:0:
80,68,11838,85,8,0:0:0:0:
100,220,11989,1,8,0:0:0:0:
100,220,12065,1,8,0:0:0:0:
100,220,12141,1,8,0:0:0:0:
248,124,12292,2,0,P|340:136|412:80,1,180,6|0,1:2|0:0,0:0:0:0:
400,200,12747,2,0,P|384:244|372:304,1,90,10|0,0:0|0:0,0:0:0:0:
276,312,13050,2,0,P|264:248|264:204,1,90,2|0,1:2|0:0,0:0:0:0:
168,288,13353,1,10,0:0:0:0:
112,208,13504,2,0,B|92:140|128:72|128:72|96:96,1,180,2|0,1:2|0:0,0:0:0:0:
228,132,13959,6,0,P|276:128|340:108,1,90,10|2,0:0|0:0,0:0:0:0:
336,104,14186,1,2,0:0:0:0:
352,88,14262,1,2,1:2:0:0:
328,220,14413,1,2,1:2:0:0:
460,180,14565,1,10,0:0:0:0:
384,332,14716,102,0,P|296:320|216:372,1,180,6|2,1:2|0:0,0:0:0:0:
164,288,15171,2,0,L|116:192,1,90,10|0,0:0|0:0,0:0:0:0:
64,288,15474,1,2,1:2:0:0:
112,128,15626,1,0,1:0:0:0:
16,220,15777,1,10,0:0:0:0:
224,176,15929,6,0,P|312:160|368:164,1,135,2|0,1:2|0:0,0:0:0:0:
392,168,16232,1,2,1:2:0:0:
460,240,16383,1,10,0:0:0:0:
368,272,16535,1,0,1:0:0:0:
432,80,16686,1,2,0:0:0:0:
432,80,16762,1,2,0:0:0:0:
432,80,16838,1,2,0:0:0:0:
344,192,16989,1,10,0:0:0:0:
240,32,17141,102,0,B|192:80|212:144|212:144|252:148|272:192,1,180,6|0,1:2|0:0,0:0:0:0:
208,264,17595,2,0,P|168:288|104:304,1,90,8|0,0:0|0:0,0:0:0:0:
80,116,17898,1,2,0:0:0:0:
88,136,17974,1,2,0:0:0:0:
96,156,18050,1,2,0:0:0:0:
48,36,18201,1,10,0:0:0:0:
184,120,18353,6,0,P|248:168|352:144,1,180,2|2,1:2|0:0,0:0:0:0:
448,72,18807,1,10,0:0:0:0:
368,168,18959,1,0,0:0:0:0:
496,216,19110,1,2,1:2:0:0:
360,136,19262,1,2,1:2:0:0:
404,300,19413,1,10,0:0:0:0:
352,108,19565,1,2,0:0:0:0:
196,224,19716,102,0,P|200:284|216:328,1,90,0|0,1:0|0:0,0:0:0:0:
280,256,20019,1,10,0:0:0:0:
120,288,20171,1,0,0:0:0:0:
280,256,20322,2,0,P|276:196|260:152,1,90,2|0,1:2|0:0,0:0:0:0:
228,40,20626,1,10,0:0:0:0:
112,96,20777,2,0,P|116:156|132:200,1,90,2|0,1:2|0:0,0:0:0:0:
352,152,21080,5,2,1:2:0:0:
276,176,21232,1,10,0:0:0:0:
344,32,21383,1,2,1:2:0:0:
272,88,21535,101,10,0:0:0:0:
320,240,21686,1,8,0:0:0:0:
332,276,21762,1,8,0:0:0:0:
344,312,21838,1,10,0:0:0:0:
172,244,21989,2,0,L|232:228,1,53.9999983520508,8|2,0:0|0:0,0:0:0:0:
440,176,22141,69,4,1:0:0:0:
440,176,22444,1,0,1:0:0:0:
440,176,22747,1,0,1:0:0:0:
440,176,23050,1,0,1:0:0:0:
440,176,23353,1,0,1:0:0:0:
440,176,23656,1,0,1:0:0:0:
440,176,23959,1,2,1:2:0:0:
440,176,24262,1,2,1:2:0:0:
72,208,24565,85,4,1:0:0:0:
72,208,24868,1,0,1:0:0:0:
72,208,25171,1,0,1:0:0:0:
72,208,25474,1,0,1:0:0:0:
72,208,25777,1,0,1:0:0:0:
72,208,26080,1,0,1:0:0:0:
72,208,26383,1,2,1:2:0:0:
72,208,26686,1,2,1:2:0:0:
300,184,26989,21,4,1:0:0:0:
216,256,27141,1,0,0:0:0:0:
220,144,27292,1,0,1:0:0:0:
300,284,27444,1,0,0:0:0:0:
224,148,27595,1,0,1:0:0:0:
416,268,27898,1,0,1:0:0:0:
120,328,28201,1,0,1:0:0:0:
228,48,28504,2,0,P|288:24|364:40,2,144,2|2|2,1:2|1:2|1:2,0:0:0:0:
148,264,29413,86,0,P|196:260|232:236,1,72,4|0,1:0|0:0,0:0:0:0:
272,180,29716,1,0,1:0:0:0:
148,264,29868,2,0,P|108:232|64:224,1,72,2|0,0:0|1:0,0:0:0:0:
248,344,30171,2,0,P|272:316|280:268,1,72,10|0,0:0|1:0,0:0:0:0:
148,160,30474,21,4,1:0:0:0:
404,236,30777,1,0,1:0:0:0:
404,236,30929,1,8,0:0:0:0:
432,316,31080,85,0,1:0:0:0:
324,200,31232,1,2,1:2:0:0:
440,160,31383,1,0,1:0:0:0:
336,304,31535,1,10,0:0:0:0:
252,140,31686,101,8,0:0:0:0:
220,156,31762,1,8,0:0:0:0:
188,172,31838,1,14,0:0:0:0:
124,120,31989,1,0,0:0:0:0:
112,196,32141,1,10,0:0:0:0:
40,148,32292,5,2,1:2:0:0:
76,276,32444,1,0,0:0:0:0:
188,172,32595,1,2,1:2:0:0:
224,296,32747,1,0,0:0:0:0:
336,196,32898,2,0,P|388:200|428:228,1,90,2|0,1:2|0:0,0:0:0:0:
480,288,33201,101,0,1:0:0:0:
436,136,33353,1,8,0:0:0:0:
364,312,33504,1,0,1:0:0:0:
336,196,33656,1,2,0:0:0:0:
448,216,33807,1,0,1:0:0:0:
280,284,33959,1,10,0:0:0:0:
216,120,34110,1,0,0:0:0:0:
132,208,34262,6,0,P|180:216|224:248,1,90,2|0,1:2|0:0,0:0:0:0:
296,364,34565,1,10,0:0:0:0:
212,316,34716,1,2,1:2:0:0:
332,276,34868,1,0,0:0:0:0:
214,238,35019,1,2,1:2:0:0:
176,380,35171,1,8,0:0:0:0:
356,332,35322,2,0,P|376:308|348:160,1,180,2|0,1:2|0:0,0:0:0:0:
308,100,35777,2,0,P|272:140|240:164,1,90,8|0,0:0|0:0,0:0:0:0:
68,56,36080,101,2,1:2:0:0:
168,100,36232,1,0,0:0:0:0:
60,204,36383,1,10,0:0:0:0:
160,344,36535,1,0,0:0:0:0:
288,264,36686,2,0,P|352:260|408:256,1,90,2|2,1:2|0:0,0:0:0:0:
412,252,36913,1,2,0:0:0:0:
448,244,36989,1,10,0:0:0:0:
228,144,37141,6,0,P|180:168|156:200,1,90,2|0,1:2|0:0,0:0:0:0:
128,376,37444,2,0,P|176:352|200:320,1,90,2|8,1:2|0:0,0:0:0:0:
72,96,37747,2,0,P|32:176|52:280,1,180,2|0,1:2|0:0,0:0:0:0:
198,324,38201,1,10,0:0:0:0:
212,216,38353,1,0,1:0:0:0:
128,128,38504,101,2,0:0:0:0:
116,264,38656,1,0,1:0:0:0:
292,280,38807,1,10,0:0:0:0:
212,216,38959,1,0,0:0:0:0:
116,264,39110,6,0,P|68:268|8:280,1,90,2|0,1:2|0:0,0:0:0:0:
56,176,39413,1,8,0:0:0:0:
232,144,39565,2,0,P|288:136|344:124,1,90,2|0,1:2|0:0,0:0:0:0:
292,336,39868,2,0,P|264:304|220:260,1,90,2|8,1:2|0:0,0:0:0:0:
408,196,40171,101,2,1:2:0:0:
448,292,40322,1,0,0:0:0:0:
344,276,40474,1,0,1:0:0:0:
456,112,40626,1,8,0:0:0:0:
484,224,40777,1,0,0:0:0:0:
368,188,40929,1,10,1:2:0:0:
496,36,41080,69,0,1:0:0:0:
512,156,41232,1,10,0:0:0:0:
404,108,41383,1,0,1:0:0:0:
328,60,41535,102,0,P|244:72|144:100,1,180,6|2,1:2|0:0,0:0:0:0:
88,152,41989,1,0,1:0:0:0:
296,228,42141,1,10,0:0:0:0:
296,228,42292,1,2,1:2:0:0:
216,272,42444,1,0,0:0:0:0:
168,192,42595,1,2,1:2:0:0:
228,304,42747,1,0,0:0:0:0:
120,348,42898,1,0,1:0:0:0:
224,132,43050,38,0,P|272:140|320:144,1,90,2|0,1:2|0:0,0:0:0:0:
276,56,43353,1,8,0:0:0:0:
140,120,43504,1,0,1:0:0:0:
252,216,43656,1,2,1:2:0:0:
313,144,43807,1,0,1:0:0:0:
168,208,43959,102,0,L|140:328,1,90,2|0,1:2|0:0,0:0:0:0:
96,160,44262,2,0,L|8:212,1,90,10|0,0:0|0:0,0:0:0:0:
104,70,44565,1,2,1:2:0:0:
15,56,44716,2,0,L|115:72,1,90,2|0,1:2|0:0,0:0:0:0:
256,144,45019,6,0,P|352:152|440:100,1,180,10|2,1:2|0:0,0:0:0:0:
425,115,45398,1,2,0:0:0:0:
425,115,45474,1,10,1:2:0:0:
360,236,45626,1,0,1:0:0:0:
276,236,45777,21,2,1:2:0:0:
432,196,45929,1,2,1:2:0:0:
392,356,46080,1,8,0:0:0:0:
316,320,46232,102,0,P|260:316|188:380,1,144,6|0,1:2|1:0,0:0:0:0:
144,288,46686,2,0,L|64:316,1,72,2|0,0:0|0:0,0:0:0:0:
136,196,46989,2,0,L|160:120,1,72,10|0,0:0|0:0,0:0:0:0:
280,200,47292,2,0,L|188:236,1,72,2|0,1:2|0:0,0:0:0:0:
280,116,47595,2,0,L|312:28,1,72,2|0,1:2|0:0,0:0:0:0:
172,252,47898,2,0,L|140:332,1,72,2|0,1:2|0:0,0:0:0:0:
264,324,48201,6,0,L|244:272,1,45,2|0,1:2|0:0,0:0:0:0:
248,60,48353,2,0,L|268:112,1,45,0|0,1:0|0:0,0:0:0:0:
256,192,48504,21,10,0:0:0:0:
256,192,48580,1,8,0:0:0:0:
256,192,48656,1,8,0:0:0:0:
256,192,48732,1,8,0:0:0:0:
256,192,48807,1,6,1:2:0:0:
180,228,48959,1,2,0:0:0:0:
160,128,49110,1,0,1:0:0:0:
300,200,49262,1,2,0:0:0:0:
200,312,49413,1,0,1:0:0:0:
256,192,49565,2,0,L|228:88,1,90,2|0,0:0|1:0,0:0:0:0:
292,320,49868,101,2,0:0:0:0:
372,248,50019,1,0,1:0:0:0:
404,344,50171,1,2,0:0:0:0:
436,180,50322,1,0,1:0:0:0:
332,256,50474,1,2,0:0:0:0:
460,288,50626,6,0,L|512:268,1,45,2|0,1:2|0:0,0:0:0:0:
500,252,50777,102,0,L|438:277,1,45,2|0,0:0|0:0,0:0:0:0:
340,332,50929,6,0,L|288:352,1,45,2|0,1:2|0:0,0:0:0:0:
292,332,51080,102,0,L|354:307,1,45,2|0,0:0|0:0,0:0:0:0:
360,176,51232,101,2,1:2:0:0:
272,240,51383,1,0,0:0:0:0:
208,104,51535,1,2,1:2:0:0:
392,64,51686,1,0,0:0:0:0:
284,288,51838,1,2,1:2:0:0:
236,32,51989,1,10,0:0:0:0:
88,224,52141,1,0,1:0:0:0:
424,160,52292,1,10,0:0:0:0:
256,192,52444,12,0,53353,0:0:0:0:
136,300,53504,38,0,L|104:108,1,180,6|0,1:2|0:0,0:0:0:0:
248,248,53959,2,0,L|232:116,1,90,10|0,0:0|0:0,0:0:0:0:
356,328,54262,1,2,1:2:0:0:
392,236,54413,1,2,0:0:0:0:
400,216,54489,1,2,0:0:0:0:
408,196,54565,1,8,0:0:0:0:
280,232,54716,1,2,1:2:0:0:
460,120,54868,2,0,P|480:164|484:216,1,90,0|0,1:0|0:0,0:0:0:0:
316,128,55171,6,0,P|256:92|176:96,1,135,10|0,0:0|0:0,0:0:0:0:
160,116,55474,1,2,1:2:0:0:
72,220,55626,1,2,1:2:0:0:
200,264,55777,1,8,0:0:0:0:
276,336,55929,102,0,B|332:348|372:320|372:320|420:320|456:360,1,180,2|0,1:2|0:0,0:0:0:0:
400,188,56383,2,0,P|356:208|296:208,1,90,10|0,0:0|0:0,0:0:0:0:
184,64,56686,1,2,1:2:0:0:
204,208,56838,1,2,1:2:0:0:
88,152,56989,1,8,0:0:0:0:
276,124,57141,2,0,L|392:108,1,90,2|0,1:2|0:0,0:0:0:0:
176,136,57444,1,0,1:0:0:0:
100,292,57595,5,10,0:0:0:0:
144,280,57671,1,8,0:0:0:0:
188,284,57747,1,8,0:0:0:0:
228,304,57822,1,8,0:0:0:0:
260,336,57898,1,10,0:0:0:0:
420,260,58050,2,0,P|384:284|328:284,1,90,2|0,1:2|0:0,0:0:0:0:
148,152,58353,102,0,P|256:100|324:116,1,180,6|0,1:2|0:0,0:0:0:0:
420,260,58807,1,10,0:0:0:0:
288,188,58959,1,0,0:0:0:0:
404,88,59110,1,2,1:2:0:0:
340,256,59262,1,0,0:0:0:0:
160,208,59413,1,10,0:0:0:0:
220,44,59565,1,0,0:0:0:0:
244,284,59716,6,0,P|204:312|144:316,1,90,2|0,1:2|0:0,0:0:0:0:
24,140,60019,2,0,P|64:112|124:108,1,90,10|0,0:0|0:0,0:0:0:0:
284,176,60322,2,0,L|444:224,1,135,2|0,1:2|0:0,0:0:0:0:
472,168,60626,2,0,P|420:124|344:124,1,135,10|0,0:0|0:0,0:0:0:0:
280,268,60929,102,0,L|264:344,1,53.9999983520508,14|0,0:0|0:0,0:0:0:0:
128,200,61080,1,8,0:0:0:0:
128,200,61156,1,8,0:0:0:0:
128,200,61232,2,0,L|200:192,1,53.9999983520508,10|0,0:0|0:0,0:0:0:0:
56,312,61383,5,14,0:0:0:0:
468,212,61686,101,14,0:0:0:0:
56,64,61989,5,14,0:0:0:0:
56,64,62292,1,0,1:0:0:0:
136,144,62444,2,0,P|196:136|248:104,1,107.999996704102,10|0,0:0|0:0,0:0:0:0:
456,160,62747,1,10,0:0:0:0:
412,172,62822,1,8,0:0:0:0:
368,184,62898,1,10,0:0:0:0:
324,192,62974,1,8,0:0:0:0:
280,204,63050,1,8,0:0:0:0:
40,288,63201,102,0,P|132:284|208:352,1,180,6|0,1:2|0:0,0:0:0:0:
80,188,63656,2,0,L|40:96,1,90,10|0,0:0|0:0,0:0:0:0:
316,132,63959,2,0,L|256:216,1,90,2|2,1:2|0:0,0:0:0:0:
264,205,64186,1,2,0:0:0:0:
264,205,64262,1,8,0:0:0:0:
456,344,64413,2,0,P|476:256|400:184,1,180,2|0,1:2|0:0,0:0:0:0:
296,296,64868,6,0,B|244:320|196:304,1,90,10|0,0:0|0:0,0:0:0:0:
60,168,65171,1,2,1:2:0:0:
184,220,65322,1,2,1:2:0:0:
80,304,65474,1,8,0:0:0:0:
284,220,65626,102,0,P|304:144|232:52,1,180,2|0,1:2|0:0,0:0:0:0:
184,128,66080,1,10,0:0:0:0:
352,60,66232,1,0,0:0:0:0:
184,220,66383,1,2,1:2:0:0:
304,304,66535,1,2,1:2:0:0:
320,160,66686,1,8,0:0:0:0:
192,328,66838,6,0,B|124:344|80:304|80:304|60:236,1,180,2|0,1:2|0:0,0:0:0:0:
40,128,67292,1,10,0:0:0:0:
136,200,67444,101,8,0:0:0:0:
136,200,67519,1,8,0:0:0:0:
136,200,67595,1,10,0:0:0:0:
336,64,67747,1,0,1:0:0:0:
296,320,67898,1,10,0:0:0:0:
460,144,68050,6,0,P|472:256|420:308,1,180,6|0,1:2|0:0,0:0:0:0:
368,248,68504,1,8,0:0:0:0:
360,332,68656,1,0,0:0:0:0:
392,168,68807,1,0,1:0:0:0:
288,256,68959,1,0,1:0:0:0:
432,301,69110,1,10,0:0:0:0:
360,144,69262,1,0,0:0:0:0:
216,256,69413,102,0,P|156:264|108:264,1,90,2|0,1:2|0:0,0:0:0:0:
60,136,69716,2,0,P|120:128|168:128,1,90,10|0,0:0|0:0,0:0:0:0:
212,300,70019,2,0,P|124:308|20:312,1,180,2|10,1:2|0:0,0:0:0:0:
24,104,70474,2,0,P|124:92|236:92,1,180,2|0,1:2|0:0,0:0:0:0:
256,192,70929,5,8,0:0:0:0:
340,120,71080,1,0,0:0:0:0:
256,192,71232,1,0,1:0:0:0:
352,264,71383,1,0,1:0:0:0:
220,308,71535,1,10,0:0:0:0:
184,160,71686,1,0,0:0:0:0:
128,232,71838,102,0,P|80:236|12:232,1,90,2|0,1:2|0:0,0:0:0:0:
144,360,72141,2,0,P|196:352|236:352,1,90,10|0,0:0|0:0,0:0:0:0:
400,288,72444,1,10,0:0:0:0:
392,244,72519,1,8,0:0:0:0:
384,200,72595,1,8,0:0:0:0:
372,156,72671,1,8,0:0:0:0:
364,112,72747,1,8,0:0:0:0:
144,220,72898,22,0,P|212:268|312:252,1,180,6|0,1:2|0:0,0:0:0:0:
212,96,73353,1,8,0:0:0:0:
92,152,73504,1,0,1:0:0:0:
240,192,73656,1,8,0:0:0:0:
184,44,73807,1,0,1:0:0:0:
152,256,73959,1,10,0:0:0:0:
44,92,74110,1,0,1:0:0:0:
268,140,74262,22,0,P|328:136|376:128,1,90,10|0,0:0|0:0,0:0:0:0:
248,232,74565,2,0,P|308:228|356:220,1,90,10|0,0:0|0:0,0:0:0:0:
228,328,74868,1,10,0:0:0:0:
272,312,74944,1,8,0:0:0:0:
316,308,75019,1,8,0:0:0:0:
360,308,75095,1,8,0:0:0:0:
404,316,75171,1,10,0:0:0:0:
160,232,75322,86,0,P|80:212|-8:264,1,180,6|0,1:2|0:0,0:0:0:0:
84,304,75777,1,8,0:0:0:0:
112,128,75929,1,0,1:0:0:0:
184,316,76080,21,8,0:0:0:0:
284,168,76232,1,0,1:0:0:0:
284,344,76383,85,10,0:0:0:0:
444,272,76535,1,8,0:0:0:0:
444,272,76610,1,8,0:0:0:0:
444,272,76686,2,0,L|544:296,1,90,6|2,1:2|0:0,0:0:0:0:
256,192,77141,12,0,78353,0:0:0:0:
256,260,78504,70,0,B|280:172|224:196|256:88,1,144,2|0,0:0|0:0,0:0:0:0:
184,312,78959,38,0,P|124:256|16:288,1,180,6|0,1:2|0:0,0:0:0:0:
280,340,79413,2,0,P|316:336|392:324,1,90,10|0,0:0|0:0,0:0:0:0:
272,232,79716,2,0,P|240:144|264:60,1,180,2|8,1:2|0:0,0:0:0:0:
272,232,80171,6,0,L|160:200,1,90,2|0,1:2|0:0,0:0:0:0:
340,144,80474,1,0,1:0:0:0:
200,292,80626,2,0,L|220:384,1,90,8|0,0:0|0:0,0:0:0:0:
32,272,80929,1,2,0:0:0:0:
52,232,81004,1,2,0:0:0:0:
24,196,81080,1,2,0:0:0:0:
40,152,81156,1,2,0:0:0:0:
24,112,81232,1,10,0:0:0:0:
208,128,81383,102,0,P|296:108|384:124,1,180,6|0,1:2|0:0,0:0:0:0:
476,80,81838,2,0,P|484:136|480:176,1,90,10|0,0:0|0:0,0:0:0:0:
324,300,82141,1,2,1:2:0:0:
232,228,82292,1,0,1:0:0:0:
240,340,82444,1,10,0:0:0:0:
340,208,82595,6,0,B|352:140|320:80|320:80|340:104|360:104,1,180,2|0,1:2|0:0,0:0:0:0:
256,152,83050,2,0,P|208:96|168:80,1,90,10|0,0:0|0:0,0:0:0:0:
192,220,83353,1,2,0:0:0:0:
148,216,83429,1,2,0:0:0:0:
132,256,83504,1,2,0:0:0:0:
88,268,83580,1,2,0:0:0:0:
68,308,83656,101,10,0:0:0:0:
140,296,83732,1,8,0:0:0:0:
212,308,83807,1,8,0:0:0:0:
284,292,83883,1,8,0:0:0:0:
356,308,83959,85,14,1:2:0:0:
464,144,84110,1,0,1:0:0:0:
272,120,84262,1,0,1:0:0:0:
400,232,84413,5,10,1:2:0:0:
368,164,84565,1,0,1:0:0:0:
324,224,84716,1,0,1:0:0:0:
104,44,84868,101,8,1:2:0:0:
136,348,85019,1,14,1:2:0:0:
256,192,85171,12,8,86585,0:0:0:0:
