osu file format v14

[General]
AudioFilename: audio.mp3
AudioLeadIn: 500
PreviewTime: 52595
Countdown: 0
SampleSet: Soft
StackLeniency: 0.7
Mode: 0
LetterboxInBreaks: 0
EpilepsyWarning: 1
WidescreenStoryboard: 1

[Editor]
Bookmarks: 323,12292,22141,31838,41535,53504,63201,72898,78504
DistanceSpacing: 1.7
BeatDivisor: 4
GridSize: 32
TimelineZoom: 1.2

[Metadata]
Title:Twintail Dreamer! (TV Size)
TitleUnicode:ツインテール・ドリーマー! (TV Size)
Artist:Twin-Tails
ArtistUnicode:ツインテイルズ
Creator:Moecho
Version:Collab Insane
Source:俺、ツインテールになります。
Tags:Twintails OreTwi Ore, Tsuinteru Tsuintēru ni Narimasu. Gonna be the Twin-Tail!! テイルレッド Tail Red 上坂すみれ Uesaka Sumire テイルブルー Blue 相坂優歌 Aisaka Yuuka テイルイエロー Yellow 赤﨑千夏 Akasaki Chinatsu Ending Theme ED TV Size edit Anime papiyon japanese pop j-pop jpop Kodora Laurier Natteke Kite HabiHolic Loneight L18 Lecana Giralda captin1 jonathanlfj apaffy kisata Nyquill RLC LunarSakuya Mythol meiikyuu Syameimaru-Aya Ayaya caren_sk CRN kiddly Axarious Delis ShirohaMyMommy SMM Koiyuki Minakami Yuki yf_bmp yf Skystar Amamiya Yuko rui rustbell spro sprosive Snow Note 7odoa bakabaka Hollow Wings HW
BeatmapID:2332383
BeatmapSetID:1115213

[Difficulty]
HPDrainRate:7
CircleSize:4
OverallDifficulty:8
ApproachRate:9.3
SliderMultiplier:1.8
SliderTickRate:1

[Events]
//Background and Video events
0,0,"bg.jpg",0,0
//Break Periods
//Storyboard Layer 0 (Background)
Sprite,Background,Centre,"sb\sprites\pixel-white.png",320,240 F,0,-60,,0,1 C,0,-60,,0,0,0 V,0,-60,,880,480 F,0,89619,,1,0
Sprite,Background,Centre,"bg.jpg",320,240 F,0,-2559,-1559,0,0.75 S,0,-1559,,0.4444444 F,0,337,487,0.75,0
Sprite,Background,Centre,"bg.jpg",320,240 F,0,88125,89125,0,0.75 S,0,89125,,0.4444444 F,0,89784,89934,0.75,0
Sprite,Background,Centre,"sb\sprites\bg-alt.jpg",320,240 F,0,187,337,0,0.75 S,0,337,,0.4444444 F,0,21156,22306,0.75,0
Sprite,Background,Centre,"sb\sprites\bg-alt.jpg",320,240 F,0,53369,53519,0,0.75 S,0,53519,,0.4444444 F,0,88125,89275,0.75,0
Sprite,Background,Centre,"sb\sprites\bg-alt-bw.jpg",320,240 F,0,22006,22306,0,0.75 S,0,22156,,0.4444444 F,0,39686,40486,0.75,0
Sprite,Background,Centre,"sb\sprites\bg-alt-bw.jpg",320,240 F,0,50491,50791,0,0.75 S,0,50641,,0.4444444 F,0,51807,52607,0.75,0
Sprite,Background,Centre,"sb\sprites\tail-red-ci.jpg",320,240 F,0,40794,41094,0,0.75 S,0,40944,,0.4444444 F,0,48822,50322,0.75,0
Sprite,Background,Centre,"sb\sprites\tail-blue-ci.jpg",320,240 F,0,42915,43215,0,0.75 S,0,43065,,0.4444444 F,0,48822,50322,0.75,0
Sprite,Background,Centre,"sb\sprites\tail-yellow-ci.jpg",320,240 F,0,45339,45639,0,0.75 S,0,45489,,0.4444444 F,0,48822,50322,0.75,0
Sprite,Background,Centre,"sb\sprites\pixel-white.png",320,240 V,0,2307,,854,480 F,0,2307,2907,0.15,0
Sprite,Background,Centre,"sb\sprites\pixel-white.png",320,240 V,0,2610,,854,480 F,0,2610,3210,0.15,0
Sprite,Background,Centre,"sb\sprites\pixel-white.png",320,240 V,0,3822,,854,480 F,0,3822,4422,0.15,0
Sprite,Background,Centre,"sb\sprites\pixel-white.png",320,240 V,0,5034,,854,480 F,0,5034,5634,0.15,0
Sprite,Background,Centre,"sb\sprites\pixel-white.png",320,240 V,0,5792,,854,480 F,0,5792,6392,0.15,0
Sprite,Background,Centre,"sb\sprites\pixel-white.png",320,240 V,0,6247,,854,480 F,0,6247,6847,0.15,0
Sprite,Background,Centre,"sb\sprites\pixel-white.png",320,240 V,0,7459,,854,480 F,0,7459,8059,0.15,0
Sprite,Background,Centre,"sb\sprites\pixel-white.png",320,240 V,0,9883,,854,480 F,0,9883,10483,0.15,0
Sprite,Background,Centre,"sb\sprites\pixel-white.png",320,240 V,0,12307,,854,480 F,0,12307,12907,0.15,0
Sprite,Background,Centre,"sb\sprites\pixel-white.png",320,240 V,0,22156,,854,480 F,0,22156,22756,0.15,0
Sprite,Background,Centre,"sb\sprites\pixel-white.png",320,240 V,0,30489,,854,480 F,0,30489,31089,0.15,0
Sprite,Background,Centre,"sb\sprites\pixel-white.png",320,240 V,0,31853,,854,480 F,0,31853,32453,0.15,0
Sprite,Background,Centre,"sb\sprites\pixel-white.png",320,240 V,0,36701,,854,480 F,0,36701,37301,0.15,0
Sprite,Background,Centre,"sb\sprites\pixel-white.png",320,240 V,0,41550,,854,480 F,0,41550,42150,0.15,0
Sprite,Background,Centre,"sb\sprites\pixel-white.png",320,240 V,0,46247,,854,480 F,0,46247,46847,0.15,0
Sprite,Background,Centre,"sb\sprites\pixel-white.png",320,240 V,0,53519,,854,480 F,0,53519,54119,0.15,0
Sprite,Background,Centre,"sb\sprites\pixel-white.png",320,240 V,0,54731,,854,480 F,0,54731,55331,0.15,0
Sprite,Background,Centre,"sb\sprites\pixel-white.png",320,240 V,0,55944,,854,480 F,0,55944,56544,0.15,0
Sprite,Background,Centre,"sb\sprites\pixel-white.png",320,240 V,0,57156,,854,480 F,0,57156,57756,0.15,0
Sprite,Background,Centre,"sb\sprites\pixel-white.png",320,240 V,0,58368,,854,480 F,0,58368,58968,0.15,0
Sprite,Background,Centre,"sb\sprites\pixel-white.png",320,240 V,0,60034,,854,480 F,0,60034,60634,0.15,0
Sprite,Background,Centre,"sb\sprites\pixel-white.png",320,240 V,0,60640,,854,480 F,0,60640,61240,0.15,0
Sprite,Background,Centre,"sb\sprites\pixel-white.png",320,240 V,0,60944,,854,480 F,0,60944,61544,0.15,0
Sprite,Background,Centre,"sb\sprites\pixel-white.png",320,240 V,0,61398,,854,480 F,0,61398,61998,0.15,0
Sprite,Background,Centre,"sb\sprites\pixel-white.png",320,240 V,0,62004,,854,480 F,0,62004,62604,0.15,0
Sprite,Background,Centre,"sb\sprites\pixel-white.png",320,240 V,0,63216,,854,480 F,0,63216,63816,0.15,0
Sprite,Background,Centre,"sb\sprites\pixel-white.png",320,240 V,0,64428,,854,480 F,0,64428,65028,0.15,0
Sprite,Background,Centre,"sb\sprites\pixel-white.png",320,240 V,0,65641,,854,480 F,0,65641,66241,0.15,0
Sprite,Background,Centre,"sb\sprites\pixel-white.png",320,240 V,0,66853,,854,480 F,0,66853,67453,0.15,0
Sprite,Background,Centre,"sb\sprites\pixel-white.png",320,240 V,0,68065,,854,480 F,0,68065,68665,0.15,0
Sprite,Background,Centre,"sb\sprites\pixel-white.png",320,240 V,0,69428,,854,480 F,0,69428,70028,0.15,0
Sprite,Background,Centre,"sb\sprites\pixel-white.png",320,240 V,0,70489,,854,480 F,0,70489,71089,0.15,0
Sprite,Background,Centre,"sb\sprites\pixel-white.png",320,240 V,0,72913,,854,480 F,0,72913,73513,0.15,0
Sprite,Background,Centre,"sb\sprites\pixel-white.png",320,240 V,0,75338,,854,480 F,0,75338,75938,0.15,0
Sprite,Background,Centre,"sb\sprites\pixel-white.png",320,240 V,0,76701,,854,480 F,0,76701,77301,0.15,0
Sprite,Background,Centre,"sb\sprites\pixel-white.png",320,240 V,0,78974,,854,480 F,0,78974,79574,0.15,0
Sprite,Background,Centre,"sb\sprites\pixel-white.png",320,240 V,0,83974,,854,480 F,0,83974,84574,0.15,0
Sprite,Background,Centre,"sb\sprites\pixel-white.png",320,240 V,0,85034,,854,480 F,0,85034,85634,0.15,0
//Storyboard Layer 1 (Fail)
//Storyboard Layer 2 (Pass)
//Storyboard Layer 3 (Foreground)
Sprite,Foreground,Centre,"sb\sprites\info-background.png",320,240 F,17,-38,337,0,1 S,0,337,,0.4444444 F,17,2307,2682,1,0
Sprite,Foreground,Centre,"sb\lyrics\0063.png",0,0 F,0,237,437,0,0.8 M,0,337,,642.4,416.6 S,0,337,,0.3 C,0,337,,100,100,100 F,0,2207,2407,0.8,0
Sprite,Foreground,Centre,"sb\lyrics\0075.png",0,0 F,0,237,437,0,0.8 M,0,337,,649.3,416.6 S,0,337,,0.3 C,0,337,,100,100,100 F,0,2207,2407,0.8,0
Sprite,Foreground,Centre,"sb\lyrics\0072.png",0,0 F,0,237,437,0,0.8 M,0,337,,655.9,416.6 S,0,337,,0.3 C,0,337,,100,100,100 F,0,2207,2407,0.8,0
Sprite,Foreground,Centre,"sb\lyrics\0072.png",0,0 F,0,237,437,0,0.8 M,0,337,,662.4999,416.6 S,0,337,,0.3 C,0,337,,100,100,100 F,0,2207,2407,0.8,0
Sprite,Foreground,Centre,"sb\lyrics\0065.png",0,0 F,0,237,437,0,0.8 M,0,337,,668.95,417.05 S,0,337,,0.3 C,0,337,,100,100,100 F,0,2207,2407,0.8,0
Sprite,Foreground,Centre,"sb\lyrics\006e.png",0,0 F,0,237,437,0,0.8 M,0,337,,675.8499,416.6 S,0,337,,0.3 C,0,337,,100,100,100 F,0,2207,2407,0.8,0
Sprite,Foreground,Centre,"sb\lyrics\0074.png",0,0 F,0,237,437,0,0.8 M,0,337,,682.1499,415.7 S,0,337,,0.3 C,0,337,,100,100,100 F,0,2207,2407,0.8,0
Sprite,Foreground,Centre,"sb\lyrics\0070.png",0,0 F,0,237,437,0,0.8 M,0,337,,695.4998,417.05 S,0,337,,0.3 C,0,337,,100,100,100 F,0,2207,2407,0.8,0
Sprite,Foreground,Centre,"sb\lyrics\0061.png",0,0 F,0,237,437,0,0.8 M,0,337,,702.2498,416.75 S,0,337,,0.3 C,0,337,,100,100,100 F,0,2207,2407,0.8,0
Sprite,Foreground,Centre,"sb\lyrics\0072.png",0,0 F,0,237,437,0,0.8 M,0,337,,708.6998,416.6 S,0,337,,0.3 C,0,337,,100,100,100 F,0,2207,2407,0.8,0
Sprite,Foreground,Centre,"sb\lyrics\0074.png",0,0 F,0,237,437,0,0.8 M,0,337,,715.1498,415.7 S,0,337,,0.3 C,0,337,,100,100,100 F,0,2207,2407,0.8,0
Sprite,Foreground,Centre,"sb\lyrics\0062.png",0,0 F,0,237,437,0,0.8 M,0,337,,728.55,415.4 S,0,337,,0.3 C,0,337,,100,100,100 F,0,2207,2407,0.8,0
Sprite,Foreground,Centre,"sb\lyrics\0079.png",0,0 F,0,237,437,0,0.8 M,0,337,,735.15,417.2 S,0,337,,0.3 C,0,337,,100,100,100 F,0,2207,2407,0.8,0
Sprite,Foreground,Centre,"sb\lyrics\0063.png",0,0 F,0,12207,12407,0,0.8 M,0,12307,,642.4,416.6 S,0,12307,,0.3 C,0,12307,,100,100,100 F,0,86904,87104,0.8,0
Sprite,Foreground,Centre,"sb\lyrics\0075.png",0,0 F,0,12207,12407,0,0.8 M,0,12307,,649.3,416.6 S,0,12307,,0.3 C,0,12307,,100,100,100 F,0,86904,87104,0.8,0
Sprite,Foreground,Centre,"sb\lyrics\0072.png",0,0 F,0,12207,12407,0,0.8 M,0,12307,,655.9,416.6 S,0,12307,,0.3 C,0,12307,,100,100,100 F,0,86904,87104,0.8,0
Sprite,Foreground,Centre,"sb\lyrics\0072.png",0,0 F,0,12207,12407,0,0.8 M,0,12307,,662.4999,416.6 S,0,12307,,0.3 C,0,12307,,100,100,100 F,0,86904,87104,0.8,0
Sprite,Foreground,Centre,"sb\lyrics\0065.png",0,0 F,0,12207,12407,0,0.8 M,0,12307,,668.95,417.05 S,0,12307,,0.3 C,0,12307,,100,100,100 F,0,86904,87104,0.8,0
Sprite,Foreground,Centre,"sb\lyrics\006e.png",0,0 F,0,12207,12407,0,0.8 M,0,12307,,675.8499,416.6 S,0,12307,,0.3 C,0,12307,,100,100,100 F,0,86904,87104,0.8,0
Sprite,Foreground,Centre,"sb\lyrics\0074.png",0,0 F,0,12207,12407,0,0.8 M,0,12307,,682.1499,415.7 S,0,12307,,0.3 C,0,12307,,100,100,100 F,0,86904,87104,0.8,0
Sprite,Foreground,Centre,"sb\lyrics\0070.png",0,0 F,0,12207,12407,0,0.8 M,0,12307,,695.4998,417.05 S,0,12307,,0.3 C,0,12307,,100,100,100 F,0,86904,87104,0.8,0
Sprite,Foreground,Centre,"sb\lyrics\0061.png",0,0 F,0,12207,12407,0,0.8 M,0,12307,,702.2498,416.75 S,0,12307,,0.3 C,0,12307,,100,100,100 F,0,86904,87104,0.8,0
Sprite,Foreground,Centre,"sb\lyrics\0072.png",0,0 F,0,12207,12407,0,0.8 M,0,12307,,708.6998,416.6 S,0,12307,,0.3 C,0,12307,,100,100,100 F,0,86904,87104,0.8,0
Sprite,Foreground,Centre,"sb\lyrics\0074.png",0,0 F,0,12207,12407,0,0.8 M,0,12307,,715.1498,415.7 S,0,12307,,0.3 C,0,12307,,100,100,100 F,0,86904,87104,0.8,0
Sprite,Foreground,Centre,"sb\lyrics\0047.png",0,0 F,0,237,437,0,0.8 M,0,337,,678.95,398.075 S,0,337,,0.425 C,0,337,,255,255,255 F,0,2207,2407,0.8,0
Sprite,Foreground,Centre,"sb\lyrics\0069.png",0,0 F,0,237,437,0,0.8 M,0,337,,688.0875,397.65 S,0,337,,0.425 C,0,337,,255,255,255 F,0,2207,2407,0.8,0
Sprite,Foreground,Centre,"sb\lyrics\0072.png",0,0 F,0,237,437,0,0.8 M,0,337,,697.65,399.35 S,0,337,,0.425 C,0,337,,255,255,255 F,0,2207,2407,0.8,0
Sprite,Foreground,Centre,"sb\lyrics\0061.png",0,0 F,0,237,437,0,0.8 M,0,337,,707.2125,399.5625 S,0,337,,0.425 C,0,337,,255,255,255 F,0,2207,2407,0.8,0
Sprite,Foreground,Centre,"sb\lyrics\006c.png",0,0 F,0,237,437,0,0.8 M,0,337,,716.3499,397.65 S,0,337,,0.425 C,0,337,,255,255,255 F,0,2207,2407,0.8,0
Sprite,Foreground,Centre,"sb\lyrics\0064.png",0,0 F,0,237,437,0,0.8 M,0,337,,725.4874,397.8625 S,0,337,,0.425 C,0,337,,255,255,255 F,0,2207,2407,0.8,0
Sprite,Foreground,Centre,"sb\lyrics\0061.png",0,0 F,0,237,437,0,0.8 M,0,337,,735.2624,399.5625 S,0,337,,0.425 C,0,337,,255,255,255 F,0,2207,2407,0.8,0
Sprite,Foreground,Centre,"sb\lyrics\0063.png",0,0 F,0,12207,12407,0,0.8 M,0,12307,,678.525,399.35 S,0,12307,,0.425 C,0,12307,,255,255,255 F,0,22056,22256,0.8,0
Sprite,Foreground,Centre,"sb\lyrics\0061.png",0,0 F,0,12207,12407,0,0.8 M,0,12307,,688.5125,399.5625 S,0,12307,,0.425 C,0,12307,,255,255,255 F,0,22056,22256,0.8,0
Sprite,Foreground,Centre,"sb\lyrics\0070.png",0,0 F,0,12207,12407,0,0.8 M,0,12307,,697.65,399.9875 S,0,12307,,0.425 C,0,12307,,255,255,255 F,0,22056,22256,0.8,0
Sprite,Foreground,Centre,"sb\lyrics\0074.png",0,0 F,0,12207,12407,0,0.8 M,0,12307,,706.7875,398.075 S,0,12307,,0.425 C,0,12307,,255,255,255 F,0,22056,22256,0.8,0
Sprite,Foreground,Centre,"sb\lyrics\0069.png",0,0 F,0,12207,12407,0,0.8 M,0,12307,,716.1375,397.65 S,0,12307,,0.425 C,0,12307,,255,255,255 F,0,22056,22256,0.8,0
Sprite,Foreground,Centre,"sb\lyrics\006e.png",0,0 F,0,12207,12407,0,0.8 M,0,12307,,725.9124,399.35 S,0,12307,,0.425 C,0,12307,,255,255,255 F,0,22056,22256,0.8,0
Sprite,Foreground,Centre,"sb\lyrics\0031.png",0,0 F,0,12207,12407,0,0.8 M,0,12307,,734.8374,397.65 S,0,12307,,0.425 C,0,12307,,255,255,255 F,0,22056,22256,0.8,0
Sprite,Foreground,Centre,"sb\lyrics\006a.png",0,0 F,0,22056,22256,0,0.8 M,0,22156,,641.825,398.5 S,0,22156,,0.425 C,0,22156,,255,255,255 F,0,31753,31953,0.8,0
Sprite,Foreground,Centre,"sb\lyrics\006f.png",0,0 F,0,22056,22256,0,0.8 M,0,22156,,651.3875,399.35 S,0,22156,,0.425 C,0,22156,,255,255,255 F,0,31753,31953,0.8,0
Sprite,Foreground,Centre,"sb\lyrics\006e.png",0,0 F,0,22056,22256,0,0.8 M,0,22156,,661.1625,399.35 S,0,22156,,0.425 C,0,22156,,255,255,255 F,0,31753,31953,0.8,0
Sprite,Foreground,Centre,"sb\lyrics\0061.png",0,0 F,0,22056,22256,0,0.8 M,0,22156,,670.5125,399.5625 S,0,22156,,0.425 C,0,22156,,255,255,255 F,0,31753,31953,0.8,0
Sprite,Foreground,Centre,"sb\lyrics\0074.png",0,0 F,0,22056,22256,0,0.8 M,0,22156,,679.4374,398.075 S,0,22156,,0.425 C,0,22156,,255,255,255 F,0,31753,31953,0.8,0
Sprite,Foreground,Centre,"sb\lyrics\0068.png",0,0 F,0,22056,22256,0,0.8 M,0,22156,,688.9999,397.8625 S,0,22156,,0.425 C,0,22156,,255,255,255 F,0,31753,31953,0.8,0
Sprite,Foreground,Centre,"sb\lyrics\0061.png",0,0 F,0,22056,22256,0,0.8 M,0,22156,,698.5624,399.5625 S,0,22156,,0.425 C,0,22156,,255,255,255 F,0,31753,31953,0.8,0
Sprite,Foreground,Centre,"sb\lyrics\006e.png",0,0 F,0,22056,22256,0,0.8 M,0,22156,,707.9124,399.35 S,0,22156,,0.425 C,0,22156,,255,255,255 F,0,31753,31953,0.8,0
Sprite,Foreground,Centre,"sb\lyrics\006c.png",0,0 F,0,22056,22256,0,0.8 M,0,22156,,717.0498,397.65 S,0,22156,,0.425 C,0,22156,,255,255,255 F,0,31753,31953,0.8,0
Sprite,Foreground,Centre,"sb\lyrics\0066.png",0,0 F,0,22056,22256,0,0.8 M,0,22156,,726.3998,397.65 S,0,22156,,0.425 C,0,22156,,255,255,255 F,0,31753,31953,0.8,0
Sprite,Foreground,Centre,"sb\lyrics\006a.png",0,0 F,0,22056,22256,0,0.8 M,0,22156,,735.3248,398.5 S,0,22156,,0.425 C,0,22156,,255,255,255 F,0,31753,31953,0.8,0
Sprite,Foreground,Centre,"sb\lyrics\0061.png",0,0 F,0,31753,31953,0,0.8 M,0,31853,,687.8375,399.5625 S,0,31853,,0.425 C,0,31853,,255,255,255 F,0,41450,41650,0.8,0
Sprite,Foreground,Centre,"sb\lyrics\0070.png",0,0 F,0,31753,31953,0,0.8 M,0,31853,,696.975,399.9875 S,0,31853,,0.425 C,0,31853,,255,255,255 F,0,41450,41650,0.8,0
Sprite,Foreground,Centre,"sb\lyrics\0061.png",0,0 F,0,31753,31953,0,0.8 M,0,31853,,706.5375,399.5625 S,0,31853,,0.425 C,0,31853,,255,255,255 F,0,41450,41650,0.8,0
Sprite,Foreground,Centre,"sb\lyrics\0066.png",0,0 F,0,31753,31953,0,0.8 M,0,31853,,715.6749,397.65 S,0,31853,,0.425 C,0,31853,,255,255,255 F,0,41450,41650,0.8,0
Sprite,Foreground,Centre,"sb\lyrics\0066.png",0,0 F,0,31753,31953,0,0.8 M,0,31853,,725.0249,397.65 S,0,31853,,0.425 C,0,31853,,255,255,255 F,0,41450,41650,0.8,0
Sprite,Foreground,Centre,"sb\lyrics\0079.png",0,0 F,0,31753,31953,0,0.8 M,0,31853,,734.1624,400.2 S,0,31853,,0.425 C,0,31853,,255,255,255 F,0,41450,41650,0.8,0
Sprite,Foreground,Centre,"sb\lyrics\004e.png",0,0 F,0,41450,41650,0,0.8 M,0,41550,,678.95,397.8625 S,0,41550,,0.425 C,0,41550,,255,255,255 F,0,53419,53619,0.8,0
Sprite,Foreground,Centre,"sb\lyrics\0079.png",0,0 F,0,41450,41650,0,0.8 M,0,41550,,688.0875,400.2 S,0,41550,,0.425 C,0,41550,,255,255,255 F,0,53419,53619,0.8,0
Sprite,Foreground,Centre,"sb\lyrics\0071.png",0,0 F,0,41450,41650,0,0.8 M,0,41550,,697.4375,399.9875 S,0,41550,,0.425 C,0,41550,,255,255,255 F,0,53419,53619,0.8,0
Sprite,Foreground,Centre,"sb\lyrics\0075.png",0,0 F,0,41450,41650,0,0.8 M,0,41550,,706.9999,399.35 S,0,41550,,0.425 C,0,41550,,255,255,255 F,0,53419,53619,0.8,0
Sprite,Foreground,Centre,"sb\lyrics\0069.png",0,0 F,0,41450,41650,0,0.8 M,0,41550,,716.1375,397.65 S,0,41550,,0.425 C,0,41550,,255,255,255 F,0,53419,53619,0.8,0
Sprite,Foreground,Centre,"sb\lyrics\006c.png",0,0 F,0,41450,41650,0,0.8 M,0,41550,,725.6999,397.65 S,0,41550,,0.425 C,0,41550,,255,255,255 F,0,53419,53619,0.8,0
Sprite,Foreground,Centre,"sb\lyrics\006c.png",0,0 F,0,41450,41650,0,0.8 M,0,41550,,735.0499,397.65 S,0,41550,,0.425 C,0,41550,,255,255,255 F,0,53419,53619,0.8,0
Sprite,Foreground,Centre,"sb\lyrics\0052.png",0,0 F,0,53419,53619,0,0.8 M,0,53519,,715.65,397.65 S,0,53519,,0.425 C,0,53519,,255,255,255 F,0,63116,63316,0.8,0
Sprite,Foreground,Centre,"sb\lyrics\004c.png",0,0 F,0,53419,53619,0,0.8 M,0,53519,,725.2125,397.8625 S,0,53519,,0.425 C,0,53519,,255,255,255 F,0,63116,63316,0.8,0
Sprite,Foreground,Centre,"sb\lyrics\0043.png",0,0 F,0,53419,53619,0,0.8 M,0,53519,,734.5624,398.075 S,0,53519,,0.425 C,0,53519,,255,255,255 F,0,63116,63316,0.8,0
Sprite,Foreground,Centre,"sb\lyrics\004c.png",0,0 F,0,63116,63316,0,0.8 M,0,63216,,641.4625,397.8625 S,0,63216,,0.425 C,0,63216,,255,255,255 F,0,72813,73013,0.8,0
Sprite,Foreground,Centre,"sb\lyrics\0075.png",0,0 F,0,63116,63316,0,0.8 M,0,63216,,650.6,399.35 S,0,63216,,0.425 C,0,63216,,255,255,255 F,0,72813,73013,0.8,0
Sprite,Foreground,Centre,"sb\lyrics\006e.png",0,0 F,0,63116,63316,0,0.8 M,0,63216,,660.1625,399.35 S,0,63216,,0.425 C,0,63216,,255,255,255 F,0,72813,73013,0.8,0
Sprite,Foreground,Centre,"sb\lyrics\0061.png",0,0 F,0,63116,63316,0,0.8 M,0,63216,,669.5125,399.5625 S,0,63216,,0.425 C,0,63216,,255,255,255 F,0,72813,73013,0.8,0
Sprite,Foreground,Centre,"sb\lyrics\0072.png",0,0 F,0,63116,63316,0,0.8 M,0,63216,,678.6499,399.35 S,0,63216,,0.425 C,0,63216,,255,255,255 F,0,72813,73013,0.8,0
Sprite,Foreground,Centre,"sb\lyrics\0053.png",0,0 F,0,63116,63316,0,0.8 M,0,63216,,687.7874,397.65 S,0,63216,,0.425 C,0,63216,,255,255,255 F,0,72813,73013,0.8,0
Sprite,Foreground,Centre,"sb\lyrics\0061.png",0,0 F,0,63116,63316,0,0.8 M,0,63216,,697.5624,399.5625 S,0,63216,,0.425 C,0,63216,,255,255,255 F,0,72813,73013,0.8,0
Sprite,Foreground,Centre,"sb\lyrics\006b.png",0,0 F,0,63116,63316,0,0.8 M,0,63216,,706.6998,397.65 S,0,63216,,0.425 C,0,63216,,255,255,255 F,0,72813,73013,0.8,0
Sprite,Foreground,Centre,"sb\lyrics\0075.png",0,0 F,0,63116,63316,0,0.8 M,0,63216,,716.0498,399.35 S,0,63216,,0.425 C,0,63216,,255,255,255 F,0,72813,73013,0.8,0
Sprite,Foreground,Centre,"sb\lyrics\0079.png",0,0 F,0,63116,63316,0,0.8 M,0,63216,,725.1873,400.2 S,0,63216,,0.425 C,0,63216,,255,255,255 F,0,72813,73013,0.8,0
Sprite,Foreground,Centre,"sb\lyrics\0061.png",0,0 F,0,63116,63316,0,0.8 M,0,63216,,734.9623,399.5625 S,0,63216,,0.425 C,0,63216,,255,255,255 F,0,72813,73013,0.8,0
Sprite,Foreground,Centre,"sb\lyrics\004d.png",0,0 F,0,72813,73013,0,0.8 M,0,72913,,687.625,397.65 S,0,72913,,0.425 C,0,72913,,255,255,255 F,0,78419,78619,0.8,0
Sprite,Foreground,Centre,"sb\lyrics\0079.png",0,0 F,0,72813,73013,0,0.8 M,0,72913,,696.7625,400.2 S,0,72913,,0.425 C,0,72913,,255,255,255 F,0,78419,78619,0.8,0
Sprite,Foreground,Centre,"sb\lyrics\0074.png",0,0 F,0,72813,73013,0,0.8 M,0,72913,,706.1125,398.075 S,0,72913,,0.425 C,0,72913,,255,255,255 F,0,78419,78619,0.8,0
Sprite,Foreground,Centre,"sb\lyrics\0068.png",0,0 F,0,72813,73013,0,0.8 M,0,72913,,715.6749,397.8625 S,0,72913,,0.425 C,0,72913,,255,255,255 F,0,78419,78619,0.8,0
Sprite,Foreground,Centre,"sb\lyrics\006f.png",0,0 F,0,72813,73013,0,0.8 M,0,72913,,724.8124,399.35 S,0,72913,,0.425 C,0,72913,,255,255,255 F,0,78419,78619,0.8,0
Sprite,Foreground,Centre,"sb\lyrics\006c.png",0,0 F,0,72813,73013,0,0.8 M,0,72913,,734.3749,397.65 S,0,72913,,0.425 C,0,72913,,255,255,255 F,0,78419,78619,0.8,0
Sprite,Foreground,Centre,"sb\lyrics\006d.png",0,0 F,0,78419,78619,0,0.8 M,0,78519,,668.0625,399.5625 S,0,78519,,0.425 C,0,78519,,255,255,255 F,0,86904,87104,0.8,0
Sprite,Foreground,Centre,"sb\lyrics\0065.png",0,0 F,0,78419,78619,0,0.8 M,0,78519,,677.4125,399.9875 S,0,78519,,0.425 C,0,78519,,255,255,255 F,0,86904,87104,0.8,0
Sprite,Foreground,Centre,"sb\lyrics\0069.png",0,0 F,0,78419,78619,0,0.8 M,0,78519,,686.7625,397.65 S,0,78519,,0.425 C,0,78519,,255,255,255 F,0,86904,87104,0.8,0
Sprite,Foreground,Centre,"sb\lyrics\0069.png",0,0 F,0,78419,78619,0,0.8 M,0,78519,,696.1124,397.65 S,0,78519,,0.425 C,0,78519,,255,255,255 F,0,86904,87104,0.8,0
Sprite,Foreground,Centre,"sb\lyrics\006b.png",0,0 F,0,78419,78619,0,0.8 M,0,78519,,705.6749,397.65 S,0,78519,,0.425 C,0,78519,,255,255,255 F,0,86904,87104,0.8,0
Sprite,Foreground,Centre,"sb\lyrics\0079.png",0,0 F,0,78419,78619,0,0.8 M,0,78519,,714.8124,400.2 S,0,78519,,0.425 C,0,78519,,255,255,255 F,0,86904,87104,0.8,0
Sprite,Foreground,Centre,"sb\lyrics\0075.png",0,0 F,0,78419,78619,0,0.8 M,0,78519,,724.3748,399.35 S,0,78519,,0.425 C,0,78519,,255,255,255 F,0,86904,87104,0.8,0
Sprite,Foreground,Centre,"sb\lyrics\0075.png",0,0 F,0,78419,78619,0,0.8 M,0,78519,,733.7248,399.35 S,0,78519,,0.425 C,0,78519,,255,255,255 F,0,86904,87104,0.8,0
Sprite,Foreground,Centre,"sb\lyrics\0043.png",0,0 F,0,237,437,0,0.8 M,0,337,,604.25,434.5 S,0,337,,0.5 C,0,337,,255,255,255 F,0,2207,2407,0.8,0
Sprite,Foreground,Centre,"sb\lyrics\006f.png",0,0 F,0,237,437,0,0.8 M,0,337,,614.75,436 S,0,337,,0.5 C,0,337,,255,255,255 F,0,2207,2407,0.8,0
Sprite,Foreground,Centre,"sb\lyrics\006c.png",0,0 F,0,237,437,0,0.8 M,0,337,,626,434 S,0,337,,0.5 C,0,337,,255,255,255 F,0,2207,2407,0.8,0
Sprite,Foreground,Centre,"sb\lyrics\006c.png",0,0 F,0,237,437,0,0.8 M,0,337,,637,434 S,0,337,,0.5 C,0,337,,255,255,255 F,0,2207,2407,0.8,0
Sprite,Foreground,Centre,"sb\lyrics\0061.png",0,0 F,0,237,437,0,0.8 M,0,337,,648.25,436.25 S,0,337,,0.5 C,0,337,,255,255,255 F,0,2207,2407,0.8,0
Sprite,Foreground,Centre,"sb\lyrics\0062.png",0,0 F,0,237,437,0,0.8 M,0,337,,658.75,434 S,0,337,,0.5 C,0,337,,255,255,255 F,0,2207,2407,0.8,0
Sprite,Foreground,Centre,"sb\lyrics\0049.png",0,0 F,0,237,437,0,0.8 M,0,337,,680.75,434.25 S,0,337,,0.5 C,0,337,,255,255,255 F,0,2207,2407,0.8,0
Sprite,Foreground,Centre,"sb\lyrics\006e.png",0,0 F,0,237,437,0,0.8 M,0,337,,692.25,436 S,0,337,,0.5 C,0,337,,255,255,255 F,0,2207,2407,0.8,0
Sprite,Foreground,Centre,"sb\lyrics\0073.png",0,0 F,0,237,437,0,0.8 M,0,337,,703,436.5 S,0,337,,0.5 C,0,337,,255,255,255 F,0,2207,2407,0.8,0
Sprite,Foreground,Centre,"sb\lyrics\0061.png",0,0 F,0,237,437,0,0.8 M,0,337,,714.25,436.25 S,0,337,,0.5 C,0,337,,255,255,255 F,0,2207,2407,0.8,0
Sprite,Foreground,Centre,"sb\lyrics\006e.png",0,0 F,0,237,437,0,0.8 M,0,337,,725.25,436 S,0,337,,0.5 C,0,337,,255,255,255 F,0,2207,2407,0.8,0
Sprite,Foreground,Centre,"sb\lyrics\0065.png",0,0 F,0,237,437,0,0.8 M,0,337,,735.75,436.75 S,0,337,,0.5 C,0,337,,255,255,255 F,0,2207,2407,0.8,0
Sprite,Foreground,Centre,"sb\lyrics\0043.png",0,0 F,0,12207,12407,0,0.8 M,0,12307,,604.25,434.5 S,0,12307,,0.5 C,0,12307,,255,255,255 F,0,86904,87104,0.8,0
Sprite,Foreground,Centre,"sb\lyrics\006f.png",0,0 F,0,12207,12407,0,0.8 M,0,12307,,614.75,436 S,0,12307,,0.5 C,0,12307,,255,255,255 F,0,86904,87104,0.8,0
Sprite,Foreground,Centre,"sb\lyrics\006c.png",0,0 F,0,12207,12407,0,0.8 M,0,12307,,626,434 S,0,12307,,0.5 C,0,12307,,255,255,255 F,0,86904,87104,0.8,0
Sprite,Foreground,Centre,"sb\lyrics\006c.png",0,0 F,0,12207,12407,0,0.8 M,0,12307,,637,434 S,0,12307,,0.5 C,0,12307,,255,255,255 F,0,86904,87104,0.8,0
Sprite,Foreground,Centre,"sb\lyrics\0061.png",0,0 F,0,12207,12407,0,0.8 M,0,12307,,648.25,436.25 S,0,12307,,0.5 C,0,12307,,255,255,255 F,0,86904,87104,0.8,0
Sprite,Foreground,Centre,"sb\lyrics\0062.png",0,0 F,0,12207,12407,0,0.8 M,0,12307,,658.75,434 S,0,12307,,0.5 C,0,12307,,255,255,255 F,0,86904,87104,0.8,0
Sprite,Foreground,Centre,"sb\lyrics\0049.png",0,0 F,0,12207,12407,0,0.8 M,0,12307,,680.75,434.25 S,0,12307,,0.5 C,0,12307,,255,255,255 F,0,86904,87104,0.8,0
Sprite,Foreground,Centre,"sb\lyrics\006e.png",0,0 F,0,12207,12407,0,0.8 M,0,12307,,692.25,436 S,0,12307,,0.5 C,0,12307,,255,255,255 F,0,86904,87104,0.8,0
Sprite,Foreground,Centre,"sb\lyrics\0073.png",0,0 F,0,12207,12407,0,0.8 M,0,12307,,703,436.5 S,0,12307,,0.5 C,0,12307,,255,255,255 F,0,86904,87104,0.8,0
Sprite,Foreground,Centre,"sb\lyrics\0061.png",0,0 F,0,12207,12407,0,0.8 M,0,12307,,714.25,436.25 S,0,12307,,0.5 C,0,12307,,255,255,255 F,0,86904,87104,0.8,0
Sprite,Foreground,Centre,"sb\lyrics\006e.png",0,0 F,0,12207,12407,0,0.8 M,0,12307,,725.25,436 S,0,12307,,0.5 C,0,12307,,255,255,255 F,0,86904,87104,0.8,0
Sprite,Foreground,Centre,"sb\lyrics\0065.png",0,0 F,0,12207,12407,0,0.8 M,0,12307,,735.75,436.75 S,0,12307,,0.5 C,0,12307,,255,255,255 F,0,86904,87104,0.8,0
Sprite,Foreground,Centre,"sb\lyrics\0050.png",0,0 F,0,237,437,0,0.8 M,0,337,,669.25,456 S,0,337,,0.5 C,0,337,,100,100,100 F,0,2207,2407,0.8,0
Sprite,Foreground,Centre,"sb\lyrics\004c.png",0,0 F,0,275,475,0,0.8 M,0,375,,680.25,456.25 S,0,375,,0.5 C,0,375,,100,100,100 F,0,2207,2407,0.8,0
Sprite,Foreground,Centre,"sb\lyrics\0041.png",0,0 F,0,313,513,0,0.8 M,0,413,,691,456.5 S,0,413,,0.5 C,0,413,,100,100,100 F,0,2207,2407,0.8,0
Sprite,Foreground,Centre,"sb\lyrics\0059.png",0,0 F,0,351,551,0,0.8 M,0,451,,701.75,456.25 S,0,451,,0.5 C,0,451,,100,100,100 F,0,2207,2407,0.8,0
Sprite,Foreground,Centre,"sb\lyrics\0049.png",0,0 F,0,389,589,0,0.8 M,0,489,,712.75,456.25 S,0,489,,0.5 C,0,489,,100,100,100 F,0,2207,2407,0.8,0
Sprite,Foreground,Centre,"sb\lyrics\004e.png",0,0 F,0,427,627,0,0.8 M,0,527,,724,456.25 S,0,527,,0.5 C,0,527,,100,100,100 F,0,2207,2407,0.8,0
Sprite,Foreground,Centre,"sb\lyrics\0047.png",0,0 F,0,465,665,0,0.8 M,0,565,,735,456.5 S,0,565,,0.5 C,0,565,,100,100,100 F,0,2207,2407,0.8,0
//Storyboard Layer 4 (Overlay)
//Storyboard Sound Samples

[TimingPoints]
323,303.030303030303,4,2,20,45,1,0
323,-100,4,2,20,45,0,0
1838,-100,4,2,20,60,0,0
2595,-133.333333333333,4,2,20,60,0,0
6156,-133.333333333333,4,2,20,5,0,0
6232,-133.333333333333,4,2,20,60,0,0
12292,-100,4,2,20,60,0,0
22141,-125,4,2,20,60,0,0
30474,-111.111111111111,4,2,20,60,0,0
31838,-100,4,2,20,60,0,0
41535,-133.333333333333,4,2,20,60,0,0
48807,-133.333333333333,4,2,20,45,0,0
51232,-117.647058823529,4,2,20,45,0,0
52747,-133.333333333333,4,2,0,45,0,0
53504,-100,4,2,21,65,0,1
76383,-100,4,2,21,45,0,1
76686,-100,4,2,21,65,0,0
76913,-100,4,2,21,50,0,0
77747,-100,4,2,21,30,0,0
78504,-133.333333333333,4,2,21,45,0,0
78959,-100,4,2,20,60,0,0
86737,-100,4,2,20,30,0,0

[Colours]
Combo1 : 192,192,192
Combo2 : 255,50,50
Combo3 : 255,125,125
Combo4 : 25,100,255
Combo5 : 50,150,255
Combo6 : 255,255,50
Combo7 : 255,255,150
Combo8 : 128,128,128

[HitObjects]
192,84,323,101,0,0:0:0:0:
41,119,474,1,0,0:0:0:0:
156,265,626,2,0,P|160:220|163:175,1,90
483,352,1232,1,0,0:0:0:0:
332,317,1383,1,0,0:0:0:0:
447,170,1535,6,0,P|451:214|454:259,1,90
309,88,1838,1,8,0:0:0:0:
306,84,1913,1,0,0:0:0:0:
303,80,1989,1,10,0:0:0:0:
480,189,2141,2,0,P|484:233|487:278,1,90,2|4,0:0|0:3,0:0:0:0:
220,351,2595,6,0,P|125:358|82:273,1,202.500007724762,4|0,0:0|0:0,0:0:0:0:
372,286,3353,1,0,0:0:0:0:
372,286,3504,2,0,P|378:330|381:375,1,67.5000025749208
158,231,3807,6,0,P|237:175|336:204,1,202.500007724762,4|0,0:0|0:0,0:0:0:0:
429,321,4413,1,0,0:0:0:0:
429,321,4565,2,0,P|398:306|371:285,1,67.5000025749208
239,175,4868,1,0,0:0:0:0:
125,301,5019,102,0,P|104:238|124:175,1,135.000005149842,6|0,0:0|0:0,0:0:0:0:
331,359,5474,2,0,L|263:352,1,67.5000025749208
311,140,5777,1,6,0:0:0:0:
354,257,5929,2,0,L|228:243,1,101.250003862381,2|0,0:0|0:0,0:0:0:0:
228,235,6232,6,0,P|199:174|208:108,1,135.000005149842,4|2,0:0|0:0,0:0:0:0:
101,34,6686,2,0,P|98:68|88:100,1,67.5000025749208,8|0,0:0|0:0,0:0:0:0:
75,124,6913,1,0,0:0:0:0:
56,143,6989,1,0,0:0:0:0:
102,341,7141,1,0,0:0:0:0:
79,242,7292,1,8,0:0:0:0:
312,263,7444,102,0,P|270:313|204:316,1,135.000005149842,4|0,0:0|0:0,0:0:0:0:
79,242,7898,2,0,L|66:175,1,67.5000025749208,8|0,0:0|0:0,0:0:0:0:
240,168,8201,2,0,L|227:234,1,67.5000025749208,8|0,0:0|0:0,0:0:0:0:
19,320,8504,2,0,L|31:253,1,67.5000025749208,8|0,0:0|0:0,0:0:0:0:
267,84,8807,6,0,L|279:150,1,67.5000025749208,8|0,0:0|0:0,0:0:0:0:
50,218,9110,2,0,L|37:151,1,67.5000025749208,8|0,0:0|0:0,0:0:0:0:
168,25,9413,1,2,0:0:0:0:
175,54,9489,1,0,0:0:0:0:
168,83,9565,1,2,0:0:0:0:
63,51,9716,1,8,0:0:0:0:
267,84,9868,102,0,L|402:75,1,135.000005149842,4|0,0:0|0:0,0:0:0:0:
117,224,10322,2,0,L|48:217,1,67.5000025749208,8|0,0:0|0:0,0:0:0:0:
198,348,10626,2,0,L|130:354,1,67.5000025749208,10|0,0:0|0:0,0:0:0:0:
288,173,10929,2,0,L|219:156,1,67.5000025749208,8|0,0:0|0:0,0:0:0:0:
387,273,11232,6,0,L|321:289,1,67.5000025749208,10|0,0:0|0:0,0:0:0:0:
467,76,11535,2,0,L|397:56,1,67.5000025749208,8|0,0:0|0:0,0:0:0:0:
448,331,11838,1,8,0:0:0:0:
464,305,11913,1,0,0:0:0:0:
470,275,11989,1,0,0:0:0:0:
466,244,12065,1,2,0:0:0:0:
449,218,12141,1,8,0:0:0:0:
295,278,12292,6,0,P|206:264|122:232,1,180,4|0,0:0|0:0,0:0:0:0:
41,281,12747,2,0,L|30:376,1,90,8|0,0:0|0:0,0:0:0:0:
152,140,13050,1,2,0:0:0:0:
38,190,13201,1,2,0:0:0:0:
112,342,13353,1,8,0:0:0:0:
200,208,13504,22,0,L|205:26,1,180,2|0,0:0|0:0,0:0:0:0:
274,242,13959,2,0,P|257:289|237:331,1,90,8|0,0:0|0:0,0:0:0:0:
63,206,14262,1,0,0:0:0:0:
89,210,14338,1,0,0:0:0:0:
115,214,14413,1,0,0:0:0:0:
297,163,14565,1,8,0:0:0:0:
89,115,14716,86,0,B|52:143|52:143|29:284,1,180,2|0,0:0|0:0,0:0:0:0:
192,269,15171,2,0,L|309:264,1,90,8|0,0:0|0:0,0:0:0:0:
451,187,15474,1,2,0:0:0:0:
462,343,15626,1,2,0:0:0:0:
358,199,15777,1,8,0:0:0:0:
496,85,15929,22,0,L|315:71,1,180,2|0,0:0|0:0,0:0:0:0:
109,150,16383,2,0,P|168:146|212:137,1,90,8|0,0:0|0:0,0:0:0:0:
358,199,16686,2,0,L|295:192,1,45
241,77,16838,1,0,0:0:0:0:
192,236,16989,1,8,0:0:0:0:
441,219,17141,86,0,P|385:284|302:264,1,180,2|0,0:0|0:0,0:0:0:0:
80,271,17595,2,0,L|179:265,1,90,8|0,0:0|0:0,0:0:0:0:
318,133,17898,2,0,L|324:81,2,45
258,324,18201,1,8,0:0:0:0:
178,228,18353,22,0,L|190:40,1,180
424,81,18807,1,8,0:0:0:0:
269,116,18959,1,0,0:0:0:0:
435,49,19110,1,2,0:0:0:0:
465,234,19262,1,2,0:0:0:0:
344,168,19413,1,8,0:0:0:0:
269,333,19565,86,0,B|224:364|224:364|171:302|202:219,1,180,2|0,0:0|0:0,0:0:0:0:
443,268,20019,2,0,L|340:257,1,90,8|0,0:0|0:0,0:0:0:0:
194,134,20322,1,2,0:0:0:0:
122,319,20474,1,2,0:0:0:0:
320,183,20626,1,8,0:0:0:0:
80,164,20777,22,0,P|51:105|136:27,1,180,2|0,0:0|0:0,0:0:0:0:
240,209,21232,2,0,L|231:308,1,90,8|0,0:0|0:0,0:0:0:0:
398,240,21535,1,8,0:0:0:0:
403,213,21610,1,0,0:0:0:0:
406,186,21686,1,0,0:0:0:0:
405,159,21762,1,0,0:0:0:0:
400,133,21838,1,8,0:0:0:0:
394,107,21913,1,0,0:0:0:0:
391,80,21989,1,0,0:0:0:0:
391,53,22065,1,0,0:0:0:0:
396,27,22141,38,0,P|345:37|308:42,1,72,4|0,0:0|0:0,0:0:0:0:
140,108,22444,1,2,0:0:0:0:
232,172,22595,2,0,P|244:220|248:260,1,72,0|2,0:0|0:0,0:0:0:0:
40,320,22898,2,0,P|52:264|64:240,1,72,0|2,0:0|0:0,0:0:0:0:
304,92,23201,86,0,P|336:168|352:252,1,144
280,364,23656,1,2,0:0:0:0:
247,242,23807,1,0,0:0:0:0:
408,304,23959,2,0,P|460:308|496:304,1,72,2|0,0:0|0:0,0:0:0:0:
344,120,24262,2,0,P|332:164|332:204,1,72,2|0,0:0|0:0,0:0:0:0:
500,80,24565,6,0,B|472:32|472:32|436:24|372:32,1,144,2|2,0:0|0:0,0:0:0:0:
188,140,25019,2,0,L|193:222,1,72,0|2,0:0|0:0,0:0:0:0:
360,296,25322,2,0,L|354:213,1,72,0|2,0:0|0:0,0:0:0:0:
100,252,25626,6,0,P|152:304|244:296,1,144
284,115,26080,1,2,0:0:0:0:
193,212,26232,1,0,0:0:0:0:
208,78,26383,1,2,0:0:0:0:
276,196,26535,1,0,0:0:0:0:
152,140,26686,2,0,P|102:133|71:135,1,72,2|0,0:0|0:0,0:0:0:0:
284,115,26989,86,0,P|356:112|428:96,1,144,2|2,0:0|0:0,0:0:0:0:
481,259,27444,2,0,P|431:245|392:238,1,72,0|2,0:0|0:0,0:0:0:0:
134,252,27747,2,0,P|177:219|208:203,1,72,0|2,0:0|0:0,0:0:0:0:
416,352,28050,22,0,P|344:340|264:340,1,144
120,368,28504,2,0,L|128:288,1,72,2|0,0:0|0:0,0:0:0:0:
344,172,28807,2,0,L|356:256,1,72,2|0,0:0|0:0,0:0:0:0:
72,120,29110,2,0,L|80:44,1,72,2|0,0:0|0:0,0:0:0:0:
212,152,29413,86,0,P|232:200|220:304,1,144,2|2,0:0|0:0,0:0:0:0:
20,252,29868,2,0,P|56:240|100:236,1,72,0|2,0:0|0:0,0:0:0:0:
288,352,30171,1,8,0:0:0:0:
124,236,30322,1,2,0:0:0:0:
344,172,30474,22,0,P|372:88|376:12,1,161.999995056153,4|0,0:0|0:0,0:0:0:0:
416,244,30929,2,0,L|428:328,1,80.9999975280763,8|0,0:0|0:0,0:0:0:0:
448,148,31232,1,2,0:0:0:0:
244,208,31383,1,0,0:0:0:0:
360,44,31535,1,8,0:0:0:0:
356,76,31610,1,2,0:0:0:0:
352,108,31686,1,2,0:0:0:0:
348,140,31762,1,8,0:0:0:0:
344,172,31838,70,0,P|272:192|180:128,1,180,4|8,0:0|0:0,0:0:0:0:
416,244,32292,2,0,P|472:264|492:376,1,180,2|0,0:0|0:0,0:0:0:0:
420,332,32747,1,8,0:0:0:0:
432,156,32898,6,0,P|440:108|456:64,1,90
328,260,33201,1,0,0:0:0:0:
224,180,33353,2,0,L|36:164,1,180,8|0,0:0|0:0,0:0:0:0:
8,248,33807,1,2,0:0:0:0:
144,264,33959,1,8,0:0:0:0:
160,132,34110,1,2,0:0:0:0:
24,116,34262,101,2,0:0:0:0:
8,248,34413,1,2,0:0:0:0:
208,344,34565,2,0,P|236:264|196:176,1,180,8|0,0:0|0:0,0:0:0:0:
8,72,35019,2,0,P|68:76|112:104,1,90,2|8,0:0|0:0,0:0:0:0:
352,28,35322,2,0,L|256:52,1,90,2|0,0:0|0:0,0:0:0:0:
144,264,35626,1,2,0:0:0:0:
172,24,35777,2,0,P|168:88|192:140,1,90,8|0,0:0|0:0,0:0:0:0:
284,108,36080,1,2,0:0:0:0:
268,216,36232,1,2,0:0:0:0:
376,212,36383,1,8,0:0:0:0:
360,320,36535,1,2,0:0:0:0:
360,320,36686,6,0,P|448:344|520:272,1,180,4|8,0:2|0:0,0:0:0:0:
268,216,37141,2,0,P|184:190|115:243,1,180,2|0,0:0|0:0,0:0:0:0:
200,280,37595,1,8,0:0:0:0:
364,180,37747,2,0,P|370:99|372:0,1,180,2|0,0:0|0:0,0:0:0:0:
272,56,38201,2,0,L|180:40,1,90,8|0,0:0|0:0,0:0:0:0:
460,116,38504,2,0,P|472:160|476:208,1,90,2|0,0:0|0:0,0:0:0:0:
256,160,38807,2,0,P|220:208|208:244,1,90,8|0,0:0|0:0,0:0:0:0:
388,28,39110,101,2,0:0:0:0:
388,28,39262,1,2,0:0:0:0:
360,220,39413,2,0,P|395:298|512:288,1,180,8|0,0:0|0:0,0:0:0:0:
447,229,39868,1,2,0:0:0:0:
288,328,40019,1,8,0:0:0:0:
376,128,40171,6,0,P|309:79|188:113,1,180,2|0,0:0|0:0,0:0:0:0:
156,204,40626,2,0,L|168:300,1,90,8|0,0:0|0:0,0:0:0:0:
52,168,40929,54,0,L|63:78,1,90,2|0,0:0|0:0,0:0:0:0:
36,268,41232,1,8,0:0:0:0:
16,364,41383,1,2,0:0:0:0:
112,328,41535,102,0,L|260:312,1,135.000005149842,4|0,0:0|0:0,0:0:0:0:
356,296,41989,2,0,L|336:380,1,67.5000025749208,2|8,0:0|0:0,0:0:0:0:
252,164,42292,2,0,L|272:80,1,67.5000025749208,2|0,0:0|0:0,0:0:0:0:
312,216,42595,2,0,B|240:200|248:248|176:208,1,135.000005149842,2|0,0:0|0:0,0:0:0:0:
72,96,43050,38,0,P|116:96|144:124,1,67.5000025749208,2|0,0:0|0:0,0:0:0:0:
96,260,43353,2,0,P|80:216|84:188,1,67.5000025749208,8|0,0:0|0:0,0:0:0:0:
208,56,43656,2,0,P|224:100|220:128,1,67.5000025749208,2|0,0:0|0:0,0:0:0:0:
184,308,43959,101,2,0:0:0:0:
176,192,44110,1,2,0:0:0:0:
296,308,44262,2,0,P|294:341|280:372,1,67.5000025749208,8|0,2:0|0:0,0:0:0:0:
248,232,44565,1,2,0:0:0:0:
344,228,44716,2,0,B|384:240|384:240|400:296|384:348,2,135.000005149842,2|8|0,0:0|0:0|0:0,0:0:0:0:
184,308,45474,38,0,P|176:352|184:380,1,67.5000025749208,8|0,0:0|0:0,0:0:0:0:
300,312,45777,1,2,0:0:0:0:
260,144,45929,1,2,0:0:0:0:
136,248,46080,1,8,0:0:0:0:
308,212,46232,102,0,P|312:156|320:56,1,135.000005149842,4|0,0:2|0:0,0:0:0:0:
148,112,46686,2,0,P|144:168|144:192,1,67.5000025749208,2|0,0:0|0:0,0:0:0:0:
224,52,46989,2,0,P|168:16|92:36,1,135.000005149842,8|0,0:0|0:0,0:0:0:0:
260,144,47444,1,2,0:0:0:0:
336,72,47595,6,0,L|424:60,1,67.5000025749208,2|0,0:0|0:0,0:0:0:0:
316,232,47898,2,0,P|308:272|304:320,1,67.5000025749208,2|0,0:0|0:0,0:0:0:0:
164,164,48201,2,0,P|116:156|28:144,1,135.000005149842,8|8,0:0|0:0,0:0:0:0:
188,260,48656,1,2,0:0:0:0:
188,260,48732,1,2,0:0:0:0:
188,260,48807,22,0,L|96:248,1,67.5000025749208,0|0,1:0|0:0,0:0:0:0:
276,116,49110,2,0,P|236:100|204:84,1,67.5000025749208,0|0,1:0|0:0,0:0:0:0:
292,292,49413,2,0,P|280:348|280:376,1,67.5000025749208,0|0,1:0|0:0,0:0:0:0:
364,148,49716,2,0,P|360:100|360:68,1,67.5000025749208,0|0,1:0|0:0,0:0:0:0:
392,308,50019,101,0,1:0:0:0:
440,224,50171,1,0,0:0:0:0:
272,196,50322,1,0,1:0:0:0:
292,292,50474,1,0,0:0:0:0:
356,232,50626,2,0,B|380:232|380:232|388:224|388:224|428:224,1,67.5000025749208,2|0,1:0|0:0,0:0:0:0:
276,116,50929,2,0,B|252:116|252:116|244:123|244:123|212:124,1,67.5000025749208,2|0,1:0|0:0,0:0:0:0:
336,60,51232,102,0,P|300:108|336:212,1,153.000002918243,0|0,1:0|1:0,0:0:0:0:
352,344,51686,2,0,P|360:292|344:256,1,76.5000014591217,0|0,0:0|1:0,0:0:0:0:
176,276,51989,1,0,1:0:0:0:
256,368,52141,1,0,1:0:0:0:
256,192,52292,6,0,B|220:120|292:124|248:28,1,153.000002918243,8|0,1:2|0:0,0:0:0:0:
177,84,52747,2,0,P|141:80|101:64,1,67.5000025749208,2|0,0:0|0:0,0:0:0:0:
177,84,53050,1,2,0:0:0:0:
331,155,53201,2,0,P|367:151|407:135,1,67.5000025749208,2|0,0:0|0:0,0:0:0:0:
461,284,53504,22,0,P|405:348|316:335,1,180,4|2,1:0|1:2,0:0:0:0:
117,271,53959,2,0,P|114:327|130:369,1,90,8|2,0:0|0:2,0:0:0:0:
372,267,54262,1,0,1:0:0:0:
125,158,54413,1,2,1:2:0:0:
107,155,54489,1,2,1:2:0:0:
89,153,54565,1,8,0:0:0:0:
223,45,54716,6,2,B|250:54|271:43|271:43|293:66|293:66|334:51|334:51|360:63|397:56,1,180,4|2,1:2|1:0,1:0:0:0:
460,324,55171,2,0,L|466:234,1,90,10|0,0:1|0:0,0:0:0:0:
500,74,55474,1,2,1:1:0:0:
323,127,55626,2,0,L|329:216,1,90,2|8,1:1|0:0,0:0:0:0:
255,342,55929,102,0,P|189:349|122:259,1,180,4|2,1:1|1:2,0:0:0:0:
89,142,56383,1,8,0:0:0:0:
24,319,56535,1,2,0:2:0:0:
213,264,56686,1,0,1:0:0:0:
8,186,56838,2,0,P|3:139|7:97,1,90,2|8,1:2|0:0,0:0:0:0:
331,111,57141,6,2,P|341:187|334:298,1,180,4|2,1:2|1:0,1:0:0:0:
336,290,57595,1,10,0:1:0:0:
109,311,57747,1,0,1:2:0:0:
109,311,57822,1,0,1:0:0:0:
109,311,57898,1,2,1:1:0:0:
226,344,58050,2,0,L|219:235,1,90,2|8,1:1|0:0,0:0:0:0:
127,114,58353,102,0,B|186:106|186:106|242:128|242:128|308:121,1,180,4|2,1:0|1:2,0:0:0:0:
360,26,58807,2,0,L|267:36,1,90,8|2,0:0|0:2,0:0:0:0:
163,28,59110,1,0,1:0:0:0:
284,231,59262,1,2,0:2:0:0:
87,209,59413,2,0,L|180:199,1,90,8|2,0:0|0:2,0:0:0:0:
370,200,59716,6,0,P|371:253|360:290,1,90,0|2,1:0|0:2,0:0:0:0:
83,332,60019,2,0,P|131:300|219:313,1,135,12|0,0:2|0:0,0:0:0:0:
236,320,60322,1,0,1:0:0:0:
142,154,60474,2,0,P|141:101|152:64,1,90,2|12,1:2|0:2,0:0:0:0:
277,221,60777,1,2,1:1:0:0:
53,135,60929,102,2,B|159:162|134:98|228:117,1,180,4|2,1:2|1:0,1:0:0:0:
90,54,61383,1,12,0:0:0:0:
201,211,61535,1,0,1:0:0:0:
53,135,61686,1,10,0:1:0:0:
241,34,61838,1,0,1:0:0:0:
121,271,61989,6,0,L|30:281,1,90,6|0,1:1|0:0,0:0:0:0:
245,310,62292,1,2,1:2:0:0:
262,312,62368,1,2,1:2:0:0:
281,315,62444,2,0,L|289:258,1,45,2|0,1:1|0:2,0:0:0:0:
384,259,62595,2,0,L|376:202,1,45,2|2,1:2|0:2,0:0:0:0:
274,186,62747,2,0,L|282:129,1,45,2|0,1:1|0:2,0:0:0:0:
371,102,62898,1,2,1:2:0:0:
371,102,62974,1,2,1:2:0:0:
371,102,63050,1,2,1:1:0:0:
176,164,63201,102,0,P|108:160|40:72,1,180,4|2,1:1|1:2,0:0:0:0:
371,102,63656,2,0,L|468:88,1,90,8|2,0:0|0:0,0:0:0:0:
272,56,63959,1,0,1:0:0:0:
324,208,64110,2,0,P|336:256|336:304,1,90,2|8,0:0|0:0,0:0:0:0:
60,272,64413,6,2,B|180:248|180:248|232:276,1,180,6|2,1:0|1:0,1:0:0:0:
46,166,64868,2,0,P|38:106|42:70,1,90,10|2,1:0|0:0,0:0:0:0:
264,100,65171,1,2,1:0:0:0:
148,180,65322,1,2,1:0:0:0:
176,32,65474,1,8,0:0:0:0:
336,168,65626,102,0,P|364:240|356:352,1,180,4|2,1:0|0:0,0:0:0:0:
172,336,66080,2,0,P|128:336|72:344,1,90,8|2,0:0|0:0,0:0:0:0:
256,252,66383,1,0,1:0:0:0:
148,180,66535,2,0,P|104:160|52:148,1,90,2|8,0:0|0:0,0:0:0:0:
352,228,66838,6,2,P|356:144|352:44,1,180,6|2,1:0|1:0,1:0:0:0:
264,192,67292,1,10,1:0:0:0:
356,328,67444,1,2,0:0:0:0:
432,184,67595,1,10,1:0:0:0:
268,288,67747,1,2,0:0:0:0:
344,132,67898,1,8,0:0:0:0:
172,224,68050,102,0,B|112:220|112:220|64:240|64:240|-12:232,1,180,4|2,1:0|0:0,0:0:0:0:
224,324,68504,2,0,L|128:320,1,90,8|2,0:0|0:0,0:0:0:0:
228,140,68807,2,0,L|324:144,1,90,0|2,1:0|0:0,0:0:0:0:
464,288,69110,2,0,P|468:244|468:196,1,90,8|0,0:0|0:0,0:0:0:0:
336,32,69413,6,0,P|320:92|320:168,1,135,4|0,0:0|0:0,0:0:0:0:
324,204,69716,2,0,P|276:191|228:191,1,90,8|2,0:0|0:0,0:0:0:0:
92,224,70019,1,2,1:2:0:0:
188,320,70171,1,0,1:0:0:0:
152,128,70322,1,8,0:0:0:0:
12,188,70474,102,0,P|-16:256|32:360,1,180,4|2,0:0|1:2,0:0:0:0:
276,352,70929,2,0,L|264:256,1,90,8|2,0:0|0:0,0:0:0:0:
180,192,71232,1,0,1:0:0:0:
364,288,71383,1,2,0:0:0:0:
176,300,71535,6,2,P|144:328|108:364,1,90,10|2,0:0|0:0,0:0:0:0:
272,184,71838,2,0,P|276:120|260:44,1,135,0|0,1:0|0:0,0:0:0:0:
263,51,72141,2,0,L|357:61,1,90,8|2,0:0|1:2,0:0:0:0:
168,128,72444,1,0,1:0:0:0:
140,124,72519,1,0,1:0:0:0:
112,120,72595,1,0,1:0:0:0:
84,116,72671,1,0,1:0:0:0:
60,112,72747,1,0,1:0:0:0:
24,268,72898,6,0,P|80:228|172:236,1,135,4|0,0:0|0:0,0:0:0:0:
176,240,73201,1,2,0:0:0:0:
112,344,73353,1,8,0:0:0:0:
84,116,73504,1,2,0:0:0:0:
340,192,73656,21,8,0:0:0:0:
188,40,73807,1,2,0:0:0:0:
160,260,73959,2,0,L|264:244,1,90,8|0,0:0|0:0,0:0:0:0:
476,204,74262,2,0,P|488:248|480:300,1,90,8|0,0:0|0:0,0:0:0:0:
404,100,74565,85,8,0:0:0:0:
192,280,74716,1,2,0:0:0:0:
196,120,74868,2,0,L|256:96,1,45,8|0,0:0|1:0,0:0:0:0:
340,192,75019,1,0,1:0:0:0:
344,212,75095,1,0,1:0:0:0:
348,232,75171,2,0,L|360:296,1,45,8|0,0:0|0:0,0:0:0:0:
276,336,75322,6,0,P|200:376|108:340,1,180,4|0,0:0|0:0,0:0:0:0:
96,96,75777,1,8,0:0:0:0:
192,280,75929,1,2,0:0:0:0:
32,240,76080,5,8,0:0:0:0:
90,111,76232,1,2,0:0:0:0:
232,196,76383,1,8,0:0:0:0:
232,196,76459,1,0,1:0:0:0:
232,196,76535,1,0,1:0:0:0:
232,196,76610,1,0,1:0:0:0:
232,196,76686,86,0,P|296:200|380:148,1,135,4|0,0:0|0:0,0:0:0:0:
359,171,76989,2,0,P|357:229|401:289,1,135
444,208,77292,2,0,P|440:124|280:116,1,270,2|0,0:0|0:0,0:0:0:0:
285,109,78504,38,2,B|248:104|248:104|224:120|224:120|204:104|204:104|168:128|112:104,1,168.750006437302,2|0,0:1|0:0,1:0:0:0:
104,96,78959,70,0,L|9:100,1,90,4|0,0:0|0:0,0:0:0:0:
160,232,79262,1,2,0:0:0:0:
285,109,79413,2,0,P|301:57|305:17,1,90,8|0,0:0|0:0,0:0:0:0:
288,268,79716,2,0,P|276:304|275:365,1,90,2|0,0:0|0:0,0:0:0:0:
364,136,80019,1,8,0:0:0:0:
200,216,80171,6,0,L|108:228,1,90
196,32,80474,1,2,0:0:0:0:
196,32,80626,2,0,L|216:120,1,90,8|0,0:0|0:0,0:0:0:0:
288,268,80929,1,2,0:0:0:0:
304,92,81080,1,0,0:0:0:0:
200,216,81232,1,8,0:0:0:0:
384,192,81383,102,0,L|416:276,1,90
128,168,81686,2,0,L|143:80,1,90,2|8,0:0|0:0,0:0:0:0:
256,252,81989,1,2,0:0:0:0:
256,252,82065,1,0,0:0:0:0:
256,252,82141,1,0,0:0:0:0:
152,348,82292,1,0,0:0:0:0:
68,232,82444,1,8,0:0:0:0:
184,88,82595,6,0,L|167:176,1,90,2|0,0:0|0:0,0:0:0:0:
228,328,82898,1,2,0:0:0:0:
360,220,83050,2,0,B|412:212|452:228|496:216,1,135,10|0,0:0|0:0,0:0:0:0:
488,200,83353,2,0,P|472:136|468:108,1,90,2|0,0:0|0:0,0:0:0:0:
336,36,83656,1,8,0:0:0:0:
332,52,83732,1,8,0:0:0:0:
328,68,83807,1,8,0:0:0:0:
324,84,83883,1,8,0:0:0:0:
320,100,83959,70,0,B|316:140|316:140|328:188,1,90,4|0,0:0|0:0,0:0:0:0:
420,228,84262,1,2,0:0:0:0:
256,260,84413,2,0,B|268:296|268:296|268:356,1,90,8|0,0:0|0:0,0:0:0:0:
232,136,84716,1,2,0:0:0:0:
340,248,84868,1,8,0:0:0:0:
432,124,85019,1,4,0:0:0:0:
256,192,85095,12,4,86737,3:0:0:0:
