osu file format v14

[General]
AudioFilename: audio.mp3
AudioLeadIn: 500
PreviewTime: 52595
Countdown: 0
SampleSet: Soft
StackLeniency: 0.3
Mode: 0
LetterboxInBreaks: 0
EpilepsyWarning: 1
WidescreenStoryboard: 1

[Editor]
DistanceSpacing: 1.1
BeatDivisor: 4
GridSize: 32
TimelineZoom: 1.6

[Metadata]
Title:Twintail Dreamer! (TV Size)
TitleUnicode:ツインテール・ドリーマー! (TV Size)
Artist:Twin-Tails
ArtistUnicode:ツインテイルズ
Creator:Moecho
Version:CRN's Black Long Hair Extra
Source:俺、ツインテールになります。
Tags:Twintails OreTwi Ore, Tsuinteru Tsuintēru ni Narimasu. Gonna be the Twin-Tail!! テイルレッド Tail Red 上坂すみれ Uesaka Sumire テイルブルー Blue 相坂優歌 Aisaka Yuuka テイルイエロー Yellow 赤﨑千夏 Akasaki Chinatsu Ending Theme ED TV Size edit Anime papiyon japanese pop j-pop jpop Kodora Laurier Natteke Kite HabiHolic Loneight L18 Lecana Giralda captin1 jonathanlfj apaffy kisata Nyquill RLC LunarSakuya Mythol meiikyuu Syameimaru-Aya Ayaya caren_sk CRN kiddly Axarious Delis ShirohaMyMommy SMM Koiyuki Minakami Yuki yf_bmp yf Skystar Amamiya Yuko rui rustbell spro sprosive Snow Note 7odoa bakabaka Hollow Wings HW
BeatmapID:3592568
BeatmapSetID:1115213

[Difficulty]
HPDrainRate:7
CircleSize:4.2
OverallDifficulty:8.5
ApproachRate:9.4
SliderMultiplier:1.7
SliderTickRate:1

[Events]
//Background and Video events
0,0,"bg.jpg",0,0
//Break Periods
//Storyboard Layer 0 (Background)
Sprite,Background,Centre,"sb\sprites\pixel-white.png",320,240 F,0,-75,,0,1 C,0,-75,,0,0,0 V,0,-75,,880,480 F,0,89604,,1,0
Sprite,Background,Centre,"bg.jpg",320,240 F,0,-2574,-1574,0,0.75 S,0,-1574,,0.4444444 F,0,322,472,0.75,0
Sprite,Background,Centre,"bg.jpg",320,240 F,0,88110,89110,0,0.75 S,0,89110,,0.4444444 F,0,89769,89919,0.75,0
Sprite,Background,Centre,"sb\sprites\bg-alt.jpg",320,240 F,0,172,322,0,0.75 S,0,322,,0.4444444 F,0,21141,22291,0.75,0
Sprite,Background,Centre,"sb\sprites\bg-alt.jpg",320,240 F,0,53354,53504,0,0.75 S,0,53504,,0.4444444 F,0,88110,89260,0.75,0
Sprite,Background,Centre,"sb\sprites\bg-alt-bw.jpg",320,240 F,0,21991,22291,0,0.75 S,0,22141,,0.4444444 F,0,39671,40471,0.75,0
Sprite,Background,Centre,"sb\sprites\bg-alt-bw.jpg",320,240 F,0,50476,50776,0,0.75 S,0,50626,,0.4444444 F,0,51792,52592,0.75,0
Sprite,Background,Centre,"sb\sprites\tail-red-ci.jpg",320,240 F,0,40779,41079,0,0.75 S,0,40929,,0.4444444 F,0,48807,50307,0.75,0
Sprite,Background,Centre,"sb\sprites\tail-blue-ci.jpg",320,240 F,0,42900,43200,0,0.75 S,0,43050,,0.4444444 F,0,48807,50307,0.75,0
Sprite,Background,Centre,"sb\sprites\tail-yellow-ci.jpg",320,240 F,0,45324,45624,0,0.75 S,0,45474,,0.4444444 F,0,48807,50307,0.75,0
Sprite,Background,Centre,"sb\sprites\pixel-white.png",320,240 V,0,2595,,854,480 F,0,2595,3195,0.15,0
Sprite,Background,Centre,"sb\sprites\pixel-white.png",320,240 V,0,3807,,854,480 F,0,3807,4407,0.15,0
Sprite,Background,Centre,"sb\sprites\pixel-white.png",320,240 V,0,5019,,854,480 F,0,5019,5619,0.15,0
Sprite,Background,Centre,"sb\sprites\pixel-white.png",320,240 V,0,5777,,854,480 F,0,5777,6377,0.15,0
Sprite,Background,Centre,"sb\sprites\pixel-white.png",320,240 V,0,6232,,854,480 F,0,6232,6832,0.15,0
Sprite,Background,Centre,"sb\sprites\pixel-white.png",320,240 V,0,6989,,854,480 F,0,6989,7589,0.15,0
Sprite,Background,Centre,"sb\sprites\pixel-white.png",320,240 V,0,7444,,854,480 F,0,7444,8044,0.15,0
Sprite,Background,Centre,"sb\sprites\pixel-white.png",320,240 V,0,9868,,854,480 F,0,9868,10468,0.15,0
Sprite,Background,Centre,"sb\sprites\pixel-white.png",320,240 V,0,12292,,854,480 F,0,12292,12892,0.15,0
Sprite,Background,Centre,"sb\sprites\pixel-white.png",320,240 V,0,13504,,854,480 F,0,13504,14104,0.15,0
Sprite,Background,Centre,"sb\sprites\pixel-white.png",320,240 V,0,14716,,854,480 F,0,14716,15316,0.15,0
Sprite,Background,Centre,"sb\sprites\pixel-white.png",320,240 V,0,15929,,854,480 F,0,15929,16529,0.15,0
Sprite,Background,Centre,"sb\sprites\pixel-white.png",320,240 V,0,17141,,854,480 F,0,17141,17741,0.15,0
Sprite,Background,Centre,"sb\sprites\pixel-white.png",320,240 V,0,18352,,854,480 F,0,18352,18952,0.15,0
Sprite,Background,Centre,"sb\sprites\pixel-white.png",320,240 V,0,19565,,854,480 F,0,19565,20165,0.15,0
Sprite,Background,Centre,"sb\sprites\pixel-white.png",320,240 V,0,20019,,854,480 F,0,20019,20619,0.15,0
Sprite,Background,Centre,"sb\sprites\pixel-white.png",320,240 V,0,20777,,854,480 F,0,20777,21377,0.15,0
Sprite,Background,Centre,"sb\sprites\pixel-white.png",320,240 V,0,21232,,854,480 F,0,21232,21832,0.15,0
Sprite,Background,Centre,"sb\sprites\pixel-white.png",320,240 V,0,22141,,854,480 F,0,22141,22741,0.15,0
Sprite,Background,Centre,"sb\sprites\pixel-white.png",320,240 V,0,30474,,854,480 F,0,30474,31074,0.15,0
Sprite,Background,Centre,"sb\sprites\pixel-white.png",320,240 V,0,31838,,854,480 F,0,31838,32438,0.15,0
Sprite,Background,Centre,"sb\sprites\pixel-white.png",320,240 V,0,34262,,854,480 F,0,34262,34862,0.15,0
Sprite,Background,Centre,"sb\sprites\pixel-white.png",320,240 V,0,36686,,854,480 F,0,36686,37286,0.15,0
Sprite,Background,Centre,"sb\sprites\pixel-white.png",320,240 V,0,39110,,854,480 F,0,39110,39710,0.15,0
Sprite,Background,Centre,"sb\sprites\pixel-white.png",320,240 V,0,40171,,854,480 F,0,40171,40771,0.15,0
Sprite,Background,Centre,"sb\sprites\pixel-white.png",320,240 V,0,41535,,854,480 F,0,41535,42135,0.15,0
Sprite,Background,Centre,"sb\sprites\pixel-white.png",320,240 V,0,46232,,854,480 F,0,46232,46832,0.15,0
Sprite,Background,Centre,"sb\sprites\pixel-white.png",320,240 V,0,48807,,854,480 F,0,48807,49407,0.15,0
Sprite,Background,Centre,"sb\sprites\pixel-white.png",320,240 V,0,53504,,854,480 F,0,53504,54104,0.15,0
Sprite,Background,Centre,"sb\sprites\pixel-white.png",320,240 V,0,54716,,854,480 F,0,54716,55316,0.15,0
Sprite,Background,Centre,"sb\sprites\pixel-white.png",320,240 V,0,55929,,854,480 F,0,55929,56529,0.15,0
Sprite,Background,Centre,"sb\sprites\pixel-white.png",320,240 V,0,57141,,854,480 F,0,57141,57741,0.15,0
Sprite,Background,Centre,"sb\sprites\pixel-white.png",320,240 V,0,58353,,854,480 F,0,58353,58953,0.15,0
Sprite,Background,Centre,"sb\sprites\pixel-white.png",320,240 V,0,60929,,854,480 F,0,60929,61529,0.15,0
Sprite,Background,Centre,"sb\sprites\pixel-white.png",320,240 V,0,61383,,854,480 F,0,61383,61983,0.15,0
Sprite,Background,Centre,"sb\sprites\pixel-white.png",320,240 V,0,61686,,854,480 F,0,61686,62286,0.15,0
Sprite,Background,Centre,"sb\sprites\pixel-white.png",320,240 V,0,61989,,854,480 F,0,61989,62589,0.15,0
Sprite,Background,Centre,"sb\sprites\pixel-white.png",320,240 V,0,63201,,854,480 F,0,63201,63801,0.15,0
Sprite,Background,Centre,"sb\sprites\pixel-white.png",320,240 V,0,64413,,854,480 F,0,64413,65013,0.15,0
Sprite,Background,Centre,"sb\sprites\pixel-white.png",320,240 V,0,65626,,854,480 F,0,65626,66226,0.15,0
Sprite,Background,Centre,"sb\sprites\pixel-white.png",320,240 V,0,66838,,854,480 F,0,66838,67438,0.15,0
Sprite,Background,Centre,"sb\sprites\pixel-white.png",320,240 V,0,68050,,854,480 F,0,68050,68650,0.15,0
Sprite,Background,Centre,"sb\sprites\pixel-white.png",320,240 V,0,69413,,854,480 F,0,69413,70013,0.15,0
Sprite,Background,Centre,"sb\sprites\pixel-white.png",320,240 V,0,70019,,854,480 F,0,70019,70619,0.15,0
Sprite,Background,Centre,"sb\sprites\pixel-white.png",320,240 V,0,70474,,854,480 F,0,70474,71074,0.15,0
Sprite,Background,Centre,"sb\sprites\pixel-white.png",320,240 V,0,71838,,854,480 F,0,71838,72438,0.15,0
Sprite,Background,Centre,"sb\sprites\pixel-white.png",320,240 V,0,72141,,854,480 F,0,72141,72741,0.15,0
Sprite,Background,Centre,"sb\sprites\pixel-white.png",320,240 V,0,72898,,854,480 F,0,72898,73498,0.15,0
Sprite,Background,Centre,"sb\sprites\pixel-white.png",320,240 V,0,75322,,854,480 F,0,75322,75922,0.15,0
Sprite,Background,Centre,"sb\sprites\pixel-white.png",320,240 V,0,76686,,854,480 F,0,76686,77286,0.15,0
Sprite,Background,Centre,"sb\sprites\pixel-white.png",320,240 V,0,78959,,854,480 F,0,78959,79559,0.15,0
Sprite,Background,Centre,"sb\sprites\pixel-white.png",320,240 V,0,80171,,854,480 F,0,80171,80771,0.15,0
Sprite,Background,Centre,"sb\sprites\pixel-white.png",320,240 V,0,81383,,854,480 F,0,81383,81983,0.15,0
Sprite,Background,Centre,"sb\sprites\pixel-white.png",320,240 V,0,82595,,854,480 F,0,82595,83195,0.15,0
Sprite,Background,Centre,"sb\sprites\pixel-white.png",320,240 V,0,83959,,854,480 F,0,83959,84559,0.15,0
Sprite,Background,Centre,"sb\sprites\pixel-white.png",320,240 V,0,84413,,854,480 F,0,84413,85013,0.15,0
Sprite,Background,Centre,"sb\sprites\pixel-white.png",320,240 V,0,85019,,854,480 F,0,85019,85619,0.15,0
//Storyboard Layer 1 (Fail)
//Storyboard Layer 2 (Pass)
//Storyboard Layer 3 (Foreground)
Sprite,Foreground,Centre,"sb\lyrics\0063.png",0,0 F,0,12192,12392,0,0.8 M,0,12292,,663.45,399.9 S,0,12292,,0.45 C,0,12292,,255,255,255 F,0,86889,87089,0.8,0
Sprite,Foreground,Centre,"sb\lyrics\0061.png",0,0 F,0,12192,12392,0,0.8 M,0,12292,,674.025,400.125 S,0,12292,,0.45 C,0,12292,,255,255,255 F,0,86889,87089,0.8,0
Sprite,Foreground,Centre,"sb\lyrics\0072.png",0,0 F,0,12192,12392,0,0.8 M,0,12292,,683.7001,399.9 S,0,12292,,0.45 C,0,12292,,255,255,255 F,0,86889,87089,0.8,0
Sprite,Foreground,Centre,"sb\lyrics\0065.png",0,0 F,0,12192,12392,0,0.8 M,0,12292,,693.3751,400.575 S,0,12292,,0.45 C,0,12292,,255,255,255 F,0,86889,87089,0.8,0
Sprite,Foreground,Centre,"sb\lyrics\006e.png",0,0 F,0,12192,12392,0,0.8 M,0,12292,,703.7251,399.9 S,0,12292,,0.45 C,0,12292,,255,255,255 F,0,86889,87089,0.8,0
Sprite,Foreground,Centre,"sb\lyrics\005f.png",0,0 F,0,12192,12392,0,0.8 M,0,12292,,713.4001,407.55 S,0,12292,,0.45 C,0,12292,,255,255,255 F,0,86889,87089,0.8,0
Sprite,Foreground,Centre,"sb\lyrics\0073.png",0,0 F,0,12192,12392,0,0.8 M,0,12292,,724.2001,400.35 S,0,12292,,0.45 C,0,12292,,255,255,255 F,0,86889,87089,0.8,0
Sprite,Foreground,Centre,"sb\lyrics\006b.png",0,0 F,0,12192,12392,0,0.8 M,0,12292,,734.1002,398.1 S,0,12292,,0.45 C,0,12292,,255,255,255 F,0,86889,87089,0.8,0
Sprite,Foreground,Centre,"sb\lyrics\0043.png",0,0 F,0,12192,12392,0,0.8 M,0,12292,,572.15,433.7 S,0,12292,,0.3 C,0,12292,,255,255,255 F,0,86889,87089,0.8,0
Sprite,Foreground,Centre,"sb\lyrics\0052.png",0,0 F,0,12192,12392,0,0.8 M,0,12292,,578.6,433.4 S,0,12292,,0.3 C,0,12292,,255,255,255 F,0,86889,87089,0.8,0
Sprite,Foreground,Centre,"sb\lyrics\004e.png",0,0 F,0,12192,12392,0,0.8 M,0,12292,,585.2,433.55 S,0,12292,,0.3 C,0,12292,,255,255,255 F,0,86889,87089,0.8,0
Sprite,Foreground,Centre,"sb\lyrics\0027.png",0,0 F,0,12192,12392,0,0.8 M,0,12292,,590.45,430.25 S,0,12292,,0.3 C,0,12292,,255,255,255 F,0,86889,87089,0.8,0
Sprite,Foreground,Centre,"sb\lyrics\0073.png",0,0 F,0,12192,12392,0,0.8 M,0,12292,,598.3999,434.9 S,0,12292,,0.3 C,0,12292,,255,255,255 F,0,86889,87089,0.8,0
Sprite,Foreground,Centre,"sb\lyrics\0042.png",0,0 F,0,12192,12392,0,0.8 M,0,12292,,609.3499,433.55 S,0,12292,,0.3 C,0,12292,,255,255,255 F,0,86889,87089,0.8,0
Sprite,Foreground,Centre,"sb\lyrics\006c.png",0,0 F,0,12192,12392,0,0.8 M,0,12292,,615.7999,433.4 S,0,12292,,0.3 C,0,12292,,255,255,255 F,0,86889,87089,0.8,0
Sprite,Foreground,Centre,"sb\lyrics\0061.png",0,0 F,0,12192,12392,0,0.8 M,0,12292,,622.5499,434.75 S,0,12292,,0.3 C,0,12292,,255,255,255 F,0,86889,87089,0.8,0
Sprite,Foreground,Centre,"sb\lyrics\0063.png",0,0 F,0,12192,12392,0,0.8 M,0,12292,,628.6998,434.6 S,0,12292,,0.3 C,0,12292,,255,255,255 F,0,86889,87089,0.8,0
Sprite,Foreground,Centre,"sb\lyrics\006b.png",0,0 F,0,12192,12392,0,0.8 M,0,12292,,635.5998,433.4 S,0,12292,,0.3 C,0,12292,,255,255,255 F,0,86889,87089,0.8,0
Sprite,Foreground,Centre,"sb\lyrics\004c.png",0,0 F,0,12192,12392,0,0.8 M,0,12292,,646.5498,433.55 S,0,12292,,0.3 C,0,12292,,255,255,255 F,0,86889,87089,0.8,0
Sprite,Foreground,Centre,"sb\lyrics\006f.png",0,0 F,0,12192,12392,0,0.8 M,0,12292,,652.8498,434.6 S,0,12292,,0.3 C,0,12292,,255,255,255 F,0,86889,87089,0.8,0
Sprite,Foreground,Centre,"sb\lyrics\006e.png",0,0 F,0,12192,12392,0,0.8 M,0,12292,,659.7498,434.6 S,0,12292,,0.3 C,0,12292,,255,255,255 F,0,86889,87089,0.8,0
Sprite,Foreground,Centre,"sb\lyrics\0067.png",0,0 F,0,12192,12392,0,0.8 M,0,12292,,665.8997,435.35 S,0,12292,,0.3 C,0,12292,,255,255,255 F,0,86889,87089,0.8,0
Sprite,Foreground,Centre,"sb\lyrics\0048.png",0,0 F,0,12192,12392,0,0.8 M,0,12292,,676.9997,433.55 S,0,12292,,0.3 C,0,12292,,255,255,255 F,0,86889,87089,0.8,0
Sprite,Foreground,Centre,"sb\lyrics\0061.png",0,0 F,0,12192,12392,0,0.8 M,0,12292,,683.7497,434.75 S,0,12292,,0.3 C,0,12292,,255,255,255 F,0,86889,87089,0.8,0
Sprite,Foreground,Centre,"sb\lyrics\0069.png",0,0 F,0,12192,12392,0,0.8 M,0,12292,,690.0497,433.4 S,0,12292,,0.3 C,0,12292,,255,255,255 F,0,86889,87089,0.8,0
Sprite,Foreground,Centre,"sb\lyrics\0072.png",0,0 F,0,12192,12392,0,0.8 M,0,12292,,696.7996,434.6 S,0,12292,,0.3 C,0,12292,,255,255,255 F,0,86889,87089,0.8,0
Sprite,Foreground,Centre,"sb\lyrics\0045.png",0,0 F,0,12192,12392,0,0.8 M,0,12292,,707.7496,433.55 S,0,12292,,0.3 C,0,12292,,255,255,255 F,0,86889,87089,0.8,0
Sprite,Foreground,Centre,"sb\lyrics\0078.png",0,0 F,0,12192,12392,0,0.8 M,0,12292,,714.1996,434.75 S,0,12292,,0.3 C,0,12292,,255,255,255 F,0,86889,87089,0.8,0
Sprite,Foreground,Centre,"sb\lyrics\0074.png",0,0 F,0,12192,12392,0,0.8 M,0,12292,,720.6496,433.7 S,0,12292,,0.3 C,0,12292,,255,255,255 F,0,86889,87089,0.8,0
Sprite,Foreground,Centre,"sb\lyrics\0072.png",0,0 F,0,12192,12392,0,0.8 M,0,12292,,727.3995,434.6 S,0,12292,,0.3 C,0,12292,,255,255,255 F,0,86889,87089,0.8,0
Sprite,Foreground,Centre,"sb\lyrics\0061.png",0,0 F,0,12192,12392,0,0.8 M,0,12292,,734.1495,434.75 S,0,12292,,0.3 C,0,12292,,255,255,255 F,0,86889,87089,0.8,0
//Storyboard Layer 4 (Overlay)
//Storyboard Sound Samples

[TimingPoints]
323,303.030303030303,4,2,50,50,1,0
1838,-100,4,2,50,75,0,0
2292,-100,4,2,50,75,0,0
2595,-133.333333333333,4,2,50,60,0,0
3353,-133.333333333333,4,2,50,60,0,0
4262,-133.333333333333,4,2,50,60,0,0
4565,-133.333333333333,4,2,50,60,0,0
5474,-133.333333333333,4,2,50,60,0,0
5929,-133.333333333333,4,2,50,60,0,0
6535,-133.333333333333,4,2,50,60,0,0
6686,-133.333333333333,4,2,50,65,0,0
7444,-133.333333333333,4,2,50,70,0,0
12141,-111.111111111111,4,2,50,70,0,0
12292,-111.111111111111,4,2,50,75,0,0
22141,-111.111111111111,4,2,50,50,0,0
30474,-111.111111111111,4,2,50,55,0,0
31838,-111.111111111111,4,2,50,60,0,0
41535,-111.111111111111,4,2,50,55,0,0
48807,-111.111111111111,4,2,50,60,0,0
51232,-111.111111111111,4,2,50,65,0,0
52747,-111.111111111111,4,2,50,35,0,0
53504,-100,4,2,50,75,0,1
72898,-83.3333333333333,4,2,50,70,0,1
76686,-160,4,2,50,65,0,0
77292,-80,4,2,50,65,0,0
77747,-133.333333333333,4,2,50,65,0,0
78656,-133.333333333333,4,2,50,65,0,0
78959,-133.333333333333,4,2,50,75,0,0
83959,-133.333333333333,4,2,50,80,0,0
85322,-133.333333333333,4,2,50,70,0,0
85626,-133.333333333333,4,2,50,60,0,0
85929,-133.333333333333,4,2,50,50,0,0
86232,-133.333333333333,4,2,50,40,0,0
86585,-133.333333333333,4,2,50,25,0,0

[Colours]
Combo1 : 192,192,192
Combo2 : 255,50,50
Combo3 : 255,125,125
Combo4 : 25,100,255
Combo5 : 50,150,255
Combo6 : 255,255,50
Combo7 : 255,255,150
Combo8 : 128,128,128

[HitObjects]
256,224,323,101,2,0:0:0:0:
256,368,474,1,0,0:0:0:0:
256,224,626,1,0,0:0:0:0:
256,368,777,1,0,0:0:0:0:
352,288,1232,5,2,0:0:0:0:
160,288,1383,1,0,0:0:0:0:
352,288,1535,1,0,0:0:0:0:
160,288,1686,1,0,0:0:0:0:
256,96,1838,69,8,0:0:0:0:
256,128,1913,1,8,0:0:0:0:
256,160,1989,1,8,1:2:0:0:
256,192,2065,1,8,1:2:0:0:
256,224,2141,1,8,1:2:0:0:
150,174,2292,5,10,1:2:0:0:
150,174,2595,38,0,P|85:187|21:180,1,127.500004863739,6|0,1:2|0:0,0:0:0:0:
25,181,3050,1,2,0:0:0:0:
31,277,3201,2,0,L|21:352,1,63.7500024318696
126,374,3504,2,0,L|136:299,1,63.7500024318696,2|0,0:0|0:0,0:0:0:0:
150,174,3807,5,6,1:2:0:0:
150,174,4262,2,0,P|181:170|229:174,1,63.7500024318696,2|0,0:0|0:0,0:0:0:0:
287,233,4565,2,0,P|324:238|366:233,1,63.7500024318696,0|2,0:0|0:0,0:0:0:0:
512,206,4868,1,0,0:0:0:0:
429,272,5019,2,0,P|421:211|427:131,1,127.500004863739,6|0,1:2|0:0,0:0:0:0:
447,15,5474,1,2,0:0:0:0:
330,68,5626,1,0,0:0:0:0:
447,15,5777,2,0,P|451:47|444:85,1,63.7500024318696,6|2,1:2|1:2,0:0:0:0:
355,202,6080,1,0,0:0:0:0:
429,272,6232,102,0,L|505:268,1,63.7500024318696,6|0,1:2|0:0,0:0:0:0:
335,332,6535,1,0,1:0:0:0:
256,192,6686,1,10,0:0:0:0:
256,192,6762,1,8,0:0:0:0:
256,192,6838,1,8,1:2:0:0:
256,192,6913,1,8,0:0:0:0:
256,192,6989,1,14,1:2:0:0:
194,291,7141,1,8,1:2:0:0:
131,128,7292,1,10,1:2:0:0:
83,272,7444,22,0,L|7:268,1,63.7500024318696,6|0,1:2|0:0,0:0:0:0:
265,327,7747,2,0,L|269:251,1,63.7500024318696,0|10,1:0|1:2,0:0:0:0:
203,97,8050,2,0,L|199:173,2,63.7500024318696,0|10|0,1:0|1:2|1:0,0:0:0:0:
207,8,8504,1,10,1:2:0:0:
140,58,8656,2,0,L|76:16,1,63.7500024318696,0|10,1:0|1:2,0:0:0:0:
321,26,8959,2,0,L|267:60,1,63.7500024318696,0|10,1:0|1:2,0:0:0:0:
69,182,9262,1,0,1:0:0:0:
164,240,9413,1,10,1:2:0:0:
170,272,9489,1,8,1:2:0:0:
176,304,9565,1,8,1:2:0:0:
180,335,9641,1,8,1:2:0:0:
186,367,9716,1,10,1:2:0:0:
304,287,9868,21,6,1:2:0:0:
95,346,10019,1,0,0:0:0:0:
158,198,10171,1,0,1:0:0:0:
304,287,10323,2,0,L|289:216,1,63.7500024318696,10|0,1:2|1:0,0:0:0:0:
320,25,10626,2,0,L|335:96,1,63.7500024318696,10|0,1:2|1:0,0:0:0:0:
487,195,10929,2,0,L|416:180,1,63.7500024318696,10|0,1:2|1:0,0:0:0:0:
157,197,11232,2,0,L|228:212,1,63.7500024318696,10|0,1:2|1:0,0:0:0:0:
370,245,11535,1,10,1:2:0:0:
436,102,11686,1,0,1:0:0:0:
503,303,11838,1,10,1:2:0:0:
503,303,11913,1,8,1:2:0:0:
503,303,11989,1,8,1:2:0:0:
503,303,12065,1,8,1:2:0:0:
503,303,12141,85,10,1:2:0:0:
411,180,12292,1,4,1:2:0:0:
297,274,12444,2,0,P|294:236|296:188,1,76.4999976654053,0|2,0:0|1:2,0:0:0:0:
233,26,12747,2,0,P|236:64|234:112,1,76.4999976654053,8|8,1:2|0:0,0:0:0:0:
213,172,12974,1,8,0:0:0:0:
213,172,13050,2,0,L|123:168,1,76.4999976654053,0|2,1:2|1:2,0:0:0:0:
6,68,13353,1,8,1:2:0:0:
6,68,13504,6,0,L|165:75,1,152.999995330811,4|2,1:2|1:2,0:0:0:0:
402,83,13959,1,8,1:2:0:0:
283,202,14110,1,0,0:0:0:0:
407,241,14262,1,8,1:2:0:0:
407,241,14338,1,8,0:0:0:0:
407,241,14413,2,0,P|413:198|411:159,1,76.4999976654053,2|8,1:2|1:2,0:0:0:0:
375,2,14716,101,4,1:2:0:0:
268,130,14868,2,0,P|311:136|350:134,1,76.4999976654053,0|2,0:0|1:2,0:0:0:0:
244,254,15171,2,0,P|201:248|162:250,1,76.4999976654053,8|0,1:2|0:0,0:0:0:0:
15,270,15474,1,0,1:0:0:0:
98,308,15626,2,0,L|104:393,1,76.4999976654053,2|8,1:2|1:2,0:0:0:0:
168,249,15929,2,0,L|162:164,1,76.4999976654053,4|8,1:2|0:0,0:0:0:0:
163,173,16156,1,8,0:0:0:0:
163,173,16232,1,2,1:2:0:0:
89,214,16383,5,8,1:2:0:0:
244,254,16535,1,0,0:0:0:0:
174,325,16686,1,0,1:0:0:0:
155,93,16838,1,2,1:2:0:0:
89,214,16989,1,8,1:2:0:0:
89,214,17141,2,0,L|7:198,1,76.4999976654053,4|0,1:2|0:0,0:0:0:0:
221,108,17444,1,2,1:2:0:0:
221,108,17595,2,0,L|308:117,1,76.4999976654053,8|8,1:2|0:0,0:0:0:0:
367,149,17823,1,8,0:0:0:0:
367,149,17898,102,0,P|373:109|370:71,1,76.4999976654053,0|2,1:0|1:2,0:0:0:0:
141,73,18201,2,0,P|139:111|145:149,1,76.4999976654053,8|4,1:2|1:2,0:0:0:0:
304,288,18504,2,0,P|309:325|307:363,1,76.4999976654053,0|2,0:0|1:2,0:0:0:0:
204,363,18807,2,0,P|202:325|208:288,1,76.4999976654053,8|0,1:2|0:0,0:0:0:0:
256,176,19110,1,0,1:2:0:0:
128,272,19262,1,2,1:2:0:0:
256,176,19413,1,8,1:2:0:0:
384,272,19565,1,14,1:2:0:0:
204,363,19716,6,0,P|202:325|208:288,1,76.4999976654053,0|0,0:0|1:0,0:0:0:0:
367,149,20019,2,0,P|373:109|370:71,1,76.4999976654053,14|0,1:2|0:0,0:0:0:0:
141,73,20323,2,0,P|139:111|145:149,1,76.4999976654053,8|2,1:2|1:2,0:0:0:0:
304,288,20626,2,0,P|309:325|307:363,2,76.4999976654053,8|6|0,1:2|1:2|0:0,0:0:0:0:
256,96,21080,1,0,1:0:0:0:
128,272,21232,1,14,1:2:0:0:
256,96,21383,1,0,0:0:0:0:
384,272,21535,1,8,0:0:0:0:
384,272,21610,1,8,0:0:0:0:
384,272,21686,1,8,0:0:0:0:
384,272,21762,1,8,0:0:0:0:
384,272,21838,1,8,0:0:0:0:
384,272,21913,1,8,0:0:0:0:
384,272,21989,1,8,0:0:0:0:
384,272,22065,1,8,0:0:0:0:
384,272,22141,54,0,L|473:262,1,76.4999976654053,6|0,1:2|0:0,0:0:0:0:
491,130,22444,2,0,L|402:140,1,76.4999976654053,0|0,1:0|0:0,0:0:0:0:
196,228,22747,2,0,P|187:192|194:155,1,76.4999976654053,0|2,1:0|0:0,0:0:0:0:
317,155,23050,2,0,P|324:192|315:228,1,76.4999976654053,0|2,1:0|0:0,0:0:0:0:
128,272,23353,2,0,L|39:262,1,76.4999976654053,0|0,1:0|0:0,0:0:0:0:
21,130,23656,2,0,L|110:140,1,76.4999976654053,0|0,1:0|0:0,0:0:0:0:
315,229,23959,2,0,P|325:192|314:149,1,76.4999976654053,0|2,1:0|0:0,0:0:0:0:
195,154,24262,2,0,P|187:188|197:230,1,76.4999976654053,0|0,1:0|0:0,0:0:0:0:
384,272,24565,86,0,L|473:262,1,76.4999976654053,2|0,1:2|0:0,0:0:0:0:
491,130,24868,2,0,L|402:140,1,76.4999976654053,0|0,1:0|0:0,0:0:0:0:
196,228,25171,2,0,P|187:192|194:155,1,76.4999976654053,0|2,1:0|0:0,0:0:0:0:
317,155,25474,2,0,P|325:192|315:229,1,76.4999976654053,0|2,1:0|0:0,0:0:0:0:
128,272,25777,2,0,L|39:262,1,76.4999976654053,0|0,1:0|0:0,0:0:0:0:
21,130,26080,2,0,L|110:140,1,76.4999976654053,0|0,1:0|0:0,0:0:0:0:
315,229,26383,2,0,P|325:192|314:149,1,76.4999976654053,0|0,1:0|0:0,0:0:0:0:
195,154,26686,2,0,P|187:188|197:230,1,76.4999976654053,2|0,1:2|0:0,0:0:0:0:
384,272,26989,22,0,L|473:262,1,76.4999976654053,2|0,1:2|0:0,0:0:0:0:
491,130,27292,2,0,L|402:140,1,76.4999976654053,0|0,1:0|0:0,0:0:0:0:
196,228,27595,2,0,P|187:192|194:155,1,76.4999976654053,0|2,1:0|0:0,0:0:0:0:
317,155,27898,2,0,P|325:192|315:229,1,76.4999976654053,0|2,1:0|0:0,0:0:0:0:
128,272,28201,2,0,L|39:262,1,76.4999976654053,0|0,1:0|0:0,0:0:0:0:
21,130,28504,2,0,L|110:140,1,76.4999976654053,0|0,1:0|0:0,0:0:0:0:
315,229,28807,2,0,P|325:192|314:149,1,76.4999976654053,0|2,1:0|0:0,0:0:0:0:
195,154,29110,2,0,P|187:188|197:230,1,76.4999976654053,2|0,1:2|0:0,0:0:0:0:
256,192,29413,86,0,L|256:32,1,152.999995330811,2|0,1:2|1:0,0:0:0:0:
336,88,29868,2,0,P|370:89|411:78,1,76.4999976654053,0|0,0:0|1:0,0:0:0:0:
474,30,30171,1,10,0:0:0:0:
397,175,30322,1,0,1:0:0:0:
510,237,30474,1,6,1:2:0:0:
510,237,30777,21,0,1:0:0:0:
510,237,30929,1,8,1:2:0:0:
397,175,31080,1,0,0:0:0:0:
363,309,31232,2,0,P|320:314|276:310,1,76.4999976654053,0|8,1:0|1:2,0:0:0:0:
222,281,31459,1,8,0:0:0:0:
181,270,31535,1,8,1:2:0:0:
139,273,31610,1,8,0:0:0:0:
101,292,31686,1,8,1:2:0:0:
88,330,31762,1,8,1:2:0:0:
88,330,31838,70,0,L|79:195,1,114.749996498108,6|0,1:2|0:0,0:0:0:0:
76,145,32141,2,0,L|-2:151,1,76.4999976654053,8|2,1:2|0:0,0:0:0:0:
174,207,32444,1,2,0:0:0:0:
174,207,32519,1,2,0:0:0:0:
174,207,32595,2,0,L|252:201,1,76.4999976654053,2|8,1:2|1:2,0:0:0:0:
460,227,32898,2,0,L|454:149,1,76.4999976654053,2|0,0:0|0:0,0:0:0:0:
343,31,33201,1,2,1:2:0:0:
343,31,33353,2,0,L|349:109,1,76.4999976654053,8|2,1:2|0:0,0:0:0:0:
358,243,33656,1,0,1:0:0:0:
250,201,33807,2,0,L|174:207,1,76.4999976654053,2|8,1:2|1:2,0:0:0:0:
14,144,34110,5,8,0:0:0:0:
88,269,34262,2,0,P|102:211|97:147,1,114.749996498108,6|0,1:2|0:0,0:0:0:0:
72,83,34565,2,0,L|148:88,1,76.4999976654053,8|2,1:2|0:0,0:0:0:0:
319,99,34868,1,0,1:0:0:0:
224,134,35019,2,0,P|219:93|226:51,1,76.4999976654053,2|8,0:0|1:2,0:0:0:0:
415,15,35323,2,0,P|420:56|413:98,1,76.4999976654053,2|0,1:2|0:0,0:0:0:0:
365,242,35626,1,0,1:0:0:0:
436,170,35777,2,0,L|512:178,1,76.4999976654053,10|8,1:2|0:0,0:0:0:0:
365,242,36080,1,2,1:2:0:0:
365,242,36232,2,0,L|289:234,1,76.4999976654053,2|8,1:2|1:2,0:0:0:0:
144,216,36535,101,0,0:0:0:0:
216,347,36686,2,0,L|224:271,1,76.4999976654053,6|0,1:2|0:0,0:0:0:0:
242,141,36989,1,8,1:2:0:0:
41,277,37141,2,0,P|93:295|151:288,1,114.749996498108,2|0,1:2|0:0,0:0:0:0:
224,271,37444,1,2,0:0:0:0:
242,141,37595,1,8,1:2:0:0:
365,242,37747,2,0,L|289:234,1,76.4999976654053,2|0,0:0|1:0,0:0:0:0:
436,170,38050,1,0,1:0:0:0:
436,170,38201,2,0,L|512:178,1,76.4999976654053,10|2,1:2|0:0,0:0:0:0:
318,156,38504,2,0,P|313:115|320:73,1,76.4999976654053,0|2,1:0|0:0,0:0:0:0:
475,19,38807,2,0,P|480:60|473:102,1,76.4999976654053,10|8,1:2|0:0,0:0:0:0:
436,170,39110,5,6,1:2:0:0:
256,16,39413,1,10,1:2:0:0:
256,16,39565,1,2,0:0:0:0:
76,170,39868,1,2,1:2:0:0:
256,16,40171,2,0,P|272:72|256:133,1,114.749996498108,6|0,1:2|0:0,0:0:0:0:
226,190,40474,2,0,L|146:184,1,76.4999976654053,0|10,1:0|1:2,0:0:0:0:
347,269,40777,2,0,L|427:275,2,76.4999976654053,8|10|8,0:0|1:2|1:2,0:0:0:0:
169,303,41232,53,10,1:2:0:0:
256,368,41383,1,10,1:2:0:0:
270,260,41535,101,6,1:2:0:0:
169,303,41686,1,0,0:0:0:0:
169,303,41838,1,0,0:0:0:0:
139,212,41989,1,0,1:0:0:0:
60,281,42141,1,10,1:2:0:0:
60,281,42292,1,0,0:0:0:0:
139,212,42444,1,0,1:0:0:0:
139,212,42595,2,0,L|138:130,1,76.4999976654053,2|0,0:0|1:0,0:0:0:0:
94,64,42898,1,8,1:2:0:0:
94,64,43050,38,0,P|55:64|15:74,1,76.4999976654053,0|8,1:0|0:0,0:0:0:0:
191,73,43353,2,0,P|230:73|270:63,1,76.4999976654053,10|0,1:2|1:0,0:0:0:0:
348,28,43656,1,0,1:0:0:0:
392,110,43807,102,0,L|393:192,1,76.4999976654053,8|2,1:2|1:2,0:0:0:0:
437,258,44110,1,0,0:0:0:0:
437,258,44262,2,0,P|476:258|516:248,1,76.4999976654053,8|0,1:2|0:0,0:0:0:0:
345,244,44565,2,0,P|306:244|266:254,1,76.4999976654053,2|0,1:2|1:0,0:0:0:0:
122,336,44868,1,0,0:0:0:0:
209,376,45019,2,0,P|214:338|210:300,1,76.4999976654053,10|0,1:2|0:0,0:0:0:0:
33,294,45322,37,0,1:0:0:0:
33,294,45398,1,0,1:0:0:0:
33,294,45474,2,0,P|28:332|32:370,2,76.4999976654053,8|0|2,1:2|0:0|1:2,0:0:0:0:
127,192,45929,101,0,1:0:0:0:
210,300,46080,1,8,0:0:0:0:
127,192,46232,2,0,P|205:209|289:184,1,152.999995330811,4|0,3:2|0:0,0:0:0:0:
347,297,46686,2,0,L|357:374,1,76.4999976654053,2|0,0:0|1:0,0:0:0:0:
476,233,46989,2,0,L|485:157,1,76.4999976654053,10|0,1:2|0:0,0:0:0:0:
511,321,47292,2,0,L|434:311,1,76.4999976654053,2|8,1:2|0:0,0:0:0:0:
347,297,47595,1,2,1:2:0:0:
275,192,47747,1,8,0:0:0:0:
389,219,47898,2,0,L|398:143,1,76.4999976654053,2|0,0:0|1:0,0:0:0:0:
302,25,48201,2,0,L|293:101,1,76.4999976654053,10|0,1:2|0:0,0:0:0:0:
275,192,48504,1,10,1:2:0:0:
396,45,48656,1,8,1:2:0:0:
457,210,48807,37,6,1:2:0:0:
483,85,48959,1,0,0:0:0:0:
421,158,49110,1,0,1:0:0:0:
396,45,49262,1,2,0:0:0:0:
362,134,49413,1,0,1:0:0:0:
302,51,49565,1,2,0:0:0:0:
300,146,49716,1,0,1:0:0:0:
190,101,49868,1,2,0:0:0:0:
256,192,50019,101,0,1:0:0:0:
322,101,50171,1,2,0:0:0:0:
212,146,50322,1,2,1:2:0:0:
210,51,50474,1,2,0:0:0:0:
150,134,50626,1,2,1:2:0:0:
116,45,50777,1,2,1:2:0:0:
91,158,50929,1,2,1:2:0:0:
29,85,51080,1,2,1:2:0:0:
55,210,51232,101,2,1:2:0:0:
116,45,51383,1,0,0:0:0:0:
160,224,51535,1,0,1:2:0:0:
256,96,51686,1,2,0:0:0:0:
352,224,51838,1,0,1:0:0:0:
396,45,51989,1,2,1:2:0:0:
256,256,52141,1,0,1:2:0:0:
256,16,52292,1,10,1:2:0:0:
330,125,52747,6,0,L|333:48,1,76.4999976654053,0|0,1:0|0:0,0:0:0:0:
367,195,53050,2,0,P|329:201|291:195,1,76.4999976654053,0|0,1:0|0:0,0:0:0:0:
154,156,53353,1,2,1:2:0:0:
242,245,53504,22,0,P|248:290|239:342,2,85,6|0|0,1:2|0:0|1:0,0:0:0:0:
34,145,53959,2,0,P|28:190|37:242,1,85,10|10,1:2|0:0,0:0:0:0:
62,301,54186,1,8,0:0:0:0:
62,301,54262,2,0,L|149:295,1,85,2|2,1:2|1:2,0:0:0:0:
440,287,54565,1,8,1:2:0:0:
331,348,54716,6,0,P|315:288|326:219,1,127.5,6|0,1:2|0:0,0:0:0:0:
350,156,55019,1,0,1:0:0:0:
480,208,55171,1,10,1:2:0:0:
437,97,55322,1,8,0:0:0:0:
480,208,55474,2,0,P|426:213|391:211,1,85,2|2,1:2|1:2,0:0:0:0:
134,180,55777,1,8,1:2:0:0:
243,241,55929,102,0,P|259:181|248:112,1,127.5,6|0,1:2|0:0,0:0:0:0:
226,50,56232,2,0,L|131:54,1,85,0|10,1:0|1:2,0:0:0:0:
16,30,56535,1,2,0:0:0:0:
87,102,56686,2,0,P|92:146|86:191,1,85,2|2,1:2|1:2,0:0:0:0:
41,278,56989,1,8,1:2:0:0:
256,336,57141,5,6,1:2:0:0:
147,381,57292,2,0,P|142:337|148:292,1,85,0|0,0:0|1:0,0:0:0:0:
234,228,57595,1,10,1:2:0:0:
256,336,57747,2,0,P|299:343|345:330,1,85,8|10,0:0|1:2,0:0:0:0:
512,262,58050,1,10,1:2:0:0:
411,367,58201,101,8,1:2:0:0:
411,367,58277,1,0,1:0:0:0:
411,367,58353,2,0,L|407:274,1,85,6|0,1:2|0:0,0:0:0:0:
400,40,58656,1,0,1:0:0:0:
488,144,58807,2,0,P|443:153|399:145,1,85,10|2,1:2|0:0,0:0:0:0:
165,208,59110,2,0,P|156:163|164:119,1,85,2|0,1:2|1:0,0:0:0:0:
292,18,59413,2,0,P|301:63|293:107,1,85,10|0,1:2|1:0,0:0:0:0:
295,101,59641,1,0,1:0:0:0:
295,101,59716,1,10,1:2:0:0:
186,56,59868,5,0,0:0:0:0:
256,192,60019,1,10,1:2:0:0:
48,132,60171,1,0,0:0:0:0:
155,293,60322,2,0,L|167:189,1,85,10|0,1:2|0:0,0:0:0:0:
186,56,60626,1,10,1:2:0:0:
8,251,60777,1,0,0:0:0:0:
256,352,60929,101,6,1:2:0:0:
256,352,61080,2,0,P|265:303|261:258,1,85,8|10,0:0|0:0,0:0:0:0:
224,207,61307,1,0,1:0:0:0:
224,207,61383,2,0,P|206:144|221:76,1,127.5,6|0,1:2|0:0,0:0:0:0:
273,19,61686,2,0,P|291:82|276:150,1,127.5,6|0,1:2|0:0,0:0:0:0:
302,213,61989,2,0,P|383:228|472:204,1,170,6|0,1:2|1:0,0:0:0:0:
383,100,62444,1,10,1:2:0:0:
354,284,62595,5,8,1:2:0:0:
322,294,62671,1,8,1:2:0:0:
288,292,62747,1,8,1:2:0:0:
257,279,62822,1,8,1:2:0:0:
234,252,62898,1,8,1:2:0:0:
222,220,62974,1,8,1:2:0:0:
225,187,63050,1,8,1:2:0:0:
240,156,63126,1,8,1:2:0:0:
265,133,63201,1,6,1:2:0:0:
256,16,63353,101,0,0:0:0:0:
157,119,63504,1,0,1:0:0:0:
97,36,63656,2,0,P|142:23|189:22,1,85,10|2,1:2|0:0,0:0:0:0:
427,28,63959,1,2,1:2:0:0:
342,151,64110,2,0,L|336:50,1,85,2|8,1:2|1:2,0:0:0:0:
488,104,64413,6,0,P|497:165|483:235,1,127.5,6|0,1:2|0:0,0:0:0:0:
466,299,64716,2,0,P|420:307|373:298,1,85,0|10,1:0|1:2,0:0:0:0:
178,277,65019,1,8,0:0:0:0:
306,384,65171,2,0,P|314:338|305:291,1,85,2|2,1:2|1:2,0:0:0:0:
256,160,65474,1,8,1:2:0:0:
77,281,65626,101,6,1:2:0:0:
73,83,65777,1,0,0:0:0:0:
256,160,65929,1,0,1:0:0:0:
77,281,66080,2,0,P|66:236|71:191,1,85,10|2,1:2|0:0,0:0:0:0:
73,83,66383,1,10,1:2:0:0:
256,160,66535,2,0,P|211:171|166:166,1,85,2|8,1:2|1:2,0:0:0:0:
294,236,66838,6,0,P|363:213|470:207,1,170,6|0,1:2|1:0,0:0:0:0:
417,107,67292,2,0,L|411:21,1,85,10|2,1:2|1:2,0:0:0:0:
355,145,67595,1,10,1:2:0:0:
460,206,67747,1,8,1:2:0:0:
294,236,67898,1,10,1:2:0:0:
370,290,68050,102,0,L|376:376,1,85,6|0,1:2|0:0,0:0:0:0:
355,145,68353,1,0,1:0:0:0:
294,236,68504,2,0,P|251:242|204:238,1,85,8|0,1:2|0:0,0:0:0:0:
95,206,68807,1,0,1:0:0:0:
187,317,68959,1,0,1:0:0:0:
99,366,69110,2,0,P|92:323|94:279,1,85,10|0,1:2|0:0,0:0:0:0:
1,201,69413,6,0,P|22:163|51:130,1,85,6|0,1:2|0:0,0:0:0:0:
182,20,69716,2,0,P|193:62|196:106,1,85,10|0,1:2|1:0,0:0:0:0:
201,178,69944,1,0,1:0:0:0:
201,178,70019,2,0,L|298:173,1,85,14|2,1:2|1:2,0:0:0:0:
508,178,70323,1,10,1:2:0:0:
396,248,70474,102,0,P|380:199|392:116,1,127.5,6|0,1:2|0:0,0:0:0:0:
428,64,70777,2,0,L|525:59,2,85,0|8|0,1:0|1:2|0:0,0:0:0:0:
313,15,71232,1,0,1:0:0:0:
294,122,71383,2,0,P|251:128|204:124,1,85,0|10,1:0|1:2,0:0:0:0:
6,74,71686,1,0,0:0:0:0:
107,29,71838,2,0,P|113:72|109:119,1,85,14|0,1:2|0:0,0:0:0:0:
68,256,72141,1,14,1:2:0:0:
256,320,72292,1,0,0:0:0:0:
159,350,72444,5,10,1:2:0:0:
149,318,72519,1,8,1:2:0:0:
151,284,72595,1,8,1:2:0:0:
164,253,72671,1,8,1:2:0:0:
191,230,72747,1,8,1:2:0:0:
223,218,72822,1,8,1:2:0:0:
256,220,72898,6,0,L|256:109,1,101.999996887207,6|0,1:2|0:0,0:0:0:0:
256,16,73201,1,0,1:0:0:0:
256,16,73353,22,0,L|256:128,1,101.999996887207,10|0,1:2|1:0,0:0:0:0:
359,334,73656,2,0,L|293:243,1,101.999996887207,10|0,1:2|1:0,0:0:0:0:
88,137,73959,2,0,L|195:172,1,101.999996887207,10|0,1:2|1:0,0:0:0:0:
423,137,74262,2,0,L|316:172,1,101.999996887207,10|0,1:2|1:0,0:0:0:0:
152,334,74565,2,0,L|218:243,1,101.999996887207,10|0,1:2|1:0,0:0:0:0:
256,192,74868,1,10,1:2:0:0:
256,192,74944,1,8,1:2:0:0:
256,192,75019,1,8,1:2:0:0:
256,192,75095,1,8,1:2:0:0:
256,192,75171,86,0,L|256:80,1,101.999996887207,10|6,1:2|1:2,0:0:0:0:
256,0,75474,1,0,0:0:0:0:
339,228,75626,1,0,1:0:0:0:
148,74,75777,1,10,1:2:0:0:
364,74,75929,1,0,1:0:0:0:
173,228,76080,1,10,1:2:0:0:
256,0,76232,1,0,1:0:0:0:
256,192,76383,1,10,1:2:0:0:
256,192,76459,1,8,1:2:0:0:
256,192,76535,1,8,1:2:0:0:
256,192,76610,1,8,1:2:0:0:
256,192,76686,22,0,P|203:240|255:290,1,159.375,6|0,1:2|0:0,0:0:0:0:
336,201,77292,6,0,B|327:300|327:300|363:248|421:245,1,212.5
421,245,77747,102,0,B|413:317|413:317|517:245|517:245|491:369,1,318.750012159348,2|0,0:0|1:0,0:0:0:0:
256,352,78656,38,0,L|256:224,1,127.500004863739,0|4,0:0|1:2,0:0:0:0:
256,32,79262,37,2,1:2:0:0:
256,32,79413,1,8,1:2:0:0:
324,137,79716,2,0,L|394:128,1,63.7500024318696,0|2,1:0|1:2,0:0:0:0:
201,101,80019,1,8,1:2:0:0:
201,101,80171,2,0,L|131:110,1,63.7500024318696,4|0,1:2|0:0,0:0:0:0:
15,133,80474,1,2,1:2:0:0:
96,256,80626,1,8,1:2:0:0:
21,301,80777,2,0,P|11:267|12:236,1,63.7500024318696,0|0,0:0|1:0,0:0:0:0:
169,209,81080,2,0,P|179:243|178:274,1,63.7500024318696,2|8,1:2|1:2,0:0:0:0:
223,351,81383,6,0,P|277:336|371:337,1,127.500004863739,4|2,1:2|1:2,0:0:0:0:
474,354,81838,1,8,1:2:0:0:
407,286,81989,2,0,P|402:251|405:213,1,63.7500024318696,0|0,0:0|1:0,0:0:0:0:
454,57,82292,1,2,1:2:0:0:
512,153,82444,1,8,1:2:0:0:
512,153,82595,2,0,P|464:161|414:151,1,95.6250036478044,4|0,1:2|0:0,0:0:0:0:
352,128,82898,101,2,1:2:0:0:
256,256,83050,1,8,1:2:0:0:
160,128,83201,1,0,0:0:0:0:
256,256,83353,1,2,1:2:0:0:
256,256,83429,1,2,1:2:0:0:
256,256,83504,1,2,1:2:0:0:
96,304,83656,1,8,0:0:0:0:
96,304,83732,1,8,0:0:0:0:
96,304,83807,1,8,0:0:0:0:
96,304,83883,1,8,0:0:0:0:
96,304,83959,85,14,1:2:0:0:
59,224,84110,1,8,1:2:0:0:
170,287,84262,1,10,1:2:0:0:
221,191,84413,1,12,1:2:0:0:
256,336,84565,1,10,1:2:0:0:
291,191,84716,1,8,1:2:0:0:
342,287,84868,1,10,1:2:0:0:
453,224,85019,1,14,1:2:0:0:
256,192,85095,12,0,86585,1:0:0:0:
