osu file format v14

[General]
AudioFilename: audio.mp3
AudioLeadIn: 500
PreviewTime: 52595
Countdown: 0
SampleSet: Soft
StackLeniency: 0.2
Mode: 0
LetterboxInBreaks: 0
EpilepsyWarning: 1
WidescreenStoryboard: 1

[Editor]
DistanceSpacing: 0.75
BeatDivisor: 4
GridSize: 4
TimelineZoom: 2.200001

[Metadata]
Title:Twintail Dreamer! (TV Size)
TitleUnicode:ツインテール・ドリーマー! (TV Size)
Artist:Twin-Tails
ArtistUnicode:ツインテイルズ
Creator:Moecho
Version:Baka's Twintail Extra
Source:俺、ツインテールになります。
Tags:Twintails OreTwi Ore, Tsuinteru Tsuintēru ni Narimasu. Gonna be the Twin-Tail!! テイルレッド Tail Red 上坂すみれ Uesaka Sumire テイルブルー Blue 相坂優歌 Aisaka Yuuka テイルイエロー Yellow 赤﨑千夏 Akasaki Chinatsu Ending Theme ED TV Size edit Anime papiyon japanese pop j-pop jpop Kodora Laurier Natteke Kite HabiHolic Loneight L18 Lecana Giralda captin1 jonathanlfj apaffy kisata Nyquill RLC LunarSakuya Mythol meiikyuu Syameimaru-Aya Ayaya caren_sk CRN kiddly Axarious Delis ShirohaMyMommy SMM Koiyuki Minakami Yuki yf_bmp yf Skystar Amamiya Yuko rui rustbell spro sprosive Snow Note 7odoa bakabaka Hollow Wings HW
BeatmapID:2331868
BeatmapSetID:1115213

[Difficulty]
HPDrainRate:7
CircleSize:4.2
OverallDifficulty:9.2
ApproachRate:9.4
SliderMultiplier:2.3
SliderTickRate:1

[Events]
//Background and Video events
0,0,"bg.jpg",0,0
//Break Periods
//Storyboard Layer 0 (Background)
Sprite,Background,Centre,"sb\sprites\pixel-white.png",320,240 F,0,-60,,0,1 C,0,-60,,0,0,0 V,0,-60,,880,480 F,0,89619,,1,0
Sprite,Background,Centre,"bg.jpg",320,240 F,0,-2559,-1559,0,0.75 S,0,-1559,,0.4444444 F,0,337,487,0.75,0
Sprite,Background,Centre,"bg.jpg",320,240 F,0,88125,89125,0,0.75 S,0,89125,,0.4444444 F,0,89784,89934,0.75,0
Sprite,Background,Centre,"sb\sprites\bg-alt.jpg",320,240 F,0,187,337,0,0.75 S,0,337,,0.4444444 F,0,21156,22306,0.75,0
Sprite,Background,Centre,"sb\sprites\bg-alt.jpg",320,240 F,0,53369,53519,0,0.75 S,0,53519,,0.4444444 F,0,88125,89275,0.75,0
Sprite,Background,Centre,"sb\sprites\bg-alt-bw.jpg",320,240 F,0,22006,22306,0,0.75 S,0,22156,,0.4444444 F,0,39686,40486,0.75,0
Sprite,Background,Centre,"sb\sprites\bg-alt-bw.jpg",320,240 F,0,50491,50791,0,0.75 S,0,50641,,0.4444444 F,0,51807,52607,0.75,0
Sprite,Background,Centre,"sb\sprites\tail-red-ci.jpg",320,240 F,0,40794,41094,0,0.75 S,0,40944,,0.4444444 F,0,48822,50322,0.75,0
Sprite,Background,Centre,"sb\sprites\tail-blue-ci.jpg",320,240 F,0,42915,43215,0,0.75 S,0,43065,,0.4444444 F,0,48822,50322,0.75,0
Sprite,Background,Centre,"sb\sprites\tail-yellow-ci.jpg",320,240 F,0,45339,45639,0,0.75 S,0,45489,,0.4444444 F,0,48822,50322,0.75,0
Sprite,Background,Centre,"sb\sprites\pixel-white.png",320,240 V,0,2610,,854,480 F,0,2610,3210,0.15,0
Sprite,Background,Centre,"sb\sprites\pixel-white.png",320,240 V,0,3822,,854,480 F,0,3822,4422,0.15,0
Sprite,Background,Centre,"sb\sprites\pixel-white.png",320,240 V,0,5034,,854,480 F,0,5034,5634,0.15,0
Sprite,Background,Centre,"sb\sprites\pixel-white.png",320,240 V,0,5792,,854,480 F,0,5792,6392,0.15,0
Sprite,Background,Centre,"sb\sprites\pixel-white.png",320,240 V,0,6247,,854,480 F,0,6247,6847,0.15,0
Sprite,Background,Centre,"sb\sprites\pixel-white.png",320,240 V,0,7459,,854,480 F,0,7459,8059,0.15,0
Sprite,Background,Centre,"sb\sprites\pixel-white.png",320,240 V,0,9883,,854,480 F,0,9883,10483,0.15,0
Sprite,Background,Centre,"sb\sprites\pixel-white.png",320,240 V,0,12307,,854,480 F,0,12307,12907,0.15,0
Sprite,Background,Centre,"sb\sprites\pixel-white.png",320,240 V,0,14731,,854,480 F,0,14731,15331,0.15,0
Sprite,Background,Centre,"sb\sprites\pixel-white.png",320,240 V,0,17156,,854,480 F,0,17156,17756,0.15,0
Sprite,Background,Centre,"sb\sprites\pixel-white.png",320,240 V,0,19580,,854,480 F,0,19580,20180,0.15,0
Sprite,Background,Centre,"sb\sprites\pixel-white.png",320,240 V,0,22156,,854,480 F,0,22156,22756,0.15,0
Sprite,Background,Centre,"sb\sprites\pixel-white.png",320,240 V,0,24580,,854,480 F,0,24580,25180,0.15,0
Sprite,Background,Centre,"sb\sprites\pixel-white.png",320,240 V,0,27004,,854,480 F,0,27004,27604,0.15,0
Sprite,Background,Centre,"sb\sprites\pixel-white.png",320,240 V,0,29428,,854,480 F,0,29428,30028,0.15,0
Sprite,Background,Centre,"sb\sprites\pixel-white.png",320,240 V,0,30489,,854,480 F,0,30489,31089,0.15,0
Sprite,Background,Centre,"sb\sprites\pixel-white.png",320,240 V,0,31853,,854,480 F,0,31853,32453,0.15,0
Sprite,Background,Centre,"sb\sprites\pixel-white.png",320,240 V,0,34277,,854,480 F,0,34277,34877,0.15,0
Sprite,Background,Centre,"sb\sprites\pixel-white.png",320,240 V,0,36701,,854,480 F,0,36701,37301,0.15,0
Sprite,Background,Centre,"sb\sprites\pixel-white.png",320,240 V,0,39125,,854,480 F,0,39125,39725,0.15,0
Sprite,Background,Centre,"sb\sprites\pixel-white.png",320,240 V,0,41550,,854,480 F,0,41550,42150,0.15,0
Sprite,Background,Centre,"sb\sprites\pixel-white.png",320,240 V,0,43974,,854,480 F,0,43974,44574,0.15,0
Sprite,Background,Centre,"sb\sprites\pixel-white.png",320,240 V,0,45034,,854,480 F,0,45034,45634,0.15,0
Sprite,Background,Centre,"sb\sprites\pixel-white.png",320,240 V,0,46247,,854,480 F,0,46247,46847,0.15,0
Sprite,Background,Centre,"sb\sprites\pixel-white.png",320,240 V,0,47610,,854,480 F,0,47610,48210,0.15,0
Sprite,Background,Centre,"sb\sprites\pixel-white.png",320,240 V,0,48822,,854,480 F,0,48822,49422,0.15,0
Sprite,Background,Centre,"sb\sprites\pixel-white.png",320,240 V,0,53519,,854,480 F,0,53519,54119,0.15,0
Sprite,Background,Centre,"sb\sprites\pixel-white.png",320,240 V,0,55944,,854,480 F,0,55944,56544,0.15,0
Sprite,Background,Centre,"sb\sprites\pixel-white.png",320,240 V,0,58368,,854,480 F,0,58368,58968,0.15,0
Sprite,Background,Centre,"sb\sprites\pixel-white.png",320,240 V,0,60944,,854,480 F,0,60944,61544,0.15,0
Sprite,Background,Centre,"sb\sprites\pixel-white.png",320,240 V,0,61398,,854,480 F,0,61398,61998,0.15,0
Sprite,Background,Centre,"sb\sprites\pixel-white.png",320,240 V,0,62004,,854,480 F,0,62004,62604,0.15,0
Sprite,Background,Centre,"sb\sprites\pixel-white.png",320,240 V,0,63216,,854,480 F,0,63216,63816,0.15,0
Sprite,Background,Centre,"sb\sprites\pixel-white.png",320,240 V,0,65641,,854,480 F,0,65641,66241,0.15,0
Sprite,Background,Centre,"sb\sprites\pixel-white.png",320,240 V,0,68065,,854,480 F,0,68065,68665,0.15,0
Sprite,Background,Centre,"sb\sprites\pixel-white.png",320,240 V,0,70489,,854,480 F,0,70489,71089,0.15,0
Sprite,Background,Centre,"sb\sprites\pixel-white.png",320,240 V,0,71853,,854,480 F,0,71853,72453,0.15,0
Sprite,Background,Centre,"sb\sprites\pixel-white.png",320,240 V,0,72913,,854,480 F,0,72913,73513,0.15,0
Sprite,Background,Centre,"sb\sprites\pixel-white.png",320,240 V,0,75338,,854,480 F,0,75338,75938,0.15,0
Sprite,Background,Centre,"sb\sprites\pixel-white.png",320,240 V,0,76701,,854,480 F,0,76701,77301,0.15,0
Sprite,Background,Centre,"sb\sprites\pixel-white.png",320,240 V,0,78974,,854,480 F,0,78974,79574,0.15,0
Sprite,Background,Centre,"sb\sprites\pixel-white.png",320,240 V,0,85034,,854,480 F,0,85034,85634,0.15,0 V,0,86599,,854,480 F,0,86599,87199,0.15,0
//Storyboard Layer 1 (Fail)
//Storyboard Layer 2 (Pass)
//Storyboard Layer 3 (Foreground)
Sprite,Foreground,Centre,"sb\lyrics\0062.png",0,0 F,0,12207,12407,0,0.8 M,0,12307,,665.125,398.1 S,0,12307,,0.45 C,0,12307,,255,255,255 F,0,86904,87104,0.8,0
Sprite,Foreground,Centre,"sb\lyrics\0061.png",0,0 F,0,12207,12407,0,0.8 M,0,12307,,675.475,400.125 S,0,12307,,0.45 C,0,12307,,255,255,255 F,0,86904,87104,0.8,0
Sprite,Foreground,Centre,"sb\lyrics\006b.png",0,0 F,0,12207,12407,0,0.8 M,0,12307,,685.1501,398.1 S,0,12307,,0.45 C,0,12307,,255,255,255 F,0,86904,87104,0.8,0
Sprite,Foreground,Centre,"sb\lyrics\0061.png",0,0 F,0,12207,12407,0,0.8 M,0,12307,,695.2751,400.125 S,0,12307,,0.45 C,0,12307,,255,255,255 F,0,86904,87104,0.8,0
Sprite,Foreground,Centre,"sb\lyrics\0062.png",0,0 F,0,12207,12407,0,0.8 M,0,12307,,704.7251,398.1 S,0,12307,,0.45 C,0,12307,,255,255,255 F,0,86904,87104,0.8,0
Sprite,Foreground,Centre,"sb\lyrics\0061.png",0,0 F,0,12207,12407,0,0.8 M,0,12307,,715.0751,400.125 S,0,12307,,0.45 C,0,12307,,255,255,255 F,0,86904,87104,0.8,0
Sprite,Foreground,Centre,"sb\lyrics\006b.png",0,0 F,0,12207,12407,0,0.8 M,0,12307,,724.7502,398.1 S,0,12307,,0.45 C,0,12307,,255,255,255 F,0,86904,87104,0.8,0
Sprite,Foreground,Centre,"sb\lyrics\0061.png",0,0 F,0,12207,12407,0,0.8 M,0,12307,,734.8752,400.125 S,0,12307,,0.45 C,0,12307,,255,255,255 F,0,86904,87104,0.8,0
Sprite,Foreground,Centre,"sb\lyrics\0042.png",0,0 F,0,12207,12407,0,0.8 M,0,12307,,581.175,434.475 S,0,12307,,0.35 C,0,12307,,255,255,255 F,0,86904,87104,0.8,0
Sprite,Foreground,Centre,"sb\lyrics\0061.png",0,0 F,0,12207,12407,0,0.8 M,0,12307,,588.8751,435.875 S,0,12307,,0.35 C,0,12307,,255,255,255 F,0,86904,87104,0.8,0
Sprite,Foreground,Centre,"sb\lyrics\006b.png",0,0 F,0,12207,12407,0,0.8 M,0,12307,,596.4,434.3 S,0,12307,,0.35 C,0,12307,,255,255,255 F,0,86904,87104,0.8,0
Sprite,Foreground,Centre,"sb\lyrics\0061.png",0,0 F,0,12207,12407,0,0.8 M,0,12307,,604.2751,435.875 S,0,12307,,0.35 C,0,12307,,255,255,255 F,0,86904,87104,0.8,0
Sprite,Foreground,Centre,"sb\lyrics\0027.png",0,0 F,0,12207,12407,0,0.8 M,0,12307,,610.2251,430.625 S,0,12307,,0.35 C,0,12307,,255,255,255 F,0,86904,87104,0.8,0
Sprite,Foreground,Centre,"sb\lyrics\0073.png",0,0 F,0,12207,12407,0,0.8 M,0,12307,,619.5001,436.05 S,0,12307,,0.35 C,0,12307,,255,255,255 F,0,86904,87104,0.8,0
Sprite,Foreground,Centre,"sb\lyrics\0054.png",0,0 F,0,12207,12407,0,0.8 M,0,12307,,634.9001,434.475 S,0,12307,,0.35 C,0,12307,,255,255,255 F,0,86904,87104,0.8,0
Sprite,Foreground,Centre,"sb\lyrics\0077.png",0,0 F,0,12207,12407,0,0.8 M,0,12307,,642.4251,435.875 S,0,12307,,0.35 C,0,12307,,255,255,255 F,0,86904,87104,0.8,0
Sprite,Foreground,Centre,"sb\lyrics\0069.png",0,0 F,0,12207,12407,0,0.8 M,0,12307,,650.1251,434.3 S,0,12307,,0.35 C,0,12307,,255,255,255 F,0,86904,87104,0.8,0
Sprite,Foreground,Centre,"sb\lyrics\006e.png",0,0 F,0,12207,12407,0,0.8 M,0,12307,,658.1752,435.7 S,0,12307,,0.35 C,0,12307,,255,255,255 F,0,86904,87104,0.8,0
Sprite,Foreground,Centre,"sb\lyrics\0074.png",0,0 F,0,12207,12407,0,0.8 M,0,12307,,665.5251,434.65 S,0,12307,,0.35 C,0,12307,,255,255,255 F,0,86904,87104,0.8,0
Sprite,Foreground,Centre,"sb\lyrics\0061.png",0,0 F,0,12207,12407,0,0.8 M,0,12307,,673.5752,435.875 S,0,12307,,0.35 C,0,12307,,255,255,255 F,0,86904,87104,0.8,0
Sprite,Foreground,Centre,"sb\lyrics\0069.png",0,0 F,0,12207,12407,0,0.8 M,0,12307,,680.9252,434.3 S,0,12307,,0.35 C,0,12307,,255,255,255 F,0,86904,87104,0.8,0
Sprite,Foreground,Centre,"sb\lyrics\006c.png",0,0 F,0,12207,12407,0,0.8 M,0,12307,,688.8002,434.3 S,0,12307,,0.35 C,0,12307,,255,255,255 F,0,86904,87104,0.8,0
Sprite,Foreground,Centre,"sb\lyrics\0045.png",0,0 F,0,12207,12407,0,0.8 M,0,12307,,704.3752,434.475 S,0,12307,,0.35 C,0,12307,,255,255,255 F,0,86904,87104,0.8,0
Sprite,Foreground,Centre,"sb\lyrics\0078.png",0,0 F,0,12207,12407,0,0.8 M,0,12307,,711.9002,435.875 S,0,12307,,0.35 C,0,12307,,255,255,255 F,0,86904,87104,0.8,0
Sprite,Foreground,Centre,"sb\lyrics\0074.png",0,0 F,0,12207,12407,0,0.8 M,0,12307,,719.4252,434.65 S,0,12307,,0.35 C,0,12307,,255,255,255 F,0,86904,87104,0.8,0
Sprite,Foreground,Centre,"sb\lyrics\0072.png",0,0 F,0,12207,12407,0,0.8 M,0,12307,,727.3002,435.7 S,0,12307,,0.35 C,0,12307,,255,255,255 F,0,86904,87104,0.8,0
Sprite,Foreground,Centre,"sb\lyrics\0061.png",0,0 F,0,12207,12407,0,0.8 M,0,12307,,735.1753,435.875 S,0,12307,,0.35 C,0,12307,,255,255,255 F,0,86904,87104,0.8,0
//Storyboard Layer 4 (Overlay)
//Storyboard Sound Samples

[TimingPoints]
323,303.030303030303,4,2,3,35,1,0
323,-133.333333333333,4,2,3,35,0,0
1838,-100,4,2,1,60,0,0
1913,-100,4,1,1,60,0,0
2141,-100,4,2,1,70,0,0
2595,-166.666666666667,4,2,2,60,0,0
3807,-133.333333333333,4,2,2,60,0,0
5474,-100,4,2,2,60,0,0
6686,-100,4,2,1,60,0,0
9413,-100,4,1,1,60,0,0
9792,-100,4,2,1,60,0,0
11989,-100,4,1,1,60,0,0
12065,-100,4,1,1,50,0,0
12141,-100,4,2,1,60,0,0
12292,-100,4,2,1,80,0,0
18959,-100,4,2,0,80,0,0
19110,-100,4,2,1,80,0,0
21535,-100,4,1,1,70,0,0
21762,-100,4,1,1,60,0,0
21989,-100,4,2,1,50,0,0
22141,-133.333333333333,4,2,3,50,0,0
30171,-133.333333333333,4,2,1,60,0,0
30777,-100,4,2,3,60,0,0
30929,-100,4,2,1,60,0,0
31080,-100,4,2,3,60,0,0
31232,-100,4,2,1,60,0,0
31535,-100,4,2,1,60,0,0
31838,-100,4,2,1,70,0,0
39110,-83.3333333333333,4,2,1,60,0,0
39413,-100,4,2,1,60,0,0
41535,-133.333333333333,4,2,1,60,0,0
41838,-133.333333333333,4,2,3,40,0,0
42141,-133.333333333333,4,2,1,50,0,0
42898,-133.333333333333,4,2,3,40,0,0
43050,-133.333333333333,4,2,1,50,0,0
43580,-133.333333333333,4,2,3,40,0,0
43656,-133.333333333333,4,2,1,50,0,0
44413,-133.333333333333,4,2,3,40,0,0
44565,-133.333333333333,4,2,1,50,0,0
45626,-133.333333333333,4,2,3,40,0,0
45777,-133.333333333333,4,2,1,50,0,0
46080,-133.333333333333,4,2,3,40,0,0
46232,-133.333333333333,4,2,1,50,0,0
48504,-133.333333333333,4,2,3,40,0,0
48807,-133.333333333333,4,2,1,60,0,0
49262,-133.333333333333,4,2,1,60,0,0
49413,-100,4,2,1,50,0,0
49565,-100,4,2,3,50,0,0
49716,-100,4,2,1,50,0,0
49868,-100,4,2,3,50,0,0
50019,-100,4,2,1,50,0,0
50171,-100,4,2,3,50,0,0
50322,-100,4,2,1,50,0,0
50474,-100,4,2,3,50,0,0
50626,-100,4,2,1,55,0,0
51232,-100,4,2,3,50,0,0
51383,-100,4,2,1,60,0,0
51459,-100,4,2,3,60,0,0
51686,-100,4,2,3,55,0,0
51838,-100,4,2,1,60,0,0
52141,-100,4,2,3,60,0,0
52292,-100,4,2,1,60,0,0
53504,-100,4,1,1,70,0,1
60626,-83.3333333333333,4,1,1,70,0,1
60853,-100,4,1,1,70,0,1
61989,-83.3333333333333,4,1,1,70,0,1
62747,-100,4,1,1,70,0,1
72444,-100,4,1,1,70,0,1
72898,-83.3333333333333,4,1,1,70,0,1
73353,-100,4,1,1,70,0,1
73656,-100,4,1,1,70,0,1
73807,-100,4,2,3,55,0,1
73959,-100,4,1,1,70,0,1
74110,-100,4,2,3,55,0,1
74262,-100,4,1,1,70,0,1
74565,-100,4,1,1,70,0,1
74868,-100,4,3,1,60,0,1
75171,-100,4,1,1,70,0,1
75322,-100,4,1,1,70,0,1
75550,-100,4,2,3,60,0,1
75626,-100,4,1,1,70,0,1
75853,-100,4,2,1,70,0,1
75929,-100,4,1,1,70,0,1
76156,-100,4,2,1,70,0,1
76232,-100,4,1,1,70,0,1
76459,-100,4,2,3,50,0,1
76686,-133.333333333333,4,2,3,70,0,0
76989,-133.333333333333,4,2,3,50,0,0
77292,-166.666666666667,4,2,1,60,0,0
77671,-166.666666666667,4,2,1,5,0,0
77747,-166.666666666667,4,2,1,60,0,0
78429,-166.666666666667,4,2,1,5,0,0
78504,-166.666666666667,4,2,3,60,0,0
78959,-133.333333333333,4,2,1,80,0,0
84413,-100,4,2,1,60,0,0
85019,-133.333333333333,4,2,1,60,0,0
86585,-133.333333333333,4,2,1,30,0,0

[Colours]
Combo1 : 192,192,192
Combo2 : 255,50,50
Combo3 : 255,125,125
Combo4 : 25,100,255
Combo5 : 50,150,255
Combo6 : 255,255,50
Combo7 : 255,255,150
Combo8 : 128,128,128

[HitObjects]
136,240,323,102,0,L|224:308,1,86.2500032901765
376,144,626,2,0,L|288:76,1,86.2500032901765
300,328,1232,6,0,P|348:344|404:336,1,86.2500032901765
212,56,1535,2,0,P|164:40|108:48,1,86.2500032901765
250,231,1838,69,8,0:0:0:0:
292,212,1913,1,0,0:0:0:0:
287,166,1989,1,8,0:0:0:0:
242,156,2065,1,8,0:0:0:0:
219,196,2141,1,2,0:0:0:0:
376,144,2292,5,2,0:0:0:0:
44,96,2595,38,0,P|16:156|52:232,1,137.999995788574,4|0,0:0|0:0,0:0:0:0:
256,308,3050,2,0,L|184:340,1,68.9999978942872,2|0,0:0|0:0,0:0:0:0:
412,352,3353,6,0,L|484:320,1,68.9999978942872,0|0,1:0|0:0,0:0:0:0:
256,308,3656,1,2,0:0:0:0:
412,344,3807,2,0,B|484:312|484:312|512:268|488:216,1,172.500006580353,4|0,0:0|0:0,0:0:0:0:
264,34,4262,102,0,P|236:58|208:98,1,86.2500032901765,2|0,0:0|0:0,0:0:0:0:
309,105,4565,2,0,P|337:81|365:41,1,86.2500032901765,0|2,1:0|0:0,0:0:0:0:
357,33,4792,1,2,0:0:0:0:
349,25,4868,1,2,0:0:0:0:
256,340,5019,6,0,L|256:136,1,172.500006580353,4|0,0:0|0:0,0:0:0:0:
40,124,5474,2,0,P|72:164|156:168,1,115,2|0,0:0|0:0,0:0:0:0:
136,68,5777,101,4,0:0:0:0:
66,262,5929,1,2,0:0:0:0:
94,258,6004,1,2,0:0:0:0:
122,254,6080,1,2,1:2:0:0:
304,232,6232,6,0,P|264:192|264:296,1,230,4|0,0:0|0:0,0:0:0:0:
416,356,6686,101,8,0:0:0:0:
452,324,6762,1,8,0:0:0:0:
476,284,6838,1,8,0:0:0:0:
484,240,6913,1,8,0:0:0:0:
480,196,6989,2,0,L|423:207,1,57.5,8|0,0:0|0:0,0:0:0:0:
379,140,7141,2,0,L|435:128,1,57.5,2|0,0:0|0:0,0:0:0:0:
479,66,7292,1,8,0:0:0:0:
304,232,7444,22,0,B|230:242|213:163|213:163|253:147,1,172.5,4|0,0:0|0:0,0:0:0:0:
304,88,7747,1,2,0:0:0:0:
319,361,7898,1,8,0:0:0:0:
88,220,8050,1,2,0:0:0:0:
88,220,8126,1,2,0:0:0:0:
88,220,8201,1,8,0:0:0:0:
226,222,8353,1,2,0:0:0:0:
177,299,8504,22,0,L|117:293,1,57.5,8|0,0:0|0:0,0:0:0:0:
43,286,8656,1,0,0:0:0:0:
241,353,8807,6,0,L|266:301,1,57.5,8|0,0:0|0:0,0:0:0:0:
304,232,8959,1,0,0:0:0:0:
224,76,9110,101,8,0:0:0:0:
304,232,9262,1,2,0:0:0:0:
470,184,9413,5,8,0:0:0:0:
438,160,9489,1,0,0:0:0:0:
398,152,9565,1,0,0:0:0:0:
358,160,9641,1,0,0:0:0:0:
322,180,9716,2,0,P|306:204|310:248,1,57.5
459,379,9868,70,0,P|443:303|375:279,1,115,4|0,0:0|0:0,0:0:0:0:
241,353,10171,2,0,L|365:329,1,115,2|8,0:0|0:0,0:0:0:0:
367,345,10398,1,2,0:0:0:0:
380,359,10474,1,2,0:0:0:0:
112,328,10626,1,8,0:0:0:0:
88,304,10701,1,2,0:0:0:0:
64,280,10777,1,2,0:0:0:0:
222,81,10929,21,8,0:0:0:0:
290,303,11080,1,2,0:0:0:0:
189,210,11232,1,8,0:0:0:0:
321,172,11383,1,2,0:0:0:0:
124,174,11535,5,8,0:0:0:0:
124,174,11610,1,2,0:0:0:0:
124,174,11686,1,2,0:0:0:0:
319,94,11838,1,8,0:0:0:0:
290,303,11989,101,8,0:0:0:0:
238,283,12065,1,8,0:0:0:0:
210,235,12141,1,10,0:0:0:0:
218,179,12216,1,10,0:0:0:0:
254,135,12292,86,0,B|322:115|362:163|362:163|350:183|350:183|382:223|434:207,1,230,4|2,0:0|0:0,0:0:0:0:
359,57,12747,2,0,P|263:49|187:77,1,172.5,8|0,0:0|0:0,0:0:0:0:
124,41,13050,5,2,0:0:0:0:
210,235,13201,1,2,0:0:0:0:
124,174,13353,1,8,0:0:0:0:
387,308,13504,102,0,L|437:67,1,230,2|2,0:0|0:0,0:0:0:0:
322,225,13959,2,0,L|362:45,1,172.5,8|0,0:0|0:0,0:0:0:0:
255,175,14262,6,0,L|267:118,1,57.5,2|0,0:0|0:0,0:0:0:0:
193,74,14413,2,0,L|136:86,1,57.5,2|0,0:0|0:0,0:0:0:0:
45,166,14565,2,0,L|57:222,1,57.5,8|0,0:0|0:0,0:0:0:0:
155,324,14716,2,0,P|238:308|315:344,1,172.5,4|0,0:0|0:0,0:0:0:0:
512,179,15019,102,0,L|423:107,1,115,2|8,0:0|0:0,0:0:0:0:
360,57,15322,1,2,0:0:0:0:
384,279,15474,2,0,L|294:206,1,115,2|0,0:0|0:0,0:0:0:0:
430,114,15777,1,8,0:0:0:0:
430,114,15853,1,2,0:0:0:0:
430,114,15929,2,0,P|359:179|219:147,1,230,2|2,0:0|0:0,0:0:0:0:
6,229,16383,2,0,P|78:197|162:229,1,172.5,8|0,0:0|0:0,0:0:0:0:
132,332,16686,5,2,0:0:0:0:
116,340,16762,1,2,0:0:0:0:
100,348,16838,1,2,0:0:0:0:
84,356,16913,1,2,0:0:0:0:
84,300,16989,101,8,0:0:0:0:
140,312,17065,1,10,0:0:0:0:
196,324,17141,2,0,B|292:304|292:304|328:336|412:340,1,172.5,4|0,0:0|0:0,0:0:0:0:
472,328,17444,1,2,0:0:0:0:
404,156,17595,1,8,0:0:0:0:
292,304,17747,1,0,0:0:0:0:
472,328,17898,5,2,0:0:0:0:
472,328,17974,1,2,0:0:0:0:
472,328,18050,1,2,0:0:0:0:
292,304,18201,1,8,0:0:0:0:
404,156,18353,2,0,L|340:148,1,57.5,2|0,0:0|0:0,0:0:0:0:
257,165,18504,102,0,P|261:113|329:57,1,115,0|2,0:0|0:0,0:0:0:0:
415,242,18807,2,0,L|292:228,1,115,8|2,0:0|0:0,0:0:0:0:
148,177,19035,1,2,0:0:0:0:
148,177,19110,2,0,P|201:156|257:165,1,115,2|0,0:0|0:0,0:0:0:0:
472,328,19413,5,8,0:0:0:0:
472,328,19565,2,0,P|352:316|300:228,1,230,4|2,0:0|0:0,0:0:0:0:
358,235,19944,1,2,0:0:0:0:
415,242,20019,1,8,0:0:0:0:
301,67,20171,1,2,0:0:0:0:
257,75,20247,1,2,0:0:0:0:
213,87,20322,1,2,0:0:0:0:
156,292,20474,101,2,0:0:0:0:
84,116,20626,1,8,0:0:0:0:
80,320,20777,6,0,P|140:372|224:336,1,172.5,2|0,0:0|0:0,0:0:0:0:
196,224,21080,2,0,L|324:260,1,115,2|8,0:0|0:0,0:0:0:0:
478,301,21383,1,2,0:0:0:0:
360,380,21535,5,0,0:0:0:0:
368,336,21610,1,0,0:0:0:0:
376,292,21686,1,0,0:0:0:0:
412,264,21762,5,8,0:0:0:0:
420,212,21838,1,8,0:0:0:0:
428,160,21913,1,8,0:0:0:0:
468,128,21989,21,10,0:0:0:0:
476,72,22065,1,10,0:0:0:0:
484,16,22141,1,4,0:0:0:0:
484,16,22444,85,0,0:0:0:0:
484,16,22747,2,0,L|376:36,1,86.2500032901765,0|2,0:0|0:0,0:0:0:0:
212,200,23050,2,0,L|320:180,1,86.2500032901765,0|2,0:0|0:0,0:0:0:0:
184,101,23353,21,0,0:0:0:0:
84,123,23504,1,0,0:0:0:0:
110,225,23656,1,0,0:0:0:0:
212,200,23807,1,0,0:0:0:0:
248,305,23959,85,0,0:0:0:0:
110,308,24110,1,2,0:0:0:0:
129,318,24186,1,0,0:0:0:0:
148,328,24262,1,0,0:0:0:0:
248,305,24413,1,2,0:0:0:0:
347,283,24565,1,4,0:0:0:0:
347,283,24868,21,0,0:0:0:0:
347,283,25171,2,0,L|443:319,1,86.2500032901765,0|2,0:0|0:0,0:0:0:0:
339,112,25474,2,0,L|435:148,1,86.2500032901765,0|2,0:0|0:0,0:0:0:0:
288,184,25777,85,0,0:0:0:0:
185,193,25929,1,0,0:0:0:0:
95,142,26080,1,0,0:0:0:0:
185,91,26232,1,0,0:0:0:0:
190,202,26383,21,0,0:0:0:0:
84,142,26535,1,2,0:0:0:0:
75,136,26610,1,0,0:0:0:0:
65,131,26686,1,0,0:0:0:0:
190,81,26838,1,2,0:0:0:0:
248,305,26989,86,0,P|176:345|76:329,1,172.500006580353,4|0,0:0|0:0,0:0:0:0:
288,184,27444,2,0,L|400:220,1,86.2500032901765,2|0,0:0|0:0,0:0:0:0:
468,336,27747,2,0,L|356:300,1,86.2500032901765,2|0,0:0|0:0,0:0:0:0:
261,153,28050,21,2,0:0:0:0:
270,162,28126,1,0,0:0:0:0:
280,172,28201,2,0,L|392:208,1,86.2500032901765
480,348,28504,2,0,L|368:312,1,86.2500032901765,2|0,0:0|0:0,0:0:0:0:
280,172,28807,85,0,0:0:0:0:
86,235,28959,1,2,0:0:0:0:
4,104,29110,1,0,0:0:0:0:
4,104,29413,22,0,P|68:52|140:48,1,129.375004935265,4|0,0:0|0:0,0:0:0:0:
280,172,29716,2,0,L|168:144,1,86.2500032901765,2|0,0:0|0:0,0:0:0:0:
244,28,30019,85,0,0:0:0:0:
86,235,30171,1,8,0:0:0:0:
280,172,30322,1,2,0:0:0:0:
4,104,30474,1,4,0:0:0:0:
4,104,30777,21,0,0:0:0:0:
219,236,30929,1,8,0:0:0:0:
130,116,31080,1,0,0:0:0:0:
178,367,31232,1,2,0:0:0:0:
252,345,31383,1,2,0:0:0:0:
328,320,31535,69,8,0:0:0:0:
305,283,31610,1,8,0:0:0:0:
301,239,31686,1,8,0:0:0:0:
318,199,31762,1,8,0:0:0:0:
357,181,31838,2,0,B|407:210|407:210|462:196,1,115,4|2,0:0|0:0,0:0:0:0:
506,80,32141,1,8,0:0:0:0:
308,122,32292,1,2,0:0:0:0:
401,285,32444,5,0,0:0:0:0:
401,285,32595,1,2,0:0:0:0:
425,128,32747,1,8,0:0:0:0:
468,328,32898,1,2,0:0:0:0:
181,384,33050,102,0,L|151:249,1,115,0|2,0:0|0:0,0:0:0:0:
328,320,33353,2,0,L|302:207,1,115,8|2,0:0|0:0,0:0:0:0:
156,272,33656,1,2,0:0:0:0:
251,156,33807,1,2,0:0:0:0:
91,76,33959,2,0,P|140:104|197:102,1,115,8|0,0:0|0:0,0:0:0:0:
468,182,34262,5,4,0:0:0:0:
407,337,34413,1,2,0:0:0:0:
303,208,34565,1,8,0:0:0:0:
507,290,34716,101,2,0:0:0:0:
504,305,34792,1,2,0:0:0:0:
500,319,34868,1,2,0:0:0:0:
372,121,35019,1,2,0:0:0:0:
292,323,35171,1,10,0:0:0:0:
303,333,35247,1,2,0:0:0:0:
311,342,35322,6,0,P|383:286|391:202,1,172.5,2|0,0:0|0:0,0:0:0:0:
372,121,35626,2,0,L|259:144,1,115,2|8,0:0|0:0,0:0:0:0:
11,247,35929,1,0,0:0:0:0:
135,215,36080,1,2,0:0:0:0:
47,153,36232,1,2,0:0:0:0:
11,247,36383,101,10,0:0:0:0:
41,239,36459,1,2,0:0:0:0:
72,231,36535,1,2,0:0:0:0:
103,223,36610,1,2,0:0:0:0:
134,215,36686,2,0,P|182:112|154:3,1,230,4|8,0:0|0:0,0:0:0:0:
27,153,37141,5,2,0:0:0:0:
260,53,37292,1,0,0:0:0:0:
47,153,37444,101,2,0:0:0:0:
189,274,37595,1,8,0:0:0:0:
67,153,37747,6,0,B|35:105|35:105|23:41|83:1,1,172.5,2|0,0:0|0:0,0:0:0:0:
156,102,38050,2,0,L|131:237,1,115,2|8,0:0|0:0,0:0:0:0:
341,353,38353,101,2,0:0:0:0:
360,339,38429,1,2,0:0:0:0:
379,325,38504,1,2,0:0:0:0:
291,156,38656,1,2,0:0:0:0:
216,349,38807,1,8,0:0:0:0:
393,217,38959,1,2,0:0:0:0:
189,274,39110,6,0,P|145:218|237:226,1,206.999993682861,4|0,0:0|0:0,0:0:0:0:
269,290,39413,1,8,0:0:0:0:
0,205,39565,101,0,0:0:0:0:
140,335,39716,1,2,0:0:0:0:
72,217,39868,5,2,0:0:0:0:
156,102,40019,1,8,0:0:0:0:
0,205,40171,102,0,B|-24:273|44:309|44:309|92:281,1,172.5,2|0,0:0|0:0,0:0:0:0:
148,249,40474,1,2,0:0:0:0:
325,321,40626,5,8,0:0:0:0:
325,321,40777,1,2,0:0:0:0:
282,157,40929,1,0,0:0:0:0:
282,157,41080,1,2,0:0:0:0:
395,266,41232,37,10,0:0:0:0:
404,301,41307,1,10,0:0:0:0:
430,326,41383,1,10,0:0:0:0:
465,333,41459,1,10,0:0:0:0:
484,328,41535,2,0,B|436:368|388:344|388:344|348:348|316:312,1,172.500006580353,4|0,0:0|0:0,0:0:0:0:
23,244,42141,2,0,B|71:208|123:232|123:232|159:244|187:228,1,172.500006580353,8|2,0:0|0:0,0:0:0:0:
255,108,42595,1,8,0:0:0:0:
116,110,42747,1,2,0:0:0:0:
187,228,42898,1,0,0:0:0:0:
186,54,43050,37,2,0:0:0:0:
105,198,43201,1,2,0:0:0:0:
272,196,43353,2,0,P|316:176|340:136,1,86.2500032901765,8|2,0:0|0:0,0:0:0:0:
332,128,43580,1,0,0:0:0:0:
324,112,43656,1,2,0:0:0:0:
353,268,43807,101,10,0:0:0:0:
343,298,43883,1,2,0:0:0:0:
332,324,43959,2,0,B|400:332|400:332|464:312,1,129.375004935265,6|0,0:0|0:0,0:0:0:0:
501,253,44262,1,8,0:0:0:0:
402,368,44413,1,0,0:0:0:0:
458,314,44565,5,2,0:0:0:0:
253,302,44716,1,8,0:0:0:0:
332,324,44868,101,2,0:0:0:0:
405,105,45019,1,4,0:0:0:0:
405,105,45322,37,2,0:0:0:0:
322,19,45474,2,0,B|278:14|278:14|239:30,1,86.2500032901765,8|0,0:0|0:0,0:0:0:0:
376,185,45777,2,0,B|420:190|420:190|459:173,1,86.2500032901765,2|8,0:0|0:0,0:0:0:0:
484,103,46080,1,0,0:0:0:0:
504,305,46232,102,0,B|440:257|376:277|376:277|344:265|344:265|304:289|240:269,1,258.75000987053,4|0,0:0|0:0,0:0:0:0:
69,121,46989,2,0,P|149:93|228:123,1,172.500006580353,8|2,0:0|0:0,0:0:0:0:
248,199,47444,1,8,0:0:0:0:
120,328,47595,2,0,P|56:276|40:188,1,172.500006580353,4|0,0:0|0:0,0:0:0:0:
256,36,48201,1,8,0:0:0:0:
256,36,48504,5,0,0:0:0:0:
280,44,48580,1,0,0:0:0:0:
304,40,48656,1,0,0:0:0:0:
328,48,48732,1,0,0:0:0:0:
352,44,48807,22,0,L|440:32,1,86.2500032901765,4|2,0:0|0:0,0:0:0:0:
408,288,49110,2,0,L|496:276,1,86.2500032901765,0|2,0:0|0:0,0:0:0:0:
282,343,49413,101,0,0:0:0:0:
156,283,49565,1,0,0:0:0:0:
272,199,49716,1,2,0:0:0:0:
149,112,49868,1,0,0:0:0:0:
307,122,50019,5,2,0:0:0:0:
163,196,50171,1,0,0:0:0:0:
307,269,50322,1,2,0:0:0:0:
174,360,50474,1,0,0:0:0:0:
30,283,50626,101,2,0:0:0:0:
272,199,50777,1,2,0:0:0:0:
149,112,50929,1,2,0:0:0:0:
174,360,51080,1,2,0:0:0:0:
30,154,51232,101,2,0:0:0:0:
248,327,51383,1,2,0:0:0:0:
248,327,51459,1,0,0:0:0:0:
248,327,51535,1,0,0:0:0:0:
461,140,51686,1,2,0:0:0:0:
216,252,51838,101,2,0:0:0:0:
135,66,51989,1,2,0:0:0:0:
338,91,52141,1,2,0:0:0:0:
216,252,52292,5,8,0:0:0:0:
436,296,53504,38,0,P|480:244|468:128,1,172.5,4|0,0:0|0:0,0:0:0:0:
428,64,53807,1,0,0:0:0:0:
232,188,53959,1,8,0:0:0:0:
436,296,54110,1,0,0:0:0:0:
366,182,54262,5,0,0:0:0:0:
304,300,54413,1,2,0:0:0:0:
320,320,54489,1,0,0:0:0:0:
336,340,54565,1,8,0:0:0:0:
232,188,54716,1,2,0:0:0:0:
232,188,55019,101,0,0:0:0:0:
196,28,55171,1,8,0:0:0:0:
112,288,55322,1,0,0:0:0:0:
384,232,55474,1,0,0:0:0:0:
16,128,55626,5,0,0:0:0:0:
56,108,55701,1,0,0:0:0:0:
96,88,55777,1,8,0:0:0:0:
472,40,55929,102,0,P|416:88|312:84,1,172.5,4|0,0:0|0:0,0:0:0:0:
196,28,56232,1,0,0:0:0:0:
414,350,56383,5,8,0:0:0:0:
112,288,56535,1,0,0:0:0:0:
256,192,56686,1,0,0:0:0:0:
264,368,56838,101,2,0:0:0:0:
264,368,56913,1,0,0:0:0:0:
264,368,56989,1,8,0:0:0:0:
100,116,57141,1,2,0:0:0:0:
256,192,57292,5,0,0:0:0:0:
256,192,57444,1,0,0:0:0:0:
112,288,57595,1,8,0:0:0:0:
112,288,57747,1,0,0:0:0:0:
408,272,57898,102,0,P|460:244|488:172,1,115
460,108,58126,1,0,0:0:0:0:
456,100,58201,1,8,0:0:0:0:
256,192,58353,2,0,P|204:140|224:44,1,172.5,4|0,0:0|0:0,0:0:0:0:
292,108,58656,1,0,0:0:0:0:
24,76,58807,5,8,0:0:0:0:
219,49,58959,1,0,0:0:0:0:
72,192,59110,1,0,0:0:0:0:
256,192,59262,1,0,0:0:0:0:
128,316,59413,1,8,0:0:0:0:
336,296,59565,1,0,0:0:0:0:
371,25,59716,101,2,0:0:0:0:
174,295,59868,1,0,0:0:0:0:
492,192,60019,1,8,0:0:0:0:
174,88,60171,1,0,0:0:0:0:
370,359,60322,1,0,0:0:0:0:
492,192,60474,5,2,0:0:0:0:
485,182,60550,1,0,0:0:0:0:
476,170,60626,2,0,P|424:136|344:120,1,137.999995788574,8|0,0:0|0:0,0:0:0:0:
174,295,60929,101,4,0:0:0:0:
174,88,61080,1,0,0:0:0:0:
256,284,61232,5,8,0:0:0:0:
90,99,61383,1,4,0:0:0:0:
95,88,61459,1,0,0:0:0:0:
99,77,61535,1,0,0:0:0:0:
338,273,61686,101,8,0:0:0:0:
92,352,61838,1,0,0:0:0:0:
6,110,61989,2,2,B|36:36|36:36|76:-23|160:-8|176:52|172:84,1,275.999991577149,4|2,0:0|0:0,0:0:0:0:
384,208,62444,2,0,P|316:220|256:192,1,137.999995788574,8|2,0:0|0:0,0:0:0:0:
452,116,62747,5,0,0:0:0:0:
485,154,62822,1,0,0:0:0:0:
499,203,62898,1,0,0:0:0:0:
490,254,62974,1,0,0:0:0:0:
460,295,63050,1,8,0:0:0:0:
255,191,63201,102,0,B|220:128|220:128|208:60|256:24,1,172.5,4|0,0:0|0:0,0:0:0:0:
320,104,63504,1,0,0:0:0:0:
152,180,63656,1,8,0:0:0:0:
300,288,63807,1,0,0:0:0:0:
300,288,63883,1,0,0:0:0:0:
300,288,63959,1,0,0:0:0:0:
243,34,64110,5,2,0:0:0:0:
52,212,64262,1,8,0:0:0:0:
300,288,64413,1,2,0:0:0:0:
300,288,64716,101,0,0:0:0:0:
205,186,64868,1,8,0:0:0:0:
103,279,65019,1,0,0:0:0:0:
198,380,65171,1,0,0:0:0:0:
196,88,65322,5,0,0:0:0:0:
202,283,65474,1,8,0:0:0:0:
28,192,65626,2,0,L|80:160,1,57.5,4|0,0:0|0:0,0:0:0:0:
196,88,65777,101,0,0:0:0:0:
300,140,65929,1,0,0:0:0:0:
400,48,66080,2,0,B|448:52|448:52|508:84,1,115,8|0,0:0|0:0,0:0:0:0:
468,356,66383,5,0,0:0:0:0:
380,248,66535,1,2,0:0:0:0:
202,283,66686,2,0,P|144:280|80:240,1,115,8|2,0:0|0:0,0:0:0:0:
28,192,66913,1,0,0:0:0:0:
48,176,66989,1,0,0:0:0:0:
256,32,67141,101,0,0:0:0:0:
202,283,67292,1,8,0:0:0:0:
132,136,67444,1,0,0:0:0:0:
153,142,67519,1,0,0:0:0:0:
175,148,67595,2,0,B|232:164|232:164|288:148,1,115
436,96,67898,1,8,0:0:0:0:
500,352,68050,2,0,P|456:276|380:248,1,172.5,4|0,0:0|0:0,0:0:0:0:
202,283,68353,5,0,0:0:0:0:
384,364,68504,1,8,0:0:0:0:
124,296,68656,101,0,0:0:0:0:
132,316,68732,1,0,0:0:0:0:
140,336,68807,1,0,0:0:0:0:
379,247,68959,1,0,0:0:0:0:
212,56,69110,2,0,L|72:28,1,115,8|0,0:0|0:0,0:0:0:0:
256,368,69413,5,2,0:0:0:0:
484,192,69565,1,0,0:0:0:0:
192,72,69716,2,0,B|132:60|132:60|96:64|64:104,1,115,8|0,0:0|0:0,0:0:0:0:
144,148,69944,101,0,0:0:0:0:
160,180,70019,2,0,P|72:204|0:172,1,172.5
84,82,70322,5,8,0:0:0:0:
428,120,70474,1,6,0:0:0:0:
484,192,70777,101,0,0:0:0:0:
28,244,70929,1,8,0:0:0:0:
352,352,71080,5,0,0:0:0:0:
188,304,71232,1,0,0:0:0:0:
328,224,71383,1,0,0:0:0:0:
200,168,71535,101,8,0:0:0:0:
200,168,71610,1,0,0:0:0:0:
200,168,71686,1,0,0:0:0:0:
352,352,71838,1,4,0:0:0:0:
436,132,71989,1,0,0:0:0:0:
200,168,72141,5,8,0:0:0:0:
328,224,72292,1,0,0:0:0:0:
312,88,72444,101,0,0:0:0:0:
286,59,72519,1,0,0:0:0:0:
253,39,72595,1,0,0:0:0:0:
217,29,72671,1,0,0:0:0:0:
178,29,72747,1,8,0:0:0:0:
142,40,72822,1,0,0:0:0:0:
110,61,72898,22,2,P|68:128|160:300,1,275.999991577149,4|2,0:0|0:0,0:0:0:0:
436,132,73353,21,8,0:0:0:0:
436,132,73504,1,2,0:0:0:0:
141,292,73656,5,8,0:0:0:0:
141,292,73807,1,2,0:0:0:0:
469,364,73959,101,8,0:0:0:0:
469,364,74110,1,2,0:0:0:0:
108,60,74262,5,8,0:0:0:0:
108,60,74413,1,2,0:0:0:0:
256,344,74565,101,8,0:0:0:0:
256,344,74716,1,2,0:0:0:0:
504,144,74868,5,8,0:0:0:0:
484,124,74944,1,8,0:0:0:0:
456,124,75019,1,8,0:0:0:0:
436,104,75095,1,8,0:0:0:0:
408,104,75171,2,0,L|344:76,1,57.5,8|0,0:0|0:0,0:0:0:0:
152,228,75322,70,0,P|235:236|308:188,1,172.5,4|0,0:0|0:0,0:0:0:0:
355,81,75626,21,0,0:0:0:0:
208,112,75777,1,8,0:0:0:0:
188,96,75853,1,0,0:0:0:0:
168,80,75929,1,0,0:0:0:0:
72,176,76080,1,8,0:0:0:0:
52,160,76156,1,0,0:0:0:0:
32,144,76232,1,0,0:0:0:0:
80,312,76383,5,8,0:0:0:0:
93,322,76459,1,2,0:0:0:0:
106,333,76535,1,0,0:0:0:0:
119,344,76610,1,0,0:0:0:0:
132,355,76686,70,0,P|209:348|277:276,1,172.500006580353,4|0,0:0|0:0,0:0:0:0:
152,228,77292,22,0,B|168:184|204:160|204:160|252:144|304:156,1,172.499994735718
472,308,77747,2,0,B|488:324|484:348|464:360|464:360|424:372|360:356|324:256|400:192,1,310.499990524292
508,132,78504,6,0,L|356:68,1,137.999995788574
104,128,78959,70,0,P|184:176|264:156,1,172.500006580353,4|2,0:0|0:0,0:0:0:0:
204,44,79413,1,8,0:0:0:0:
257,160,79565,1,0,0:0:0:0:
380,78,79716,1,2,0:0:0:0:
452,228,79868,1,2,0:0:0:0:
464,204,79944,1,2,0:0:0:0:
476,180,80019,1,8,0:0:0:0:
344,288,80171,6,0,P|416:344|496:344,1,172.500006580353,2|2,0:0|0:0,0:0:0:0:
384,180,80626,2,0,L|232:260,1,172.500006580353,8|2,0:0|0:0,0:0:0:0:
196,223,81004,1,2,0:0:0:0:
160,185,81080,1,2,0:0:0:0:
28,280,81232,1,8,0:0:0:0:
176,348,81383,2,0,P|256:360|324:304,1,172.500006580353,2|2,0:0|0:0,0:0:0:0:
231,260,81762,101,2,0:0:0:0:
219,253,81838,1,8,0:0:0:0:
416,348,81989,1,0,0:0:0:0:
400,144,82141,2,0,P|376:172|372:212,1,43.1250016450883,2|0,0:0|0:0,0:0:0:0:
408,252,82292,1,2,0:0:0:0:
512,92,82444,5,10,0:0:0:0:
495,62,82519,1,2,0:0:0:0:
468,40,82595,2,0,P|378:20|305:61,1,172.500006580353,2|2,0:0|0:0,0:0:0:0:
219,253,83050,2,0,P|142:289|60:268,1,172.500006580353,8|2,0:0|0:0,0:0:0:0:
52,243,83429,1,2,0:0:0:0:
43,218,83504,1,2,0:0:0:0:
34,193,83580,1,2,0:0:0:0:
26,168,83656,69,8,0:0:0:0:
73,189,83732,1,8,0:0:0:0:
121,210,83807,1,10,0:0:0:0:
169,231,83883,1,10,0:0:0:0:
219,253,83959,2,0,P|256:196|242:146,1,86.2500032901765,8|2,0:0|0:0,0:0:0:0:
216,64,84262,1,2,0:0:0:0:
332,308,84413,6,0,P|372:252|384:176,1,115,8|2,0:0|0:0,0:0:0:0:
364,60,84716,1,2,0:0:0:0:
445,363,84868,101,8,0:0:0:0:
224,356,85019,2,4,B|135:359|60:271|91:186|91:186|140:216|211:218|256:162|256:162|328:164|371:108|381:51|381:51|466:82|499:202|413:283,1,891.25003399849,4|8,0:0|0:0,0:0:0:0:
332,308,86661,2,2,L|304:260,1,43.1250016450883
