osu file format v14

[General]
AudioFilename: audio.mp3
AudioLeadIn: 500
PreviewTime: 52595
Countdown: 0
SampleSet: Soft
StackLeniency: 0.3
Mode: 0
LetterboxInBreaks: 0
EpilepsyWarning: 1
WidescreenStoryboard: 1

[Editor]
Bookmarks: 41535
DistanceSpacing: 0.8
BeatDivisor: 4
GridSize: 32
TimelineZoom: 2.4

[Metadata]
Title:Twintail Dreamer! (TV Size)
TitleUnicode:ツインテール・ドリーマー! (TV Size)
Artist:Twin-Tails
ArtistUnicode:ツインテイルズ
Creator:Moecho
Version:Ayaya's Insane
Source:俺、ツインテールになります。
Tags:Twintails OreTwi Ore, Tsuinteru Tsuintēru ni Narimasu. Gonna be the Twin-Tail!! テイルレッド Tail Red 上坂すみれ Uesaka Sumire テイルブルー Blue 相坂優歌 Aisaka Yuuka テイルイエロー Yellow 赤﨑千夏 Akasaki Chinatsu Ending Theme ED TV Size edit Anime papiyon japanese pop j-pop jpop Kodora Laurier Natteke Kite HabiHolic Loneight L18 Lecana Giralda captin1 jonathanlfj apaffy kisata Nyquill RLC LunarSakuya Mythol meiikyuu Syameimaru-Aya Ayaya caren_sk CRN kiddly Axarious Delis ShirohaMyMommy SMM Koiyuki Minakami Yuki yf_bmp yf Skystar Amamiya Yuko rui rustbell spro sprosive Snow Note 7odoa bakabaka Hollow Wings HW
BeatmapID:2331480
BeatmapSetID:1115213

[Difficulty]
HPDrainRate:8
CircleSize:4
OverallDifficulty:7
ApproachRate:9
SliderMultiplier:1.6
SliderTickRate:1

[Events]
//Background and Video events
0,0,"bg.jpg",0,0
//Break Periods
//Storyboard Layer 0 (Background)
Sprite,Background,Centre,"sb\sprites\pixel-white.png",320,240 F,0,-60,,0,1 C,0,-60,,0,0,0 V,0,-60,,880,480 F,0,89619,,1,0
Sprite,Background,Centre,"bg.jpg",320,240 F,0,-2559,-1559,0,0.75 S,0,-1559,,0.4444444 F,0,337,487,0.75,0
Sprite,Background,Centre,"bg.jpg",320,240 F,0,88125,89125,0,0.75 S,0,89125,,0.4444444 F,0,89784,89934,0.75,0
Sprite,Background,Centre,"sb\sprites\bg-alt.jpg",320,240 F,0,187,337,0,0.75 S,0,337,,0.4444444 F,0,21156,22306,0.75,0
Sprite,Background,Centre,"sb\sprites\bg-alt.jpg",320,240 F,0,53369,53519,0,0.75 S,0,53519,,0.4444444 F,0,88125,89275,0.75,0
Sprite,Background,Centre,"sb\sprites\bg-alt-bw.jpg",320,240 F,0,22006,22306,0,0.75 S,0,22156,,0.4444444 F,0,39686,40486,0.75,0
Sprite,Background,Centre,"sb\sprites\bg-alt-bw.jpg",320,240 F,0,50491,50791,0,0.75 S,0,50641,,0.4444444 F,0,51807,52607,0.75,0
Sprite,Background,Centre,"sb\sprites\tail-red-ci.jpg",320,240 F,0,40794,41094,0,0.75 S,0,40944,,0.4444444 F,0,48822,50322,0.75,0
Sprite,Background,Centre,"sb\sprites\tail-blue-ci.jpg",320,240 F,0,42915,43215,0,0.75 S,0,43065,,0.4444444 F,0,48822,50322,0.75,0
Sprite,Background,Centre,"sb\sprites\tail-yellow-ci.jpg",320,240 F,0,45339,45639,0,0.75 S,0,45489,,0.4444444 F,0,48822,50322,0.75,0
Sprite,Background,Centre,"sb\sprites\pixel-white.png",320,240 V,0,2610,,854,480 F,0,2610,3210,0.15,0
Sprite,Background,Centre,"sb\sprites\pixel-white.png",320,240 V,0,3822,,854,480 F,0,3822,4422,0.15,0
Sprite,Background,Centre,"sb\sprites\pixel-white.png",320,240 V,0,5034,,854,480 F,0,5034,5634,0.15,0
Sprite,Background,Centre,"sb\sprites\pixel-white.png",320,240 V,0,5792,,854,480 F,0,5792,6392,0.15,0
Sprite,Background,Centre,"sb\sprites\pixel-white.png",320,240 V,0,6247,,854,480 F,0,6247,6847,0.15,0
Sprite,Background,Centre,"sb\sprites\pixel-white.png",320,240 V,0,7459,,854,480 F,0,7459,8059,0.15,0
Sprite,Background,Centre,"sb\sprites\pixel-white.png",320,240 V,0,9883,,854,480 F,0,9883,10483,0.15,0
Sprite,Background,Centre,"sb\sprites\pixel-white.png",320,240 V,0,12307,,854,480 F,0,12307,12907,0.15,0
Sprite,Background,Centre,"sb\sprites\pixel-white.png",320,240 V,0,13519,,854,480 F,0,13519,14119,0.15,0
Sprite,Background,Centre,"sb\sprites\pixel-white.png",320,240 V,0,14731,,854,480 F,0,14731,15331,0.15,0
Sprite,Background,Centre,"sb\sprites\pixel-white.png",320,240 V,0,15944,,854,480 F,0,15944,16544,0.15,0
Sprite,Background,Centre,"sb\sprites\pixel-white.png",320,240 V,0,17156,,854,480 F,0,17156,17756,0.15,0
Sprite,Background,Centre,"sb\sprites\pixel-white.png",320,240 V,0,19580,,854,480 F,0,19580,20180,0.15,0
Sprite,Background,Centre,"sb\sprites\pixel-white.png",320,240 V,0,20792,,854,480 F,0,20792,21392,0.15,0
Sprite,Background,Centre,"sb\sprites\pixel-white.png",320,240 V,0,22156,,854,480 F,0,22156,22756,0.15,0
Sprite,Background,Centre,"sb\sprites\pixel-white.png",320,240 V,0,30489,,854,480 F,0,30489,31089,0.15,0
Sprite,Background,Centre,"sb\sprites\pixel-white.png",320,240 V,0,31853,,854,480 F,0,31853,32453,0.15,0
Sprite,Background,Centre,"sb\sprites\pixel-white.png",320,240 V,0,34277,,854,480 F,0,34277,34877,0.15,0
Sprite,Background,Centre,"sb\sprites\pixel-white.png",320,240 V,0,36701,,854,480 F,0,36701,37301,0.15,0
Sprite,Background,Centre,"sb\sprites\pixel-white.png",320,240 V,0,40186,,854,480 F,0,40186,40786,0.15,0
Sprite,Background,Centre,"sb\sprites\pixel-white.png",320,240 V,0,41550,,854,480 F,0,41550,42150,0.15,0
Sprite,Background,Centre,"sb\sprites\pixel-white.png",320,240 V,0,46247,,854,480 F,0,46247,46847,0.15,0
Sprite,Background,Centre,"sb\sprites\pixel-white.png",320,240 V,0,48822,,854,480 F,0,48822,49422,0.15,0
Sprite,Background,Centre,"sb\sprites\pixel-white.png",320,240 V,0,53519,,854,480 F,0,53519,54119,0.15,0
Sprite,Background,Centre,"sb\sprites\pixel-white.png",320,240 V,0,55944,,854,480 F,0,55944,56544,0.15,0
Sprite,Background,Centre,"sb\sprites\pixel-white.png",320,240 V,0,58368,,854,480 F,0,58368,58968,0.15,0
Sprite,Background,Centre,"sb\sprites\pixel-white.png",320,240 V,0,60944,,854,480 F,0,60944,61544,0.15,0
Sprite,Background,Centre,"sb\sprites\pixel-white.png",320,240 V,0,61398,,854,480 F,0,61398,61998,0.15,0
Sprite,Background,Centre,"sb\sprites\pixel-white.png",320,240 V,0,62004,,854,480 F,0,62004,62604,0.15,0
Sprite,Background,Centre,"sb\sprites\pixel-white.png",320,240 V,0,63216,,854,480 F,0,63216,63816,0.15,0
Sprite,Background,Centre,"sb\sprites\pixel-white.png",320,240 V,0,65641,,854,480 F,0,65641,66241,0.15,0
Sprite,Background,Centre,"sb\sprites\pixel-white.png",320,240 V,0,67307,,854,480 F,0,67307,67907,0.15,0
Sprite,Background,Centre,"sb\sprites\pixel-white.png",320,240 V,0,68065,,854,480 F,0,68065,68665,0.15,0
Sprite,Background,Centre,"sb\sprites\pixel-white.png",320,240 V,0,70489,,854,480 F,0,70489,71089,0.15,0
Sprite,Background,Centre,"sb\sprites\pixel-white.png",320,240 V,0,72913,,854,480 F,0,72913,73513,0.15,0
Sprite,Background,Centre,"sb\sprites\pixel-white.png",320,240 V,0,75338,,854,480 F,0,75338,75938,0.15,0
Sprite,Background,Centre,"sb\sprites\pixel-white.png",320,240 V,0,76701,,854,480 F,0,76701,77301,0.15,0
Sprite,Background,Centre,"sb\sprites\pixel-white.png",320,240 V,0,78974,,854,480 F,0,78974,79574,0.15,0
Sprite,Background,Centre,"sb\sprites\pixel-white.png",320,240 V,0,80186,,854,480 F,0,80186,80786,0.15,0
Sprite,Background,Centre,"sb\sprites\pixel-white.png",320,240 V,0,81398,,854,480 F,0,81398,81998,0.15,0
Sprite,Background,Centre,"sb\sprites\pixel-white.png",320,240 V,0,82610,,854,480 F,0,82610,83210,0.15,0
Sprite,Background,Centre,"sb\sprites\pixel-white.png",320,240 V,0,83974,,854,480 F,0,83974,84574,0.15,0
Sprite,Background,Centre,"sb\sprites\pixel-white.png",320,240 V,0,84428,,854,480 F,0,84428,85028,0.15,0
Sprite,Background,Centre,"sb\sprites\pixel-white.png",320,240 V,0,85034,,854,480 F,0,85034,85634,0.15,0
//Storyboard Layer 1 (Fail)
//Storyboard Layer 2 (Pass)
//Storyboard Layer 3 (Foreground)
Sprite,Foreground,Centre,"sb\lyrics\0053.png",0,0 F,0,12207,12407,0,0.8 M,0,12307,,649.95,397.4 S,0,12307,,0.3 C,0,12307,,255,255,255 F,0,86904,87104,0.8,0
Sprite,Foreground,Centre,"sb\lyrics\0079.png",0,0 F,0,12207,12407,0,0.8 M,0,12307,,656.55,399.2 S,0,12307,,0.3 C,0,12307,,255,255,255 F,0,86904,87104,0.8,0
Sprite,Foreground,Centre,"sb\lyrics\0061.png",0,0 F,0,12207,12407,0,0.8 M,0,12307,,663.45,398.75 S,0,12307,,0.3 C,0,12307,,255,255,255 F,0,86904,87104,0.8,0
Sprite,Foreground,Centre,"sb\lyrics\006d.png",0,0 F,0,12207,12407,0,0.8 M,0,12307,,669.7499,398.75 S,0,12307,,0.3 C,0,12307,,255,255,255 F,0,86904,87104,0.8,0
Sprite,Foreground,Centre,"sb\lyrics\0065.png",0,0 F,0,12207,12407,0,0.8 M,0,12307,,676.3499,399.05 S,0,12307,,0.3 C,0,12307,,255,255,255 F,0,86904,87104,0.8,0
Sprite,Foreground,Centre,"sb\lyrics\0069.png",0,0 F,0,12207,12407,0,0.8 M,0,12307,,682.9499,397.4 S,0,12307,,0.3 C,0,12307,,255,255,255 F,0,86904,87104,0.8,0
Sprite,Foreground,Centre,"sb\lyrics\006d.png",0,0 F,0,12207,12407,0,0.8 M,0,12307,,689.5499,398.75 S,0,12307,,0.3 C,0,12307,,255,255,255 F,0,86904,87104,0.8,0
Sprite,Foreground,Centre,"sb\lyrics\0061.png",0,0 F,0,12207,12407,0,0.8 M,0,12307,,696.4498,398.75 S,0,12307,,0.3 C,0,12307,,255,255,255 F,0,86904,87104,0.8,0
Sprite,Foreground,Centre,"sb\lyrics\0072.png",0,0 F,0,12207,12407,0,0.8 M,0,12307,,702.8998,398.6 S,0,12307,,0.3 C,0,12307,,255,255,255 F,0,86904,87104,0.8,0
Sprite,Foreground,Centre,"sb\lyrics\0075.png",0,0 F,0,12207,12407,0,0.8 M,0,12307,,709.4998,398.6 S,0,12307,,0.3 C,0,12307,,255,255,255 F,0,86904,87104,0.8,0
Sprite,Foreground,Centre,"sb\lyrics\002d.png",0,0 F,0,12207,12407,0,0.8 M,0,12307,,716.0997,397.7 S,0,12307,,0.3 C,0,12307,,255,255,255 F,0,86904,87104,0.8,0
Sprite,Foreground,Centre,"sb\lyrics\0041.png",0,0 F,0,12207,12407,0,0.8 M,0,12307,,722.6997,397.7 S,0,12307,,0.3 C,0,12307,,255,255,255 F,0,86904,87104,0.8,0
Sprite,Foreground,Centre,"sb\lyrics\0079.png",0,0 F,0,12207,12407,0,0.8 M,0,12307,,729.1497,399.2 S,0,12307,,0.3 C,0,12307,,255,255,255 F,0,86904,87104,0.8,0
Sprite,Foreground,Centre,"sb\lyrics\0061.png",0,0 F,0,12207,12407,0,0.8 M,0,12307,,736.0497,398.75 S,0,12307,,0.3 C,0,12307,,255,255,255 F,0,86904,87104,0.8,0
Sprite,Foreground,Centre,"sb\lyrics\0041.png",0,0 F,0,12207,12407,0,0.8 M,0,12307,,593.5,434.5 S,0,12307,,0.5 C,0,12307,,255,255,255 F,0,86904,87104,0.8,0
Sprite,Foreground,Centre,"sb\lyrics\0079.png",0,0 F,0,12207,12407,0,0.8 M,0,12307,,604.25,437 S,0,12307,,0.5 C,0,12307,,255,255,255 F,0,86904,87104,0.8,0
Sprite,Foreground,Centre,"sb\lyrics\0061.png",0,0 F,0,12207,12407,0,0.8 M,0,12307,,615.75,436.25 S,0,12307,,0.5 C,0,12307,,255,255,255 F,0,86904,87104,0.8,0
Sprite,Foreground,Centre,"sb\lyrics\0079.png",0,0 F,0,12207,12407,0,0.8 M,0,12307,,626.25,437 S,0,12307,,0.5 C,0,12307,,255,255,255 F,0,86904,87104,0.8,0
Sprite,Foreground,Centre,"sb\lyrics\0061.png",0,0 F,0,12207,12407,0,0.8 M,0,12307,,637.75,436.25 S,0,12307,,0.5 C,0,12307,,255,255,255 F,0,86904,87104,0.8,0
Sprite,Foreground,Centre,"sb\lyrics\0027.png",0,0 F,0,12207,12407,0,0.8 M,0,12307,,646.25,428.75 S,0,12307,,0.5 C,0,12307,,255,255,255 F,0,86904,87104,0.8,0
Sprite,Foreground,Centre,"sb\lyrics\0073.png",0,0 F,0,12207,12407,0,0.8 M,0,12307,,659.5,436.5 S,0,12307,,0.5 C,0,12307,,255,255,255 F,0,86904,87104,0.8,0
Sprite,Foreground,Centre,"sb\lyrics\0049.png",0,0 F,0,12207,12407,0,0.8 M,0,12307,,681.25,434.25 S,0,12307,,0.5 C,0,12307,,255,255,255 F,0,86904,87104,0.8,0
Sprite,Foreground,Centre,"sb\lyrics\006e.png",0,0 F,0,12207,12407,0,0.8 M,0,12307,,692.75,436 S,0,12307,,0.5 C,0,12307,,255,255,255 F,0,86904,87104,0.8,0
Sprite,Foreground,Centre,"sb\lyrics\0073.png",0,0 F,0,12207,12407,0,0.8 M,0,12307,,703.5,436.5 S,0,12307,,0.5 C,0,12307,,255,255,255 F,0,86904,87104,0.8,0
Sprite,Foreground,Centre,"sb\lyrics\0061.png",0,0 F,0,12207,12407,0,0.8 M,0,12307,,714.75,436.25 S,0,12307,,0.5 C,0,12307,,255,255,255 F,0,86904,87104,0.8,0
Sprite,Foreground,Centre,"sb\lyrics\006e.png",0,0 F,0,12207,12407,0,0.8 M,0,12307,,725.75,436 S,0,12307,,0.5 C,0,12307,,255,255,255 F,0,86904,87104,0.8,0
Sprite,Foreground,Centre,"sb\lyrics\0065.png",0,0 F,0,12207,12407,0,0.8 M,0,12307,,736.25,436.75 S,0,12307,,0.5 C,0,12307,,255,255,255 F,0,86904,87104,0.8,0
//Storyboard Layer 4 (Overlay)
//Storyboard Sound Samples

[TimingPoints]
323,303.030303030303,4,2,50,60,1,0
323,-100,4,2,50,60,0,0
2141,-83.3333333333333,4,2,50,60,0,0
2292,-133.333333333333,4,2,50,60,0,0
2519,-133.333333333333,4,2,50,30,0,0
2595,-133.333333333333,4,2,50,60,0,0
3807,-111.111111111111,4,2,50,60,0,0
5019,-133.333333333333,4,2,50,60,0,0
6232,-111.111111111111,4,2,50,60,0,0
7444,-100,4,2,50,65,0,0
12292,-100,4,2,50,60,0,0
22141,-111.111111111111,4,2,50,50,0,0
31838,-100,4,2,50,60,0,0
32519,-100,4,2,50,30,0,0
32595,-100,4,2,50,60,0,0
34944,-100,4,2,50,30,0,0
35019,-100,4,2,50,60,0,0
37368,-100,4,2,50,30,0,0
37444,-100,4,2,50,60,0,0
40095,-100,4,2,50,30,0,0
40171,-100,4,2,50,60,0,0
40550,-100,4,2,50,35,0,0
41459,-100,4,2,50,60,0,0
41762,-100,4,2,50,30,0,0
41838,-100,4,2,50,60,0,0
42974,-100,4,2,50,35,0,0
43883,-100,4,2,50,60,0,0
44186,-100,4,2,50,30,0,0
44262,-100,4,2,50,60,0,0
45701,-100,4,2,50,30,0,0
45777,-100,4,2,50,60,0,0
48732,-100,4,2,50,60,0,0
49035,-100,4,2,50,30,0,0
49110,-100,4,2,50,60,0,0
50095,-100,4,2,50,30,0,0
50171,-100,4,2,50,60,0,0
50550,-100,4,2,50,60,0,0
50701,-100,4,2,50,30,0,0
50777,-100,4,2,50,60,0,0
50853,-100,4,2,50,30,0,0
50929,-100,4,2,50,60,0,0
51004,-100,4,2,50,30,0,0
51080,-100,4,2,50,60,0,0
51156,-100,4,2,50,30,0,0
51232,-100,4,2,50,60,0,0
52747,-200,4,2,50,60,0,0
53353,-200,4,2,50,30,0,0
53504,-76.9230769230769,4,2,50,70,0,1
59641,-76.9230769230769,4,2,50,35,0,1
59716,-76.9230769230769,4,2,50,70,0,1
68732,-76.9230769230769,4,2,50,70,0,1
69035,-76.9230769230769,4,2,50,70,0,1
69944,-76.9230769230769,4,2,50,70,0,1
70398,-76.9230769230769,4,2,50,70,0,1
71156,-76.9230769230769,4,2,50,70,0,1
71459,-76.9230769230769,4,2,50,70,0,1
72898,-76.9230769230769,4,2,50,65,0,0
73126,-76.9230769230769,4,2,50,32,0,0
73201,-76.9230769230769,4,2,50,65,0,0
73277,-76.9230769230769,4,2,50,32,0,0
73353,-100,4,2,50,65,0,0
76686,-100,4,2,50,65,0,0
77747,-100,4,2,50,32,0,0
78504,-100,4,2,50,50,0,0
78959,-100,4,2,50,60,0,0
83959,-100,4,2,50,60,0,0
85095,-200,4,2,50,60,0,0
86459,-200,4,2,50,30,0,0

[Colours]
Combo1 : 192,192,192
Combo2 : 255,50,50
Combo3 : 255,125,125
Combo4 : 25,100,255
Combo5 : 50,150,255
Combo6 : 255,255,50
Combo7 : 255,255,150
Combo8 : 128,128,128

[HitObjects]
49,108,323,101,2,0:0:0:0:
142,50,474,1,0,0:0:0:0:
125,126,626,1,0,0:0:0:0:
67,33,777,1,0,0:0:0:0:
271,122,1232,5,2,0:0:0:0:
246,228,1383,1,0,0:0:0:0:
312,187,1535,1,0,0:0:0:0:
205,162,1686,1,0,0:0:0:0:
202,359,1838,69,8,0:0:0:0:
237,342,1913,1,8,0:0:0:0:
277,337,1989,1,8,1:2:0:0:
316,346,2065,1,8,1:2:0:0:
347,370,2141,2,0,L|427:358,1,47.9999985351563,8|0,0:0|0:0,0:0:0:0:
383,233,2292,6,0,B|406:229|406:229|450:244|450:244|493:237,1,90.0000034332277,8|0,0:0|0:0,0:0:0:0:
489,230,2595,38,0,L|481:298,1,60.0000022888184,6|0,1:2|0:0,0:0:0:0:
437,132,3353,1,2,0:0:0:0:
489,230,3504,2,0,L|481:298,1,60.0000022888184,2|0,0:0|0:0,0:0:0:0:
402,357,3807,6,0,P|348:357|289:289,1,143.999995605469,6|0,1:2|0:0,0:0:0:0:
296,131,4262,1,2,0:0:0:0:
296,131,4565,102,0,L|305:58,1,71.9999978027344,2|0,0:0|0:0,0:0:0:0:
45,56,4868,1,10,0:0:0:0:
97,154,5019,6,0,L|89:222,1,60.0000022888184,6|0,1:2|0:0,0:0:0:0:
45,56,5777,1,6,1:2:0:0:
97,154,5929,2,0,L|89:222,1,60.0000022888184,2|0,0:0|0:0,0:0:0:0:
89,319,6232,102,0,P|151:296|178:222,1,143.999995605469,6|0,1:2|0:0,0:0:0:0:
241,377,6686,2,0,L|164:374,1,71.9999978027344,10|0,1:2|0:0,0:0:0:0:
325,328,6989,2,0,L|396:330,1,71.9999978027344,10|0,1:2|0:0,0:0:0:0:
502,210,7292,1,10,1:2:0:0:
466,297,7444,22,0,B|491:329|491:329|502:211,1,160,6|0,1:2|0:0,0:0:0:0:
429,80,7898,22,0,P|465:72|507:89,1,80,10|0,1:2|0:0,0:0:0:0:
398,99,8201,2,0,P|431:113|455:152,1,80,10|0,1:2|0:0,0:0:0:0:
361,99,8504,2,0,P|382:128|384:173,1,80,10|0,1:2|0:0,0:0:0:0:
331,77,8807,2,0,P|331:113|305:151,1,80,10|0,1:2|0:0,0:0:0:0:
243,85,9110,86,0,L|155:85,1,80,10|0,1:2|0:0,0:0:0:0:
27,51,9413,22,0,L|37:90,1,40,8|0,0:0|1:0,0:0:0:0:
21,127,9565,2,0,L|31:166,1,40,8|0,0:0|1:0,0:0:0:0:
89,228,9716,2,0,L|99:267,1,40,8|0,0:0|1:0,0:0:0:0:
83,304,9868,86,0,B|34:371|34:371|116:358,1,160,6|0,1:2|0:0,0:0:0:0:
83,304,10322,22,0,P|47:312|5:295,1,80,10|0,1:2|0:0,0:0:0:0:
114,285,10626,2,0,P|80:270|56:231,1,80,10|0,1:2|0:0,0:0:0:0:
151,285,10929,2,0,P|129:255|127:210,1,80,10|0,1:2|0:0,0:0:0:0:
181,307,11232,2,0,P|180:270|206:232,1,80,10|0,1:2|0:0,0:0:0:0:
269,299,11535,86,0,L|357:299,1,80,10|0,1:2|0:0,0:0:0:0:
461,228,11838,21,8,0:0:0:0:
497,243,11913,1,8,0:0:0:0:
502,282,11989,1,8,1:2:0:0:
507,321,12065,1,8,1:2:0:0:
471,306,12141,1,8,0:0:0:0:
407,165,12292,86,0,P|387:84|424:19,1,160,6|0,1:2|0:0,0:0:0:0:
512,86,12747,1,10,1:2:0:0:
512,86,13050,2,0,L|432:95,1,80,2|0,1:2|0:0,0:0:0:0:
250,64,13353,1,10,1:2:0:0:
285,147,13504,6,0,P|207:140|161:72,1,160,6|0,1:2|0:0,0:0:0:0:
44,17,13959,2,0,L|39:97,1,80,10|0,1:2|0:0,0:0:0:0:
97,226,14262,2,0,L|102:146,1,80,2|0,1:2|0:0,0:0:0:0:
29,335,14565,1,10,1:2:0:0:
163,279,14716,102,0,P|244:259|309:296,1,160,6|0,1:2|0:0,0:0:0:0:
226,384,15171,1,10,1:2:0:0:
226,384,15474,2,0,L|143:384,1,80,2|0,1:2|0:0,0:0:0:0:
403,328,15777,1,10,1:2:0:0:
416,237,15929,6,0,P|478:282|485:360,1,160,6|0,1:2|0:0,0:0:0:0:
305,374,16383,2,0,L|309:275,1,80,10|0,1:2|0:0,0:0:0:0:
420,63,16686,2,0,L|416:142,1,80,2|0,1:2|0:0,0:0:0:0:
314,15,16989,1,10,1:2:0:0:
249,144,17141,102,0,B|304:138|304:138|351:164|351:164|418:157,1,160,6|0,1:2|0:0,0:0:0:0:
207,294,17595,2,0,P|191:256|201:201,1,80,10|0,1:2|0:0,0:0:0:0:
224,116,17898,2,0,L|311:108,1,80,2|0,1:2|0:0,0:0:0:0:
60,46,18201,1,10,1:2:0:0:
36,139,18353,6,0,P|110:129|154:58,1,160,2|0,1:2|0:0,0:0:0:0:
8,230,18807,2,0,B|0:270|0:270|5:327,1,80,10|0,1:2|0:0,0:0:0:0:
164,340,19110,101,2,1:2:0:0:
88,307,19262,1,2,1:2:0:0:
12,341,19413,1,10,1:2:0:0:
164,340,19565,6,0,B|292:328|292:328|259:364,1,160,6|0,1:2|0:0,0:0:0:0:
371,273,20019,2,0,P|388:310|374:361,1,80,10|0,1:2|0:0,0:0:0:0:
215,232,20322,2,0,L|308:224,1,80,2|0,1:2|0:0,0:0:0:0:
426,94,20626,1,10,1:2:0:0:
377,166,20777,102,0,B|385:222|385:222|418:261|418:261|424:314,1,160,6|0,1:2|0:0,0:0:0:0:
507,179,21232,2,0,L|512:100,1,80,10|0,1:2|0:0,0:0:0:0:
389,16,21535,21,8,1:2:0:0:
349,11,21610,1,8,1:2:0:0:
310,23,21686,1,8,1:2:0:0:
274,41,21762,1,8,1:2:0:0:
241,64,21838,1,8,0:0:0:0:
203,75,21913,1,8,0:0:0:0:
162,75,21989,1,8,0:0:0:0:
122,66,22065,1,8,0:0:0:0:
87,45,22141,38,0,L|92:140,1,71.9999978027344,6|0,1:2|0:0,0:0:0:0:
24,290,22444,2,0,L|19:195,1,71.9999978027344,2|0,1:2|0:0,0:0:0:0:
103,363,22747,2,0,L|198:358,1,71.9999978027344,2|0,1:2|0:0,0:0:0:0:
244,224,23050,1,2,1:2:0:0:
303,295,23201,2,0,P|342:308|391:303,1,71.9999978027344,2|0,0:0|1:0,0:0:0:0:
438,256,23504,1,2,0:0:0:0:
284,301,23656,2,0,L|287:372,1,71.9999978027344,2|0,1:2|0:0,0:0:0:0:
501,302,23959,86,0,P|514:268|499:207,1,71.9999978027344,2|0,1:2|0:0,0:0:0:0:
377,58,24262,2,0,P|374:93|387:126,1,71.9999978027344,2|0,1:2|0:0,0:0:0:0:
485,72,24565,2,0,L|487:-14,1,71.9999978027344,2|0,1:2|0:0,0:0:0:0:
350,153,24868,2,0,L|348:224,1,71.9999978027344,2|0,1:2|0:0,0:0:0:0:
262,44,25171,2,0,L|190:42,1,71.9999978027344,2|0,1:2|0:0,0:0:0:0:
90,110,25474,1,2,1:2:0:0:
39,188,25626,2,0,P|34:224|38:259,1,71.9999978027344,2|0,0:0|1:0,0:0:0:0:
86,339,25929,1,2,0:0:0:0:
171,223,26080,2,0,L|258:227,1,71.9999978027344,2|0,1:2|0:0,0:0:0:0:
393,318,26383,22,0,P|359:317|327:299,1,71.9999978027344,2|0,1:2|0:0,0:0:0:0:
464,159,26686,2,0,P|480:188|480:225,1,71.9999978027344,2|0,1:2|0:0,0:0:0:0:
290,177,26989,2,0,L|297:89,1,71.9999978027344,2|0,1:2|0:0,0:0:0:0:
439,287,27292,2,0,L|433:358,1,71.9999978027344,2|0,1:2|0:0,0:0:0:0:
210,241,27595,2,0,L|138:235,1,71.9999978027344,2|0,1:2|0:0,0:0:0:0:
295,304,27898,1,2,1:2:0:0:
359,225,28050,2,0,P|375:193|372:153,1,71.9999978027344,2|0,0:0|1:0,0:0:0:0:
322,70,28353,1,2,0:0:0:0:
429,2,28504,86,0,P|465:6|504:25,1,71.9999978027344,2|0,1:2|0:0,0:0:0:0:
322,70,28807,2,0,P|289:84|253:88,1,71.9999978027344,2|0,1:2|0:0,0:0:0:0:
126,71,29110,2,0,L|132:-3,1,71.9999978027344,2|0,1:2|0:0,0:0:0:0:
25,144,29413,2,0,L|30:215,1,71.9999978027344,2|0,1:2|0:0,0:0:0:0:
171,341,29716,2,0,L|242:335,1,71.9999978027344,2|0,1:2|0:0,0:0:0:0:
48,356,30019,1,2,1:2:0:0:
205,301,30171,2,0,B|253:297|253:297|297:316|297:316|347:309,1,143.999995605469,10|4,0:0|0:0,0:0:0:0:
449,196,30777,21,2,0:0:0:0:
477,355,30929,1,10,1:2:0:0:
477,355,31080,1,2,0:0:0:0:
501,163,31232,2,0,L|505:85,1,71.9999978027344,2|0,1:2|0:0,0:0:0:0:
392,18,31535,2,0,L|388:89,1,71.9999978027344,8|8,1:2|0:0,0:0:0:0:
387,125,31762,1,8,0:0:0:0:
385,165,31838,70,0,P|333:168|276:72,1,160,6|8,1:2|0:0,0:0:0:0:
189,34,32292,2,0,P|142:46|49:19,1,120,2|0,0:0|0:0,0:0:0:0:
54,18,32595,1,2,0:0:0:0:
106,201,32747,1,8,0:0:0:0:
31,265,32898,2,0,L|38:353,1,80,2|0,0:0|0:0,0:0:0:0:
248,207,33353,6,0,L|254:127,1,80,8|0,0:0|0:0,0:0:0:0:
199,300,33656,2,0,P|238:294|274:314,1,80,2|0,0:0|0:0,0:0:0:0:
372,372,33959,2,0,P|410:378|445:359,1,80,8|8,0:0|0:0,0:0:0:0:
466,325,34186,1,8,0:0:0:0:
469,285,34262,102,0,L|474:113,1,160,4|8,1:2|0:0,0:0:0:0:
373,34,34716,2,0,P|342:83|341:146,1,120,2|0,0:0|0:0,0:0:0:0:
350,165,35019,1,2,0:0:0:0:
236,46,35171,1,8,0:0:0:0:
150,95,35322,2,0,L|57:87,1,80,2|0,0:0|0:0,0:0:0:0:
0,298,35777,6,0,L|79:291,1,80,8|0,0:0|0:0,0:0:0:0:
173,350,36080,2,0,B|213:358|213:358|251:334,1,80,2|0,0:0|0:0,0:0:0:0:
224,182,36383,2,0,B|184:174|184:174|151:195,1,80,8|8,0:0|0:0,0:0:0:0:
170,230,36610,1,8,0:0:0:0:
187,266,36686,102,0,L|359:237,1,160,6|8,1:2|0:0,0:0:0:0:
475,378,37141,2,0,P|436:330|437:251,1,120,2|0,0:0|0:0,0:0:0:0:
438,251,37444,1,2,0:0:0:0:
346,346,37595,1,8,0:0:0:0:
335,120,37747,6,0,P|416:115|470:166,1,160,2|0,0:0|0:0,0:0:0:0:
268,181,38201,2,0,B|218:176|218:176|169:195|169:195|111:187,1,160,8|0,0:0|0:0,0:0:0:0:
80,32,38656,1,2,0:0:0:0:
157,100,38807,2,0,P|215:86|260:-2,1,160,8|0,0:0|0:0,0:0:0:0:
60,133,39262,1,2,0:0:0:0:
1,217,39413,2,0,L|-4:299,1,80,8|0,0:0|0:0,0:0:0:0:
62,362,39716,1,2,0:0:0:0:
175,301,39868,102,0,P|121:270|51:303,1,120,10|0,1:2|0:0,0:0:0:0:
62,362,40171,2,0,B|119:357|119:357|163:375|163:375|219:369,1,160,14|0,1:2|0:0,0:0:0:0:
286,270,40626,5,8,1:2:0:0:
286,270,40777,1,2,0:0:0:0:
352,375,40929,1,8,1:2:0:0:
352,375,41080,1,2,0:0:0:0:
492,326,41232,1,8,1:2:0:0:
492,326,41383,1,2,0:0:0:0:
417,282,41535,38,0,P|410:222|421:145,1,120,6|0,1:2|0:0,0:0:0:0:
430,126,41838,1,2,0:0:0:0:
480,31,41989,1,2,0:0:0:0:
293,50,42141,2,0,L|375:43,1,80,8|0,0:0|0:0,0:0:0:0:
128,115,42595,2,0,P|49:104|54:4,1,160,2|0,0:0|0:0,0:0:0:0:
231,156,43050,37,8,1:2:0:0:
231,156,43201,1,2,0:0:0:0:
57,217,43353,1,8,1:2:0:0:
57,217,43504,1,2,0:0:0:0:
145,254,43656,1,8,1:2:0:0:
145,254,43807,1,2,0:0:0:0:
99,335,43959,102,0,P|157:342|216:314,1,120,2|0,1:2|0:0,0:0:0:0:
237,288,44262,1,8,0:0:0:0:
469,348,44413,1,2,0:0:0:0:
306,371,44565,2,0,L|385:360,1,80,2|0,0:0|0:0,0:0:0:0:
475,248,45019,2,0,P|407:210|371:286,1,160,2|0,0:0|0:0,0:0:0:0:
475,148,45474,38,0,B|494:87|456:88|474:26,1,120,8|0,0:0|0:0,0:0:0:0:
473,30,45777,1,2,0:0:0:0:
238,76,45929,1,2,0:0:0:0:
256,82,46232,102,0,P|289:112|283:234,1,160,6|0,0:0|0:0,0:0:0:0:
192,308,46686,6,0,L|97:297,1,80,2|0,0:0|0:0,0:0:0:0:
67,225,46989,2,0,P|110:216|154:227,1,80,8|0,0:0|0:0,0:0:0:0:
234,379,47292,2,0,P|191:388|147:377,1,80,2|0,0:0|0:0,0:0:0:0:
364,199,47595,102,0,L|459:188,1,80,2|0,0:0|0:0,0:0:0:0:
489,116,47898,2,0,P|446:107|402:118,1,80,2|0,0:0|0:0,0:0:0:0:
318,273,48201,2,0,P|361:282|405:271,1,80,8|0,0:0|0:0,0:0:0:0:
192,90,48504,6,0,L|97:79,1,80,2|0,0:0|0:0,0:0:0:0:
232,3,48807,22,0,B|277:40|277:40|286:103,1,120,6|0,1:2|0:0,0:0:0:0:
249,148,49110,2,0,B|239:188|239:188|251:245,1,80,2|0,0:0|0:0,0:0:0:0:
453,46,49565,1,2,0:0:0:0:
220,129,49868,2,0,B|202:188|202:188|228:261,1,120,2|0,0:0|0:0,0:0:0:0:
243,284,50171,2,0,B|254:323|254:323|243:373,1,80,2|0,0:0|0:0,0:0:0:0:
59,338,50474,1,2,0:0:0:0:
181,329,50626,102,0,L|130:332,1,40,2|0,0:0|0:0,0:0:0:0:
59,338,50777,2,0,L|56:287,1,40,2|0,0:0|0:0,0:0:0:0:
50,217,50929,2,0,L|101:214,1,40,2|0,0:0|0:0,0:0:0:0:
171,208,51080,2,0,L|174:259,1,40,2|0,0:0|0:0,0:0:0:0:
116,273,51232,101,2,1:2:0:0:
59,56,51383,1,0,0:0:0:0:
6,135,51535,101,0,1:2:0:0:
223,78,51686,1,2,0:0:0:0:
438,147,51838,1,0,1:2:0:0:
440,162,51989,1,2,0:0:0:0:
442,178,52141,1,0,1:0:0:0:
423,19,52292,1,10,0:0:0:0:
423,19,52747,22,0,L|442:177,1,160,2|0,0:0|0:0,0:0:0:0:
340,315,53504,22,0,P|367:361|364:259,1,311.999985717774,6|8,1:2|0:0,0:0:0:0:
98,345,54110,1,2,0:0:0:0:
273,358,54262,2,0,B|219:350|219:350|169:373,1,103.999995239258,2|0,1:2|0:0,0:0:0:0:
101,163,54565,1,8,1:2:0:0:
156,221,54716,2,0,P|63:235|22:143,1,207.999990478516,2|0,1:2|0:0,0:0:0:0:
189,34,55171,5,8,1:2:0:0:
292,107,55322,1,8,1:2:0:0:
317,104,55398,1,8,1:2:0:0:
342,101,55474,1,2,1:2:0:0:
213,53,55626,1,2,0:0:0:0:
272,188,55777,1,8,1:2:0:0:
424,148,55929,102,0,P|486:152|394:84,1,311.999985717774,6|8,1:2|0:0,0:0:0:0:
360,366,56535,1,2,0:0:0:0:
331,179,56686,2,0,L|348:305,1,103.999995239258,2|0,1:2|0:0,0:0:0:0:
458,304,56989,1,10,1:2:0:0:
246,344,57141,2,0,P|156:340|103:216,1,207.999990478516,2|0,1:2|0:0,0:0:0:0:
139,104,57595,5,8,1:2:0:0:
213,235,57747,1,8,1:2:0:0:
216,209,57822,1,8,1:2:0:0:
219,183,57898,1,2,1:2:0:0:
136,78,58050,1,2,0:0:0:0:
77,206,58201,1,8,1:2:0:0:
220,315,58353,2,0,L|244:97,1,207.999990478516,6|0,1:2|0:0,0:0:0:0:
372,26,58807,101,8,1:2:0:0:
445,116,58959,1,2,0:0:0:0:
486,7,59110,1,2,1:2:0:0:
486,7,59262,1,0,0:0:0:0:
370,186,59413,2,0,B|296:219|297:152|196:189,1,155.999992858887,8|0,1:2|0:0,0:0:0:0:
141,157,59716,6,0,L|152:285,1,103.999995239258,2|0,1:2|0:0,0:0:0:0:
294,74,60019,2,0,L|166:85,1,103.999995239258,8|0,1:2|0:0,0:0:0:0:
13,43,60322,102,0,B|61:18|61:18|130:33,1,103.999995239258,2|0,1:2|0:0,0:0:0:0:
0,185,60626,1,8,1:2:0:0:
141,157,60777,1,8,1:2:0:0:
19,220,60929,6,0,L|137:226,1,103.999995239258,6|0,1:2|0:0,0:0:0:0:
312,286,61232,1,8,1:2:0:0:
313,374,61383,2,0,P|260:363|229:323,1,103.999995239258,6|0,1:2|0:0,0:0:0:0:
390,163,61686,1,8,1:2:0:0:
481,91,61838,101,8,1:2:0:0:
487,71,61913,1,8,1:2:0:0:
492,50,61989,2,0,L|472:276,1,207.999990478516,6|0,1:2|0:0,0:0:0:0:
373,268,62444,5,8,1:2:0:0:
379,288,62595,1,2,1:2:0:0:
213,330,62747,101,8,1:2:0:0:
219,349,62898,2,0,L|225:282,1,51.999997619629,10|0,0:0|1:0,0:0:0:0:
128,261,63050,2,0,L|122:194,1,51.999997619629,10|0,0:0|1:0,0:0:0:0:
48,126,63201,6,0,P|-10:96|104:82,1,311.999985717774,6|8,1:2|0:0,0:0:0:0:
285,88,63807,1,2,0:0:0:0:
148,179,63959,2,0,B|195:206|195:206|253:175,1,103.999995239258,2|0,1:2|0:0,0:0:0:0:
388,117,64262,1,8,1:2:0:0:
451,31,64413,2,0,P|354:14|283:97,1,207.999990478516,2|0,1:2|0:0,0:0:0:0:
473,183,64868,101,8,1:2:0:0:
348,255,65019,1,8,1:2:0:0:
368,257,65095,1,8,1:2:0:0:
388,259,65171,1,2,1:2:0:0:
244,242,65322,1,2,0:0:0:0:
468,269,65474,1,8,1:2:0:0:
512,364,65626,6,0,B|367:418|356:290|204:358,1,311.999985717774,6|8,1:2|0:0,0:0:0:0:
18,227,66232,1,2,0:0:0:0:
103,382,66383,2,0,P|51:371|25:300,1,103.999995239258,2|0,1:2|0:0,0:0:0:0:
106,130,66686,1,8,1:2:0:0:
206,65,66838,2,0,P|123:11|24:40,1,207.999990478516,2|0,1:2|0:0,0:0:0:0:
279,119,67292,102,0,B|333:110|333:110|422:137|422:137|487:127,1,207.999990478516,6|8,1:2|0:0,0:0:0:0:
512,41,67747,1,2,0:0:0:0:
289,29,67898,1,8,1:2:0:0:
423,170,68050,2,0,B|369:259|369:259|336:155,1,207.999990478516,6|0,1:2|0:0,0:0:0:0:
400,371,68504,6,0,B|450:371|450:371|484:329,1,103.999995239258,8|0,1:2|0:0,0:0:0:0:
254,285,68807,1,2,1:2:0:0:
242,197,68959,1,2,0:0:0:0:
206,366,69110,2,0,P|256:382|304:366,1,103.999995239258,8|0,1:2|0:0,0:0:0:0:
136,302,69413,102,0,L|28:307,1,103.999995239258,2|0,1:2|0:0,0:0:0:0:
10,117,69716,2,0,L|113:112,1,103.999995239258,8|0,1:2|0:0,0:0:0:0:
258,99,70019,1,2,1:2:0:0:
270,187,70171,1,2,0:0:0:0:
306,18,70322,1,8,1:2:0:0:
98,31,70474,2,0,L|306:18,1,207.999990478516,6|0,1:2|0:0,0:0:0:0:
443,102,70929,6,0,P|461:146|452:207,1,103.999995239258,8|0,1:2|0:0,0:0:0:0:
475,23,71232,1,2,1:2:0:0:
475,23,71383,1,2,0:0:0:0:
417,105,71535,2,0,P|410:156|428:204,1,103.999995239258,8|0,1:2|0:0,0:0:0:0:
504,291,71838,102,0,L|497:349,1,51.999997619629,2|2,1:2|0:0,0:0:0:0:
402,326,71989,2,0,L|366:372,1,51.999997619629,2|2,1:2|0:0,0:0:0:0:
287,340,72141,1,8,1:2:0:0:
100,327,72292,1,8,1:2:0:0:
141,333,72368,1,8,1:2:0:0:
178,313,72444,1,2,1:2:0:0:
4,384,72595,1,8,1:2:0:0:
107,116,72747,1,8,1:2:0:0:
64,321,72898,22,0,B|142:333|142:333|220:289,1,155.999992858887,6|0,1:2|0:0,0:0:0:0:
212,268,73201,2,0,L|216:206,1,51.999997619629,2|0,1:2|0:0,0:0:0:0:
83,80,73353,22,0,P|47:72|5:89,1,80,10|0,1:2|0:0,0:0:0:0:
114,99,73656,2,0,P|81:113|57:152,1,80,10|0,1:2|0:0,0:0:0:0:
151,99,73959,2,0,P|130:128|128:173,1,80,10|0,1:2|0:0,0:0:0:0:
181,77,74262,2,0,P|181:113|207:151,1,80,10|0,1:2|0:0,0:0:0:0:
269,85,74565,86,0,L|357:85,1,80,10|0,1:2|0:0,0:0:0:0:
485,51,74868,22,0,L|475:90,1,40,8|0,0:0|1:0,0:0:0:0:
491,127,75019,2,0,L|481:166,1,40,8|0,0:0|1:0,0:0:0:0:
423,228,75171,2,0,L|413:267,1,40,8|0,0:0|1:0,0:0:0:0:
429,304,75322,86,0,B|478:371|478:371|396:358,1,160,6|0,1:2|0:0,0:0:0:0:
429,304,75777,22,0,P|465:312|507:295,1,80,10|0,1:2|0:0,0:0:0:0:
398,285,76080,2,0,P|432:270|456:231,1,80,10|0,1:2|0:0,0:0:0:0:
361,285,76383,2,0,P|383:255|385:210,1,80,10|0,1:2|0:0,0:0:0:0:
331,307,76686,2,0,P|158:211|286:365,1,560,14|2,1:2|0:0,0:0:0:0:
37,38,78504,5,2,0:0:0:0:
147,49,78807,1,2,0:0:0:0:
161,83,78959,70,0,P|170:157|145:259,1,160,6|0,1:2|0:0,0:0:0:0:
168,351,79413,1,10,1:2:0:0:
168,351,79716,2,0,L|263:347,1,80,2|0,1:2|0:0,0:0:0:0:
405,233,80019,1,10,1:2:0:0:
356,344,80171,6,0,B|435:368|435:368|491:314,1,160,6|0,1:2|0:0,0:0:0:0:
503,141,80626,2,0,L|496:236,1,80,10|0,1:2|0:0,0:0:0:0:
312,260,80929,2,0,L|317:180,1,80,2|0,1:2|0:0,0:0:0:0:
399,4,81232,1,10,1:2:0:0:
488,55,81383,102,0,P|428:106|330:79,1,160,6|0,1:2|0:0,0:0:0:0:
173,27,81838,1,10,1:2:0:0:
173,27,82141,2,0,L|179:138,1,80,2|0,1:2|0:0,0:0:0:0:
38,231,82444,1,10,1:2:0:0:
65,318,82595,6,0,P|103:295|104:166,1,160,6|0,1:2|0:0,0:0:0:0:
247,338,83050,2,0,B|209:354|209:354|168:350,1,80,10|0,1:2|0:0,0:0:0:0:
208,230,83353,2,0,B|246:214|246:214|287:218,1,80,2|0,1:2|0:0,0:0:0:0:
495,117,83656,70,0,B|444:142|444:142|322:128,1,160,10|12,1:2|0:0,0:0:0:0:
254,1,84110,1,8,1:2:0:0:
185,141,84262,1,8,1:2:0:0:
247,338,84413,5,14,0:0:0:0:
102,211,84565,1,8,1:2:0:0:
284,148,84716,1,8,1:2:0:0:
463,372,84868,101,10,0:0:0:0:
384,168,85019,1,6,1:2:0:0:
256,192,85095,12,0,86459,0:0:0:0:
254,173,86585,6,0,L|259:217,1,40,8|8,0:0|0:0,0:0:0:0:
