osu file format v14

[General]
AudioFilename: audio.mp3
AudioLeadIn: 500
PreviewTime: 52595
Countdown: 0
SampleSet: Soft
StackLeniency: 0.5
Mode: 0
LetterboxInBreaks: 0
EpilepsyWarning: 1
WidescreenStoryboard: 1

[Editor]
DistanceSpacing: 1.1
BeatDivisor: 4
GridSize: 32
TimelineZoom: 2.4

[Metadata]
Title:Twintail Dreamer! (TV Size)
TitleUnicode:ツインテール・ドリーマー! (TV Size)
Artist:Twin-Tails
ArtistUnicode:ツインテイルズ
Creator:Moecho
Version:Advanced
Source:俺、ツインテールになります。
Tags:Twintails OreTwi Ore, Tsuinteru Tsuintēru ni Narimasu. Gonna be the Twin-Tail!! テイルレッド Tail Red 上坂すみれ Uesaka Sumire テイルブルー Blue 相坂優歌 Aisaka Yuuka テイルイエロー Yellow 赤﨑千夏 Akasaki Chinatsu Ending Theme ED TV Size edit Anime papiyon japanese pop j-pop jpop Kodora Laurier Natteke Kite HabiHolic Loneight L18 Lecana Giralda captin1 jonathanlfj apaffy kisata Nyquill RLC LunarSakuya Mythol meiikyuu Syameimaru-Aya Ayaya caren_sk CRN kiddly Axarious Delis ShirohaMyMommy SMM Koiyuki Minakami Yuki yf_bmp yf Skystar Amamiya Yuko rui rustbell spro sprosive Snow Note 7odoa bakabaka Hollow Wings HW
BeatmapID:2330669
BeatmapSetID:1115213

[Difficulty]
HPDrainRate:5
CircleSize:4
OverallDifficulty:6
ApproachRate:7
SliderMultiplier:1.4
SliderTickRate:1

[Events]
//Background and Video events
0,0,"bg.jpg",0,0
//Break Periods
//Storyboard Layer 0 (Background)
Sprite,Background,Centre,"sb\sprites\pixel-white.png",320,240 F,0,-75,,0,1 C,0,-75,,0,0,0 V,0,-75,,880,480 F,0,89604,,1,0
Sprite,Background,Centre,"bg.jpg",320,240 F,0,-2574,-1574,0,0.75 S,0,-1574,,0.4444444 F,0,322,472,0.75,0
Sprite,Background,Centre,"bg.jpg",320,240 F,0,88110,89110,0,0.75 S,0,89110,,0.4444444 F,0,89769,89919,0.75,0
Sprite,Background,Centre,"sb\sprites\bg-alt.jpg",320,240 F,0,172,322,0,0.75 S,0,322,,0.4444444 F,0,21141,22291,0.75,0
Sprite,Background,Centre,"sb\sprites\bg-alt.jpg",320,240 F,0,53354,53504,0,0.75 S,0,53504,,0.4444444 F,0,88110,89260,0.75,0
Sprite,Background,Centre,"sb\sprites\bg-alt-bw.jpg",320,240 F,0,21991,22291,0,0.75 S,0,22141,,0.4444444 F,0,39671,40471,0.75,0
Sprite,Background,Centre,"sb\sprites\bg-alt-bw.jpg",320,240 F,0,50476,50776,0,0.75 S,0,50626,,0.4444444 F,0,51792,52592,0.75,0
Sprite,Background,Centre,"sb\sprites\tail-red-ci.jpg",320,240 F,0,40779,41079,0,0.75 S,0,40929,,0.4444444 F,0,48807,50307,0.75,0
Sprite,Background,Centre,"sb\sprites\tail-blue-ci.jpg",320,240 F,0,42900,43200,0,0.75 S,0,43050,,0.4444444 F,0,48807,50307,0.75,0
Sprite,Background,Centre,"sb\sprites\tail-yellow-ci.jpg",320,240 F,0,45324,45624,0,0.75 S,0,45474,,0.4444444 F,0,48807,50307,0.75,0
Sprite,Background,Centre,"sb\sprites\pixel-white.png",320,240 V,0,2595,,854,480 F,0,2595,3195,0.15,0
Sprite,Background,Centre,"sb\sprites\pixel-white.png",320,240 V,0,3807,,854,480 F,0,3807,4407,0.15,0
Sprite,Background,Centre,"sb\sprites\pixel-white.png",320,240 V,0,5019,,854,480 F,0,5019,5619,0.15,0
Sprite,Background,Centre,"sb\sprites\pixel-white.png",320,240 V,0,5777,,854,480 F,0,5777,6377,0.15,0
Sprite,Background,Centre,"sb\sprites\pixel-white.png",320,240 V,0,6989,,854,480 F,0,6989,7589,0.15,0
Sprite,Background,Centre,"sb\sprites\pixel-white.png",320,240 V,0,7444,,854,480 F,0,7444,8044,0.15,0
Sprite,Background,Centre,"sb\sprites\pixel-white.png",320,240 V,0,9868,,854,480 F,0,9868,10468,0.15,0
Sprite,Background,Centre,"sb\sprites\pixel-white.png",320,240 V,0,12292,,854,480 F,0,12292,12892,0.15,0
Sprite,Background,Centre,"sb\sprites\pixel-white.png",320,240 V,0,13504,,854,480 F,0,13504,14104,0.15,0
Sprite,Background,Centre,"sb\sprites\pixel-white.png",320,240 V,0,14716,,854,480 F,0,14716,15316,0.15,0
Sprite,Background,Centre,"sb\sprites\pixel-white.png",320,240 V,0,15929,,854,480 F,0,15929,16529,0.15,0
Sprite,Background,Centre,"sb\sprites\pixel-white.png",320,240 V,0,17141,,854,480 F,0,17141,17741,0.15,0
Sprite,Background,Centre,"sb\sprites\pixel-white.png",320,240 V,0,18353,,854,480 F,0,18353,18953,0.15,0
Sprite,Background,Centre,"sb\sprites\pixel-white.png",320,240 V,0,19565,,854,480 F,0,19565,20165,0.15,0
Sprite,Background,Centre,"sb\sprites\pixel-white.png",320,240 V,0,20019,,854,480 F,0,20019,20619,0.15,0
Sprite,Background,Centre,"sb\sprites\pixel-white.png",320,240 V,0,20777,,854,480 F,0,20777,21377,0.15,0
Sprite,Background,Centre,"sb\sprites\pixel-white.png",320,240 V,0,21232,,854,480 F,0,21232,21832,0.15,0
Sprite,Background,Centre,"sb\sprites\pixel-white.png",320,240 V,0,22141,,854,480 F,0,22141,22741,0.15,0
Sprite,Background,Centre,"sb\sprites\pixel-white.png",320,240 V,0,30474,,854,480 F,0,30474,31074,0.15,0
Sprite,Background,Centre,"sb\sprites\pixel-white.png",320,240 V,0,31838,,854,480 F,0,31838,32438,0.15,0
Sprite,Background,Centre,"sb\sprites\pixel-white.png",320,240 V,0,34262,,854,480 F,0,34262,34862,0.15,0
Sprite,Background,Centre,"sb\sprites\pixel-white.png",320,240 V,0,36686,,854,480 F,0,36686,37286,0.15,0
Sprite,Background,Centre,"sb\sprites\pixel-white.png",320,240 V,0,39110,,854,480 F,0,39110,39710,0.15,0
Sprite,Background,Centre,"sb\sprites\pixel-white.png",320,240 V,0,40171,,854,480 F,0,40171,40771,0.15,0
Sprite,Background,Centre,"sb\sprites\pixel-white.png",320,240 V,0,41535,,854,480 F,0,41535,42135,0.15,0
Sprite,Background,Centre,"sb\sprites\pixel-white.png",320,240 V,0,46232,,854,480 F,0,46232,46832,0.15,0
Sprite,Background,Centre,"sb\sprites\pixel-white.png",320,240 V,0,48807,,854,480 F,0,48807,49407,0.15,0
Sprite,Background,Centre,"sb\sprites\pixel-white.png",320,240 V,0,53504,,854,480 F,0,53504,54104,0.15,0
Sprite,Background,Centre,"sb\sprites\pixel-white.png",320,240 V,0,54716,,854,480 F,0,54716,55316,0.15,0
Sprite,Background,Centre,"sb\sprites\pixel-white.png",320,240 V,0,55929,,854,480 F,0,55929,56529,0.15,0
Sprite,Background,Centre,"sb\sprites\pixel-white.png",320,240 V,0,57141,,854,480 F,0,57141,57741,0.15,0
Sprite,Background,Centre,"sb\sprites\pixel-white.png",320,240 V,0,58353,,854,480 F,0,58353,58953,0.15,0
Sprite,Background,Centre,"sb\sprites\pixel-white.png",320,240 V,0,60929,,854,480 F,0,60929,61529,0.15,0
Sprite,Background,Centre,"sb\sprites\pixel-white.png",320,240 V,0,61383,,854,480 F,0,61383,61983,0.15,0
Sprite,Background,Centre,"sb\sprites\pixel-white.png",320,240 V,0,61686,,854,480 F,0,61686,62286,0.15,0
Sprite,Background,Centre,"sb\sprites\pixel-white.png",320,240 V,0,61989,,854,480 F,0,61989,62589,0.15,0
Sprite,Background,Centre,"sb\sprites\pixel-white.png",320,240 V,0,63201,,854,480 F,0,63201,63801,0.15,0
Sprite,Background,Centre,"sb\sprites\pixel-white.png",320,240 V,0,64413,,854,480 F,0,64413,65013,0.15,0
Sprite,Background,Centre,"sb\sprites\pixel-white.png",320,240 V,0,65626,,854,480 F,0,65626,66226,0.15,0
Sprite,Background,Centre,"sb\sprites\pixel-white.png",320,240 V,0,66838,,854,480 F,0,66838,67438,0.15,0
Sprite,Background,Centre,"sb\sprites\pixel-white.png",320,240 V,0,68050,,854,480 F,0,68050,68650,0.15,0
Sprite,Background,Centre,"sb\sprites\pixel-white.png",320,240 V,0,70474,,854,480 F,0,70474,71074,0.15,0
Sprite,Background,Centre,"sb\sprites\pixel-white.png",320,240 V,0,72898,,854,480 F,0,72898,73498,0.15,0
Sprite,Background,Centre,"sb\sprites\pixel-white.png",320,240 V,0,75322,,854,480 F,0,75322,75922,0.15,0
Sprite,Background,Centre,"sb\sprites\pixel-white.png",320,240 V,0,76686,,854,480 F,0,76686,77286,0.15,0
Sprite,Background,Centre,"sb\sprites\pixel-white.png",320,240 V,0,78959,,854,480 F,0,78959,79559,0.15,0
Sprite,Background,Centre,"sb\sprites\pixel-white.png",320,240 V,0,80171,,854,480 F,0,80171,80771,0.15,0
Sprite,Background,Centre,"sb\sprites\pixel-white.png",320,240 V,0,81383,,854,480 F,0,81383,81983,0.15,0
Sprite,Background,Centre,"sb\sprites\pixel-white.png",320,240 V,0,82595,,854,480 F,0,82595,83195,0.15,0
Sprite,Background,Centre,"sb\sprites\pixel-white.png",320,240 V,0,83959,,854,480 F,0,83959,84559,0.15,0
Sprite,Background,Centre,"sb\sprites\pixel-white.png",320,240 V,0,84413,,854,480 F,0,84413,85013,0.15,0
Sprite,Background,Centre,"sb\sprites\pixel-white.png",320,240 V,0,85019,,854,480 F,0,85019,85619,0.15,0
//Storyboard Layer 1 (Fail)
//Storyboard Layer 2 (Pass)
//Storyboard Layer 3 (Foreground)
Sprite,Foreground,Centre,"sb\lyrics\004d.png",0,0 F,0,12192,12392,0,0.8 M,0,12292,,679.5,399 S,0,12292,,0.5 C,0,12292,,255,255,255 F,0,86889,87089,0.8,0
Sprite,Foreground,Centre,"sb\lyrics\006f.png",0,0 F,0,12192,12392,0,0.8 M,0,12292,,690.25,401 S,0,12292,,0.5 C,0,12292,,255,255,255 F,0,86889,87089,0.8,0
Sprite,Foreground,Centre,"sb\lyrics\0065.png",0,0 F,0,12192,12392,0,0.8 M,0,12292,,701.25,401.75 S,0,12292,,0.5 C,0,12292,,255,255,255 F,0,86889,87089,0.8,0
Sprite,Foreground,Centre,"sb\lyrics\0063.png",0,0 F,0,12192,12392,0,0.8 M,0,12292,,712,401 S,0,12292,,0.5 C,0,12292,,255,255,255 F,0,86889,87089,0.8,0
Sprite,Foreground,Centre,"sb\lyrics\0068.png",0,0 F,0,12192,12392,0,0.8 M,0,12292,,723.5,399.25 S,0,12292,,0.5 C,0,12292,,255,255,255 F,0,86889,87089,0.8,0
Sprite,Foreground,Centre,"sb\lyrics\006f.png",0,0 F,0,12192,12392,0,0.8 M,0,12292,,734.25,401 S,0,12292,,0.5 C,0,12292,,255,255,255 F,0,86889,87089,0.8,0
Sprite,Foreground,Centre,"sb\lyrics\0041.png",0,0 F,0,12192,12392,0,0.8 M,0,12292,,657.5,434.5 S,0,12292,,0.5 C,0,12292,,255,255,255 F,0,86889,87089,0.8,0
Sprite,Foreground,Centre,"sb\lyrics\0064.png",0,0 F,0,12192,12392,0,0.8 M,0,12292,,668.25,434.25 S,0,12292,,0.5 C,0,12292,,255,255,255 F,0,86889,87089,0.8,0
Sprite,Foreground,Centre,"sb\lyrics\0076.png",0,0 F,0,12192,12392,0,0.8 M,0,12292,,679.25,436 S,0,12292,,0.5 C,0,12292,,255,255,255 F,0,86889,87089,0.8,0
Sprite,Foreground,Centre,"sb\lyrics\0061.png",0,0 F,0,12192,12392,0,0.8 M,0,12292,,690.75,436.25 S,0,12292,,0.5 C,0,12292,,255,255,255 F,0,86889,87089,0.8,0
Sprite,Foreground,Centre,"sb\lyrics\006e.png",0,0 F,0,12192,12392,0,0.8 M,0,12292,,701.75,436 S,0,12292,,0.5 C,0,12292,,255,255,255 F,0,86889,87089,0.8,0
Sprite,Foreground,Centre,"sb\lyrics\0063.png",0,0 F,0,12192,12392,0,0.8 M,0,12292,,712,436 S,0,12292,,0.5 C,0,12292,,255,255,255 F,0,86889,87089,0.8,0
Sprite,Foreground,Centre,"sb\lyrics\0065.png",0,0 F,0,12192,12392,0,0.8 M,0,12292,,723.25,436.75 S,0,12292,,0.5 C,0,12292,,255,255,255 F,0,86889,87089,0.8,0
Sprite,Foreground,Centre,"sb\lyrics\0064.png",0,0 F,0,12192,12392,0,0.8 M,0,12292,,734.25,434.25 S,0,12292,,0.5 C,0,12292,,255,255,255 F,0,86889,87089,0.8,0
//Storyboard Layer 4 (Overlay)
//Storyboard Sound Samples

[TimingPoints]
323,303.030303030303,4,2,50,50,1,0
323,-100,4,2,50,50,0,0
1838,-100,4,2,50,75,0,0
2595,-100,4,2,50,60,0,0
6686,-100,4,2,50,65,0,0
7444,-100,4,2,50,70,0,1
9413,-100,4,2,50,70,0,0
9868,-100,4,2,50,70,0,1
11838,-100,4,2,50,70,0,0
12292,-100,4,2,50,75,0,1
22141,-133.333333333333,4,2,50,50,0,0
30474,-133.333333333333,4,2,50,55,0,0
31838,-100,4,2,50,60,0,0
40929,-100,4,2,50,55,0,0
41535,-133.333333333333,4,2,50,55,0,0
48807,-100,4,2,50,60,0,0
51232,-100,4,2,50,65,0,0
52747,-133.333333333333,4,2,50,65,0,0
53504,-100,4,2,50,75,0,1
57747,-100,4,2,50,75,0,0
58353,-100,4,2,50,75,0,1
61383,-100,4,2,50,75,0,0
61989,-100,4,2,50,75,0,1
62747,-100,4,2,50,75,0,0
63201,-100,4,2,50,75,0,1
67595,-100,4,2,50,75,0,0
68050,-100,4,2,50,75,0,1
72444,-100,4,2,50,75,0,0
72898,-100,4,2,50,75,0,1
74868,-100,4,2,50,75,0,0
75322,-100,4,2,50,70,0,1
76686,-100,4,2,50,70,0,0
76838,-100,4,2,50,65,0,0
78959,-100,4,2,50,75,0,1
83656,-100,4,2,50,75,0,0
83959,-100,4,2,50,80,0,1
85322,-100,4,2,50,70,0,1
85626,-100,4,2,50,60,0,1
85929,-100,4,2,50,50,0,1
86232,-100,4,2,50,40,0,1
86535,-100,4,2,50,20,0,0

[Colours]
Combo1 : 192,192,192
Combo2 : 255,50,50
Combo3 : 255,125,125
Combo4 : 25,100,255
Combo5 : 50,150,255
Combo6 : 255,255,50
Combo7 : 255,255,150
Combo8 : 128,128,128

[HitObjects]
114,52,323,102,0,P|146:40|181:45,1,70,2|0,1:2|0:0,0:0:0:0:
244,0,626,2,0,P|270:22|283:54,1,70,2|0,0:0|0:0,0:0:0:0:
506,115,1232,6,0,P|499:149|478:176,1,70,2|0,1:2|0:0,0:0:0:0:
486,254,1535,2,0,P|453:265|418:260,1,70,2|0,0:0|0:0,0:0:0:0:
354,303,1838,70,0,P|308:251|234:240,1,140,10|10,0:0|0:0,0:0:0:0:
171,273,2292,1,10,0:0:0:0:
41,357,2595,54,0,B|26:298|71:267|71:267|116:236|106:170,2,210,6|2|2,1:2|0:0|0:0,0:0:0:0:
171,273,3807,1,6,1:2:0:0:
377,376,4262,2,0,L|389:236,1,140,2|2,0:0|0:0,0:0:0:0:
397,160,4716,1,2,0:0:0:0:
443,13,5019,6,0,B|474:58|474:58|392:115|341:41,1,210,6|2,1:2|0:0,0:0:0:0:
228,146,5777,1,6,1:2:0:0:
155,118,5929,2,0,L|143:258,2,140,2|2|0,1:2|0:0|1:0,0:0:0:0:
214,69,6686,2,0,P|154:36|87:53,2,140,10|14|10,1:2|0:0|0:0,0:0:0:0:
228,146,7444,102,0,L|368:134,1,140,6|0,1:2|1:0,0:0:0:0:
419,190,7898,21,10,1:2:0:0:
371,336,8201,1,10,1:2:0:0:
217,336,8504,1,10,1:2:0:0:
170,190,8807,1,10,1:2:0:0:
294,99,9110,1,10,1:2:0:0:
419,190,9413,22,0,P|350:191|301:239,1,140,2|10,1:2|0:0,0:0:0:0:
225,255,9868,54,0,L|85:243,1,140,6|0,1:2|1:0,0:0:0:0:
28,191,10322,21,10,1:2:0:0:
76,337,10626,1,10,1:2:0:0:
230,337,10929,1,10,1:2:0:0:
277,191,11232,1,10,1:2:0:0:
153,100,11535,1,10,1:2:0:0:
28,191,11838,22,0,P|94:209|129:268,1,140,10|8,1:2|0:0,0:0:0:0:
124,344,12292,86,0,B|162:347|184:322|184:322|209:296|252:305,1,140,6|0,1:2|1:0,0:0:0:0:
321,338,12747,1,10,1:2:0:0:
455,262,13050,2,0,L|449:331,2,70,2|0|8,1:2|1:0|0:0,0:0:0:0:
464,185,13504,6,0,B|421:194|396:168|396:168|374:143|336:146,1,140,6|0,1:2|1:0,0:0:0:0:
264,174,13959,1,10,1:2:0:0:
150,69,14262,2,0,L|81:75,2,70,2|0|8,1:2|1:0|0:0,0:0:0:0:
224,51,14716,102,0,B|233:94|207:119|207:119|182:141|185:179,1,140,6|0,1:2|1:0,0:0:0:0:
228,243,15171,1,10,1:2:0:0:
110,342,15474,2,0,L|41:336,2,70,2|0|8,1:2|1:0|0:0,0:0:0:0:
189,371,15929,6,0,B|180:328|206:303|206:303|231:281|228:243,1,140,6|0,1:2|1:0,0:0:0:0:
185,179,16383,1,10,1:2:0:0:
302,79,16686,2,0,L|308:10,2,70,2|0|8,1:2|1:0|0:0,0:0:0:0:
225,88,17141,102,0,B|205:33|139:42|139:42|143:74,1,140,6|0,1:2|1:0,0:0:0:0:
114,145,17595,1,10,1:2:0:0:
228,243,17898,2,0,L|297:237,2,70,2|0|8,1:2|1:0|0:0,0:0:0:0:
177,302,18353,6,0,L|189:162,1,140,6|0,1:2|1:0,0:0:0:0:
114,145,18807,2,0,L|108:214,1,70,10|0,1:2|0:0,0:0:0:0:
99,291,19110,2,0,L|30:297,2,70,2|0|8,1:2|1:0|0:0,0:0:0:0:
177,302,19565,102,0,B|215:305|237:280|237:280|262:254|305:263,1,140,6|0,1:2|1:0,0:0:0:0:
305,341,20019,2,0,B|267:344|245:319|245:319|220:293|177:302,1,140,14|0,1:2|1:0,0:0:0:0:
99,291,20474,2,0,L|105:222,1,70,2|8,1:2|0:0,0:0:0:0:
100,144,20777,6,0,B|141:147|141:147|181:102|181:102|219:104,1,140,6|0,1:2|1:0,0:0:0:0:
220,184,21232,2,0,B|181:186|181:186|141:141|141:141|100:144,1,140,14|0,1:2|1:0,0:0:0:0:
25,130,21686,2,0,L|19:199,2,70,10|0|0,1:2|1:0|1:0,0:0:0:0:
1,54,22141,54,0,P|46:28|98:30,1,105.000004005432,6|2,1:2|0:0,0:0:0:0:
171,0,22595,2,0,P|215:26|240:72,2,105.000004005432,2|2|2,1:2|0:0|0:0,0:0:0:0:
98,30,23353,2,0,L|106:134,1,105.000004005432,2|0,1:2|0:0,0:0:0:0:
38,276,23959,85,2,1:2:0:0:
170,191,24262,1,2,1:2:0:0:
261,319,24565,6,0,P|306:344|358:342,1,105.000004005432,2|2,1:2|0:0,0:0:0:0:
436,359,25019,2,0,P|480:332|505:286,2,105.000004005432,2|2|2,1:2|0:0|0:0,0:0:0:0:
358,342,25777,2,0,L|366:238,1,105.000004005432,2|0,1:2|0:0,0:0:0:0:
241,141,26383,101,2,1:2:0:0:
355,32,26686,1,2,1:2:0:0:
416,176,26989,22,0,P|371:150|319:152,1,105.000004005432,2|2,1:2|0:0,0:0:0:0:
241,141,27444,2,0,P|197:167|172:213,2,105.000004005432,2|2|2,1:2|0:0|0:0,0:0:0:0:
320,152,28201,2,0,L|328:48,1,105.000004005432,2|2,1:2|0:0,0:0:0:0:
172,25,28807,85,2,1:2:0:0:
68,143,29110,1,2,1:2:0:0:
139,284,29413,6,0,P|184:258|236:260,1,105.000004005432,2|2,1:2|0:0,0:0:0:0:
314,249,29868,2,0,P|358:275|383:321,1,105.000004005432,2|8,1:2|0:0,0:0:0:0:
504,220,30474,6,0,L|512:116,1,105.000004005432,6|0,1:2|0:0,0:0:0:0:
451,64,30929,2,0,P|406:89|354:88,1,105.000004005432,10|2,1:2|0:0,0:0:0:0:
200,123,31535,86,0,L|204:70,1,52.5000020027161,10|0,1:2|0:0,0:0:0:0:
253,11,31838,102,0,P|319:29|354:88,1,140,6|8,1:2|0:0,0:0:0:0:
416,132,32292,2,0,L|404:272,2,140,2|2|2,1:2|0:0|0:0,0:0:0:0:
425,55,33050,5,2,1:2:0:0:
333,178,33353,1,10,1:2:0:0:
189,233,33656,1,2,1:2:0:0:
36,211,33959,1,10,1:2:0:0:
42,365,34262,102,0,P|100:329|118:264,1,140,6|8,1:2|0:0,0:0:0:0:
189,233,34716,2,0,L|177:93,2,140,2|2|2,1:2|0:0|0:0,0:0:0:0:
197,310,35474,5,2,1:2:0:0:
108,183,35777,1,10,1:2:0:0:
135,31,36080,1,2,1:2:0:0:
224,155,36383,1,10,1:2:0:0:
197,310,36686,102,0,P|233:252|298:234,1,140,6|8,1:2|0:0,0:0:0:0:
329,162,37141,2,0,L|469:174,2,140,2|2|2,1:2|0:0|0:0,0:0:0:0:
280,101,37898,5,2,1:2:0:0:
193,229,38201,1,10,1:2:0:0:
65,142,38504,1,2,1:2:0:0:
152,14,38807,1,10,1:2:0:0:
280,101,39110,102,0,P|316:159|381:177,1,140,6|10,1:2|0:0,0:0:0:0:
451,143,39565,2,0,L|463:3,1,140,2|2,1:2|0:0,0:0:0:0:
308,1,40171,6,0,P|272:59|207:77,1,140,6|0,1:2|0:0,0:0:0:0:
163,141,40626,2,0,L|94:147,1,70,8|0,1:2|0:0,0:0:0:0:
63,75,40929,54,0,L|51:215,1,140,2|10,1:2|0:0,0:0:0:0:
81,284,41383,1,8,0:0:0:0:
51,357,41535,102,0,P|96:331|148:333,1,105.000004005432,6|0,1:2|0:0,0:0:0:0:
297,283,42141,1,10,0:0:0:0:
321,208,42292,2,0,P|366:233|390:280,2,105.000004005432,0|2|0,1:0|0:0|0:0,0:0:0:0:
242,215,43050,37,0,1:0:0:0:
129,104,43353,1,10,0:0:0:0:
281,62,43656,1,0,1:0:0:0:
242,215,43959,102,0,P|190:213|145:239,1,105.000004005432,2|8,1:2|0:0,0:0:0:0:
53,111,44565,1,2,1:2:0:0:
28,36,44716,2,0,P|79:34|124:60,1,105.000004005432,0|10,1:0|0:0,0:0:0:0:
263,139,45322,1,0,1:0:0:0:
339,120,45474,38,0,L|347:16,1,105.000004005432,8|2,1:2|0:0,0:0:0:0:
423,40,45929,2,0,L|419:93,1,52.5000020027161,8|0,1:2|0:0,0:0:0:0:
414,171,46232,102,0,P|369:197|317:195,1,105.000004005432,6|0,1:2|0:0,0:0:0:0:
244,224,46686,2,0,P|199:198|147:200,2,105.000004005432,2|10|2,1:2|0:0|0:0,0:0:0:0:
393,274,47595,6,0,L|385:378,2,105.000004005432,2|2|10,1:2|0:0|0:0,0:0:0:0:
316,136,48504,2,0,L|263:140,1,52.5000020027161,10|0,1:2|0:0,0:0:0:0:
190,164,48807,22,0,B|135:144|144:78|144:78|176:82,1,140,6|0,1:2|1:0,0:0:0:0:
241,40,49262,2,0,P|307:57|366:23,2,140,2|2|2,0:0|0:0|0:0,0:0:0:0:
89,14,50171,2,0,P|54:7|21:18,2,70,2|2|2,0:0|1:2|0:0,0:0:0:0:
140,71,50626,102,0,L|134:140,1,70,0|2,1:0|0:0,0:0:0:0:
127,217,50929,2,0,L|121:286,1,70,0|2,1:0|0:0,0:0:0:0:
184,330,51232,102,0,B|204:385|270:376|270:376|266:344,1,140,2|0,1:2|0:0,0:0:0:0:
306,278,51686,2,0,P|365:244|431:262,1,140,2|2,0:0|1:2,0:0:0:0:
490,312,52141,1,8,1:2:0:0:
461,383,52292,1,10,1:2:0:0:
473,146,52747,6,0,L|369:154,1,105.000004005432,2|2,0:0|0:0,0:0:0:0:
291,139,53201,2,0,L|287:192,1,52.5000020027161,2|0,0:0|0:0,0:0:0:0:
233,246,53504,22,0,B|190:255|165:229|165:229|143:204|105:207,1,140,6|0,1:2|0:0,0:0:0:0:
38,245,53959,1,10,1:2:0:0:
139,129,54262,1,2,1:2:0:0:
139,129,54413,2,0,L|133:60,1,70,2|8,1:2|0:0,0:0:0:0:
81,1,54716,6,0,P|147:-17|209:11,1,140,6|0,1:2|0:0,0:0:0:0:
259,70,55171,1,10,1:2:0:0:
398,4,55474,1,2,1:2:0:0:
398,4,55626,2,0,L|392:73,1,70,2|8,1:2|0:0,0:0:0:0:
375,149,55929,102,0,B|418:158|443:132|443:132|465:107|503:110,1,140,6|0,1:2|0:0,0:0:0:0:
502,186,56383,1,10,1:2:0:0:
512,344,56686,1,2,1:2:0:0:
512,344,56838,2,0,L|443:338,1,70,2|8,1:2|0:0,0:0:0:0:
379,383,57141,6,0,P|350:320|368:254,1,140,6|0,1:2|0:0,0:0:0:0:
443,236,57595,1,10,1:2:0:0:
390,91,57898,1,2,1:2:0:0:
390,91,58050,2,0,L|321:97,1,70,2|8,1:2|0:0,0:0:0:0:
249,65,58353,102,0,B|194:85|203:151|203:151|235:147,1,140,6|0,1:2|0:0,0:0:0:0:
307,173,58807,1,10,1:2:0:0:
208,291,59110,1,2,1:2:0:0:
58,255,59413,1,10,1:2:0:0:
91,104,59716,22,0,L|97:173,1,70,10|0,1:2|0:0,0:0:0:0:
155,223,60019,2,0,L|161:292,1,70,10|0,1:2|0:0,0:0:0:0:
166,369,60322,6,0,L|235:375,1,70,10|0,1:2|0:0,0:0:0:0:
302,336,60626,2,0,L|371:342,1,70,10|0,1:2|0:0,0:0:0:0:
435,297,60929,70,0,P|449:328|447:362,2,70,14|0|0,1:2|0:0|0:0,0:0:0:0:
490,243,61383,22,0,P|461:223|426:220,1,70,6|0,1:2|0:0,0:0:0:0:
407,146,61686,2,0,P|375:161|356:189,1,70,6|0,1:2|0:0,0:0:0:0:
302,246,61989,102,0,L|162:258,1,140,6|0,1:2|0:0,0:0:0:0:
86,242,62444,2,0,L|80:311,2,70,10|0|10,1:2|0:0|0:0,0:0:0:0:
137,185,62898,2,0,L|143:116,1,70,10|0,1:2|0:0,0:0:0:0:
68,94,63201,102,0,B|111:103|136:77|136:77|158:52|196:55,1,140,6|0,1:2|0:0,0:0:0:0:
263,92,63656,1,10,1:2:0:0:
397,13,63959,1,2,1:2:0:0:
397,13,64110,2,0,L|391:82,1,70,2|8,1:2|0:0,0:0:0:0:
459,121,64413,6,0,P|393:103|331:131,1,140,6|0,1:2|0:0,0:0:0:0:
293,199,64868,1,10,1:2:0:0:
357,344,65171,1,2,1:2:0:0:
357,344,65322,2,0,L|288:338,1,70,2|8,1:2|0:0,0:0:0:0:
215,367,65626,102,0,B|172:376|147:350|147:350|125:325|87:328,1,140,6|0,1:2|0:0,0:0:0:0:
15,356,66080,1,10,1:2:0:0:
131,255,66383,1,2,1:2:0:0:
131,255,66535,2,0,L|137:186,1,70,2|8,1:2|0:0,0:0:0:0:
80,131,66838,6,0,P|142:102|208:119,1,140,6|0,1:2|0:0,0:0:0:0:
242,50,67292,2,0,P|270:70|284:101,1,70,10|0,1:2|0:0,0:0:0:0:
361,97,67595,2,0,P|357:131|337:159,1,70,10|0,1:2|0:0,0:0:0:0:
278,209,67898,1,10,1:2:0:0:
262,284,68050,102,0,B|305:293|330:267|330:267|352:242|390:245,1,140,6|0,1:2|0:0,0:0:0:0:
461,272,68504,1,10,1:2:0:0:
504,124,68807,2,0,L|435:130,1,70,0|0,1:0|0:0,0:0:0:0:
361,97,69110,1,10,1:2:0:0:
215,142,69413,5,2,1:2:0:0:
295,10,69716,1,10,1:2:0:0:
440,60,70019,2,0,L|434:129,2,70,2|0|8,1:2|0:0|0:0,0:0:0:0:
361,97,70474,102,0,B|318:106|293:80|293:80|271:55|233:58,1,140,6|0,1:2|0:0,0:0:0:0:
165,93,70929,1,8,1:2:0:0:
32,13,71232,2,0,L|26:82,1,70,0|0,1:0|0:0,0:0:0:0:
19,159,71535,1,10,1:2:0:0:
135,260,71838,5,2,1:2:0:0:
234,142,72141,1,10,1:2:0:0:
180,0,72444,2,0,L|111:6,2,70,10|0|8,1:2|0:0|0:0,0:0:0:0:
236,61,72898,102,0,L|376:73,1,140,6|0,1:2|1:0,0:0:0:0:
434,123,73353,21,10,1:2:0:0:
386,269,73656,1,10,1:2:0:0:
232,269,73959,1,10,1:2:0:0:
185,123,74262,1,10,1:2:0:0:
308,39,74565,1,10,1:2:0:0:
434,123,74868,22,0,P|365:124|316:172,1,140,2|10,1:2|0:0,0:0:0:0:
240,180,75322,54,0,L|252:320,1,140,6|0,1:2|1:0,0:0:0:0:
194,372,75777,21,10,1:2:0:0:
107,250,76080,1,10,1:2:0:0:
185,123,76383,1,10,1:2:0:0:
333,165,76686,1,6,1:2:0:0:
256,192,76838,12,0,78504,0:0:0:0:
388,344,78959,6,0,B|350:347|328:322|328:322|303:296|260:305,1,140,6|0,1:2|1:0,0:0:0:0:
191,338,79413,1,10,1:2:0:0:
57,262,79716,2,0,L|63:331,2,70,2|0|8,1:2|1:0|0:0,0:0:0:0:
48,185,80171,102,0,B|91:194|116:168|116:168|138:143|176:146,1,140,6|0,1:2|1:0,0:0:0:0:
248,174,80626,1,10,1:2:0:0:
362,69,80929,2,0,L|431:75,2,70,2|0|8,1:2|1:0|0:0,0:0:0:0:
288,51,81383,6,0,B|279:94|305:119|305:119|330:141|327:179,1,140,6|0,1:2|1:0,0:0:0:0:
284,243,81838,1,10,1:2:0:0:
402,342,82141,2,0,L|471:336,2,70,2|0|8,1:2|1:0|0:0,0:0:0:0:
323,371,82595,102,0,B|332:328|306:303|306:303|281:281|284:243,1,140,6|0,1:2|1:0,0:0:0:0:
327,179,83050,1,10,1:2:0:0:
210,79,83353,2,0,L|204:10,2,70,2|0|8,1:2|1:0|0:0,0:0:0:0:
33,157,83959,85,14,1:2:0:0:
33,157,84110,2,0,P|68:161|96:182,1,70,2|0,1:2|0:2,0:0:0:0:
135,257,84413,1,14,1:2:0:0:
135,257,84565,2,0,P|100:261|73:282,1,70,2|0,1:2|0:0,0:0:0:0:
49,358,84868,5,8,1:2:0:0:
49,358,85019,1,6,1:2:0:0:
256,192,85171,12,0,86737,1:0:0:0:
