osu file format v14

[General]
AudioFilename: audio.mp3
AudioLeadIn: 0
PreviewTime: 53901
Countdown: 0
SampleSet: Soft
StackLeniency: 0.7
Mode: 2
LetterboxInBreaks: 0
WidescreenStoryboard: 0

[Editor]
DistanceSpacing: 0.8
BeatDivisor: 4
GridSize: 8
TimelineZoom: 1

[Metadata]
Title:Twintail Dreamer! (TV Size)
TitleUnicode:ツインテール・ドリーマー! (TV Size)
Artist:Twin-Tails
ArtistUnicode:ツインテイルズ
Creator:MBomb
Version:Platter
Source:俺、ツインテールになります。
Tags:magic bomb sorcerer twintails ore twintail ni narimasu. gonna be the twin-tails!! テイルレッド 上坂すみれ uesaka sumire tail blue 相坂優歌 aisaka yuuka テイルブル テイルイエロー tail yellow 赤崎千夏 chinatsu akasaki japanese anime
BeatmapID:1819445
BeatmapSetID:698991

[Difficulty]
HPDrainRate:5
CircleSize:3
OverallDifficulty:8
ApproachRate:8
SliderMultiplier:1.6
SliderTickRate:2

[Events]
//Background and Video events
0,0,"cute redhead (hi olib).jpg",0,0
//Break Periods
//Storyboard Layer 0 (Background)
//Storyboard Layer 1 (Fail)
//Storyboard Layer 2 (Pass)
//Storyboard Layer 3 (Foreground)
//Storyboard Layer 4 (Overlay)
//Storyboard Sound Samples

[TimingPoints]
1477,303.030303030303,4,2,1,41,1,0
2992,-100,4,2,1,58,0,0
8598,-100,4,2,1,68,0,0
23295,-100,4,2,1,58,0,0
54658,-100,4,2,1,68,0,1
77840,-100,4,2,1,48,0,0
80113,-100,4,2,1,68,0,0
85113,-100,4,2,1,58,0,0
86325,-100,4,2,1,30,0,0

[Colours]
Combo1 : 136,0,0
Combo2 : 255,0,0
Combo3 : 255,0,128
Combo4 : 255,255,0

[HitObjects]
32,192,1477,5,2,0:0:0:0:
112,192,1628,1,0,0:0:0:0:
192,192,1780,1,0,0:0:0:0:
272,192,1931,1,2,0:0:0:0:
80,192,2386,1,2,0:0:0:0:
160,192,2537,1,0,0:0:0:0:
240,192,2689,1,0,0:0:0:0:
320,192,2840,1,2,0:0:0:0:
160,192,2992,6,0,L|96:144,1,80,2|0,0:3|0:0,0:0:0:0:
256,192,3295,1,8,0:3:0:0:
384,192,3446,1,8,0:3:0:0:
104,192,3749,6,0,P|88:112|232:72,1,240,4|0,0:0|0:0,0:0:0:0:
376,192,4507,2,0,L|488:192,1,80
152,192,4961,2,0,P|48:160|104:80,1,240,4|0,0:0|0:0,0:0:0:0:
264,192,5719,2,0,L|176:192,1,80
464,192,6173,6,0,P|496:160|376:96,1,240,4|0,0:0|0:0,0:0:0:0:
96,192,6931,2,0,L|176:192,1,80,8|0,0:3|0:0,0:0:0:0:
448,192,7386,2,0,L|192:192,1,240,4|2,0:0|0:3,0:0:0:0:
368,192,8143,2,0,B|448:192|448:192,2,80,8|8|8,0:3|0:3|0:3,0:0:0:0:
144,192,8598,6,0,B|64:192|64:192|144:192,1,160,4|0,0:0|0:0,0:0:0:0:
304,192,9052,1,8,0:3:0:0:
144,192,9355,1,8,0:3:0:0:
304,192,9658,1,8,0:3:0:0:
32,192,9961,5,8,0:3:0:0:
192,192,10264,1,8,0:3:0:0:
464,192,10567,1,8,0:3:0:0:
400,192,10719,1,8,0:3:0:0:
304,192,10870,1,8,0:3:0:0:
80,192,11022,6,0,B|8:152|8:152|80:192,1,160,4|0,0:0|0:0,0:0:0:0:
240,192,11476,1,8,0:3:0:0:
80,192,11780,1,8,0:3:0:0:
368,192,12083,1,8,0:3:0:0:
80,192,12386,6,0,P|24:168|80:120,1,160,8|8,0:3|0:3,0:0:0:0:
352,192,12992,1,8,0:3:0:0:
280,192,13143,1,8,0:3:0:0:
208,192,13295,1,8,0:3:0:0:
424,192,13446,6,0,P|456:160|376:128,1,160,4|0,0:0|0:0,0:0:0:0:
224,192,13901,1,8,0:3:0:0:
392,192,14204,2,0,L|312:192,2,80,0|0|8,0:0|0:0|0:3,0:0:0:0:
160,192,14658,6,0,P|72:168|48:96,1,160,4|0,0:3|0:0,0:0:0:0:
208,192,15113,1,8,0:3:0:0:
48,192,15416,1,0,0:0:0:0:
128,192,15567,1,0,0:0:0:0:
208,192,15719,1,8,0:3:0:0:
360,192,15870,6,0,P|320:144|232:168,1,160,4|0,0:0|0:0,0:0:0:0:
360,192,16325,1,8,0:3:0:0:
200,192,16628,2,0,L|120:192,2,80,0|0|8,0:0|0:0|0:3,0:0:0:0:
424,192,17083,6,0,B|512:192|504:112|416:112,1,160,4|0,0:3|0:0,0:0:0:0:
264,192,17537,1,8,0:3:0:0:
112,192,17840,1,0,0:0:0:0:
192,192,17992,1,0,0:0:0:0:
272,192,18143,1,8,0:3:0:0:
48,192,18295,6,0,B|8:176|16:88|64:80|128:96,1,160,4|0,0:0|0:0,0:0:0:0:
256,192,18749,1,8,0:3:0:0:
416,192,19052,2,0,L|336:192,2,80,0|0|8,0:0|0:0|0:3,0:0:0:0:
256,192,19507,6,0,P|184:144|224:112,1,160,4|0,0:3|0:0,0:0:0:0:
304,192,19961,2,0,L|392:192,1,80,8|0,0:3|0:0,0:0:0:0:
304,192,20264,2,0,L|216:192,2,80,0|0|8,0:0|0:0|0:3,0:0:0:0:
80,192,20719,6,0,B|16:200|16:80|88:96,1,160,4|0,0:0|0:0,0:0:0:0:
168,192,21173,2,0,L|88:192,1,80,8|0,0:3|0:0,0:0:0:0:
192,192,21477,2,0,L|288:192,2,80,0|0|8,0:0|0:0|0:3,0:0:0:0:
408,192,21931,6,0,P|488:152|448:104,1,160,4|0,0:0|0:0,0:0:0:0:
384,192,22386,1,8,0:3:0:0:
112,192,22689,2,0,L|24:192,1,80,8|8,0:3|0:3,0:0:0:0:
192,192,22992,2,0,L|288:192,1,80,8|8,0:3|0:3,0:0:0:0:
48,192,23295,6,0,B|16:184|16:144|160:144,1,160,4|2,0:0|0:0,0:0:0:0:
240,192,23749,1,2,0:0:0:0:
72,192,24052,1,2,0:3:0:0:
240,192,24355,6,0,P|384:152|408:72,1,240,2|0,0:3|0:0,0:0:0:0:
248,192,25113,1,2,0:0:0:0:
408,192,25416,1,2,0:0:0:0:
120,192,25719,6,0,P|64:160|128:112,1,160,8|2,0:3|0:0,0:0:0:0:
208,192,26173,1,2,0:0:0:0:
368,192,26477,1,2,0:3:0:0:
208,192,26780,6,0,L|448:192,1,240,2|0,0:3|0:0,0:0:0:0:
288,192,27537,1,2,0:0:0:0:
128,192,27840,1,2,0:0:0:0:
424,192,28143,6,0,L|256:192,1,160,8|2,0:3|0:0,0:0:0:0:
344,192,28598,1,2,0:0:0:0:
184,192,28901,1,2,0:3:0:0:
344,192,29204,1,2,0:3:0:0:
128,192,29658,6,0,L|296:192,1,160,0|0,0:0|0:0,0:0:0:0:
112,192,30264,1,0,0:0:0:0:
400,192,30567,6,0,B|496:184|488:112|424:104,1,160,8|0,0:3|0:0,0:0:0:0:
336,192,31022,1,2,0:0:0:0:
40,192,31325,2,0,L|128:192,1,80,8|0,0:3|0:0,0:0:0:0:
368,192,31628,6,0,B|480:192|480:192|432:184,1,160,4|0,0:0|0:0,0:0:0:0:
352,192,32083,1,8,0:3:0:0:
192,192,32386,2,0,L|131:141,1,80
288,192,32689,2,0,L|384:192,1,80,8|8,0:3|0:3,0:0:0:0:
112,192,32992,6,0,P|56:152|120:120,1,160,4|8,0:0|0:3,0:0:0:0:
200,192,33446,1,2,0:0:0:0:
368,192,33749,1,2,0:3:0:0:
200,192,34052,6,0,L|384:192,1,160,2|0,0:3|0:0,0:0:0:0:
280,192,34507,1,8,0:3:0:0:
120,192,34810,1,2,0:0:0:0:
296,192,35113,1,8,0:3:0:0:
40,192,35416,6,0,L|208:192,1,160,4|8,0:0|0:3,0:0:0:0:
288,192,35870,1,2,0:0:0:0:
112,192,36173,1,2,0:3:0:0:
288,192,36476,6,0,L|96:192,1,160,2|0,0:3|0:0,0:0:0:0:
224,192,36931,1,8,0:3:0:0:
384,192,37234,1,2,0:0:0:0:
208,192,37537,1,8,0:3:0:0:
496,192,37840,6,0,P|416:144|336:136,1,160,4|8,0:0|0:3,0:0:0:0:
256,192,38295,1,2,0:0:0:0:
416,192,38598,1,2,0:3:0:0:
160,192,38901,6,0,P|150:148|240:120,1,160,2|0,0:3|0:0,0:0:0:0:
400,192,39355,1,8,0:3:0:0:
232,192,39658,1,2,0:0:0:0:
160,192,39810,1,0,0:0:0:0:
88,192,39961,1,8,0:3:0:0:
384,192,40264,6,0,P|456:160|432:96,1,160,4|8,0:0|0:3,0:0:0:0:
336,192,40719,1,2,0:0:0:0:
496,192,41022,1,2,0:0:0:0:
192,192,41325,6,0,L|376:192,1,160,4|0,0:0|0:0,0:0:0:0:
256,192,41780,1,0,0:0:0:0:
176,192,41931,1,0,0:0:0:0:
256,192,42083,2,0,L|336:192,1,80,0|0,0:0|0:0,0:0:0:0:
432,192,42386,2,0,L|352:192,1,80,8|8,0:3|0:3,0:0:0:0:
112,192,42689,6,0,P|56:160|112:112,1,160,4|0,0:0|0:0,0:0:0:0:
288,192,43295,2,0,L|288:112,1,80,8|2,0:3|0:3,0:0:0:0:
112,192,43749,2,0,L|304:192,1,160,8|0,0:3|0:0,0:0:0:0:
368,192,44204,5,2,0:0:0:0:
240,192,44507,1,2,0:0:0:0:
400,192,44810,1,2,0:0:0:0:
112,192,45113,6,0,L|280:192,1,160,8|8,0:3|0:3,0:0:0:0:
88,192,45719,1,2,0:0:0:0:
160,192,45870,1,2,0:0:0:0:
448,192,46173,6,0,P|496:136|432:88,1,160,8|0,0:3|0:0,0:0:0:0:
344,192,46628,1,8,0:3:0:0:
192,192,46931,2,0,L|128:136,2,80,2|0|8,0:0|0:0|0:3,0:0:0:0:
432,192,47386,6,0,P|488:152|432:112,1,160,4|0,0:0|0:0,0:0:0:0:
344,192,47840,1,2,0:0:0:0:
168,192,48143,2,0,L|336:192,1,160,8|0,0:3|0:0,0:0:0:0:
152,192,48749,6,0,P|96:168|152:120,1,160,8|0,0:3|0:0,0:0:0:0:
320,192,49355,2,0,P|404:180|456:120,1,160,8|8,0:3|0:3,0:0:0:0:
360,192,49810,1,8,0:3:0:0:
120,192,49961,6,0,L|40:192,2,80,4|0|0,0:0|0:0|0:0,0:0:0:0:
272,192,50416,2,0,L|112:192,2,160,2|2|2,0:0|0:0|0:0,0:0:0:0:
432,192,51325,6,0,P|496:168|504:136,2,80,2|0|2,0:0|0:0|0:0,0:0:0:0:
352,192,51780,1,2,0:3:0:0:
272,192,51931,1,2,0:3:0:0:
192,192,52083,1,2,0:3:0:0:
128,192,52234,1,2,0:3:0:0:
368,192,52386,6,0,L|448:192,2,80,8|0|0,0:3|0:0|0:0,0:0:0:0:
216,192,52840,2,0,L|128:192,1,80,2|0,0:0|0:0,0:0:0:0:
288,192,53143,2,0,L|376:192,1,80,2|2,0:0|0:0,0:0:0:0:
96,192,53446,1,6,0:0:0:0:
96,192,53901,5,2,0:0:0:0:
240,192,54204,1,0,0:0:0:0:
144,192,54355,2,0,P|93:178|80:136,1,80,2|0,0:0|0:0,0:0:0:0:
328,192,54658,6,0,P|416:176|448:112,1,160,4|0,0:0|0:0,0:0:0:0:
296,192,55113,1,8,0:3:0:0:
456,192,55416,2,0,L|376:192,1,80,2|2,0:0|0:0,0:0:0:0:
88,192,55870,6,0,P|32:152|88:104,1,160,4|0,0:3|0:0,0:0:0:0:
200,192,56325,2,0,L|24:192,1,160,8|2,0:3|0:0,0:0:0:0:
128,192,56780,1,2,0:0:0:0:
208,192,56931,1,8,0:3:0:0:
448,192,57083,6,0,P|480:136|408:96,1,160,4|0,0:0|0:0,0:0:0:0:
256,192,57537,1,8,0:3:0:0:
72,192,57840,2,0,L|96:112,1,80,2|2,0:0|0:0,0:0:0:0:
392,192,58295,6,0,P|448:160|392:112,1,160,4|0,0:3|0:0,0:0:0:0:
240,192,58749,1,8,0:3:0:0:
392,192,59052,1,2,0:0:0:0:
464,192,59204,2,0,L|392:152,1,80,2|8,0:0|0:3,0:0:0:0:
152,192,59507,6,0,P|64:160|40:96,1,160,4|0,0:0|0:0,0:0:0:0:
184,192,59961,2,0,L|344:192,2,160,8|2|8,0:3|0:0|0:3,0:0:0:0:
480,192,60870,6,0,P|472:128|376:104,1,160,2|8,0:3|0:3,0:0:0:0:
96,192,61476,2,0,P|16:136|56:80,1,160,2|8,0:3|0:3,0:0:0:0:
408,192,62083,6,0,L|496:192,2,80,4|0|0,0:0|0:0|0:0,0:0:0:0:
256,192,62537,2,0,L|208:128,1,80,4|0,0:0|0:0,0:0:0:0:
368,192,62840,2,0,L|416:128,1,80,4|0,0:0|0:0,0:0:0:0:
176,192,63143,6,0,P|120:144|176:120,1,160,4|0,0:0|0:0,0:0:0:0:
264,192,63598,2,0,L|352:192,1,80,8|0,0:3|0:0,0:0:0:0:
248,192,63901,1,8,0:3:0:0:
208,192,63976,1,0,0:0:0:0:
184,192,64052,1,8,0:3:0:0:
208,192,64128,1,0,0:0:0:0:
248,192,64204,1,8,0:3:0:0:
480,192,64355,6,0,P|464:128|384:88,1,160,4|0,0:0|0:0,0:0:0:0:
232,192,64810,1,8,0:3:0:0:
392,192,65113,1,2,0:0:0:0:
312,192,65264,2,0,L|224:192,1,80,2|8,0:0|0:3,0:0:0:0:
384,192,65567,6,0,P|448:176|416:104,1,160,4|0,0:3|0:0,0:0:0:0:
328,192,66022,1,8,0:3:0:0:
496,192,66325,1,2,0:0:0:0:
416,192,66476,2,0,L|496:192,1,80,2|8,0:0|0:3,0:0:0:0:
248,192,66780,6,0,P|184:152|240:104,1,160,4|0,0:0|0:0,0:0:0:0:
376,192,67234,1,8,0:3:0:0:
200,192,67537,2,0,P|156:178|144:136,1,80,2|2,0:0|0:0,0:0:0:0:
224,192,67840,1,8,0:3:0:0:
72,192,67992,6,0,P|16:144|80:104,1,160,4|0,0:3|0:0,0:0:0:0:
224,192,68446,2,0,P|312:160|336:96,1,160,8|2,0:3|0:0,0:0:0:0:
168,192,69052,1,8,0:3:0:0:
408,192,69204,6,0,P|464:152|392:112,1,160,4|0,0:0|0:0,0:0:0:0:
320,192,69658,1,8,0:3:0:0:
152,192,69961,2,0,L|232:192,1,80,0|0,0:0|0:0,0:0:0:0:
320,192,70264,1,8,0:3:0:0:
32,192,70567,6,0,P|56:144|168:112,1,160,2|8,0:0|0:3,0:0:0:0:
456,192,71173,2,0,L|352:192,2,80,2|0|8,0:0|0:0|0:3,0:0:0:0:
208,192,71628,6,0,P|128:152|104:80,1,160,4|0,0:0|0:0,0:0:0:0:
200,192,72083,1,8,0:3:0:0:
32,192,72386,2,0,L|64:112,1,80,0|0,0:0|0:0,0:0:0:0:
152,192,72689,1,8,0:3:0:0:
312,192,72992,6,0,L|144:192,1,160,4|8,0:3|0:3,0:0:0:0:
240,192,73446,1,8,0:3:0:0:
400,192,73598,1,8,0:3:0:0:
440,123,73673,1,0,0:0:0:0:
457,157,73749,1,8,0:3:0:0:
440,123,73825,1,0,0:0:0:0:
400,192,73901,1,8,0:3:0:0:
168,192,74052,6,0,P|120:168|176:112,1,160,4|0,0:0|0:0,0:0:0:0:
336,192,74507,1,8,0:3:0:0:
168,192,74810,1,8,0:3:0:0:
336,192,75113,1,8,0:3:0:0:
152,192,75416,6,0,L|312:192,1,160,8|8,0:3|0:3,0:0:0:0:
16,192,76022,1,8,0:3:0:0:
34,156,76097,1,0,0:0:0:0:
64,130,76173,1,8,0:3:0:0:
101,117,76249,1,0,0:0:0:0:
141,119,76325,1,8,0:3:0:0:
368,192,76476,6,0,P|464:144|488:80,1,160,4|0,0:0|0:0,0:0:0:0:
336,192,76931,1,8,0:3:0:0:
176,192,77234,1,8,0:3:0:0:
352,192,77537,2,0,P|392:144|368:128,1,80,8|0,0:3|0:0,0:0:0:0:
152,192,77840,6,0,P|88:184|40:96,1,160,4|0,0:0|0:0,0:0:0:0:
328,200,78446,2,0,P|384:144|320:120,1,160,2|0,0:0|0:0,0:0:0:0:
184,192,78901,2,0,P|48:136|192:32,1,400,2|0,0:0|0:0,0:0:0:0:
280,192,79810,1,0,0:0:0:0:
360,192,79961,1,0,0:0:0:0:
128,192,80113,6,0,P|72:160|144:128,1,160,4|0,0:0|0:0,0:0:0:0:
224,192,80567,1,8,0:3:0:0:
392,192,80870,2,0,L|444:132,2,80,0|0|8,0:0|0:0|0:3,0:0:0:0:
160,192,81325,6,0,P|104:152|160:104,1,160,4|0,0:3|0:0,0:0:0:0:
256,192,81780,1,8,0:3:0:0:
88,192,82083,2,0,P|40:184|16:152,2,80,0|0|8,0:0|0:0|0:3,0:0:0:0:
328,192,82537,6,0,P|384:136|320:112,1,160,4|0,0:0|0:0,0:0:0:0:
240,192,82992,1,8,0:3:0:0:
80,192,83295,1,0,0:0:0:0:
160,192,83446,1,0,0:0:0:0:
240,192,83598,1,8,0:3:0:0:
472,192,83749,6,0,P|448:136|352:112,1,160,4|0,0:3|0:0,0:0:0:0:
256,192,84204,1,8,0:3:0:0:
424,192,84507,2,0,P|484:176|496:160,2,80,0|0|8,0:0|0:0|0:3,0:0:0:0:
152,192,85113,6,0,L|56:192,2,80,4|0|0,0:0|0:0|0:0,0:0:0:0:
304,192,85567,2,0,L|400:192,2,80,4|0|0,0:0|0:0|0:0,0:0:0:0:
400,192,86022,1,8,0:3:0:0:
168,192,86173,5,4,0:0:0:0:
256,192,86325,12,8,87878,0:3:0:0:
