osu file format v14

[General]
AudioFilename: audio.mp3
AudioLeadIn: 0
PreviewTime: 191139
Countdown: 0
SampleSet: Normal
StackLeniency: 0.7
Mode: 0
LetterboxInBreaks: 0
WidescreenStoryboard: 1

[Editor]
DistanceSpacing: 1.5
BeatDivisor: 4
GridSize: 32
TimelineZoom: 2.4

[Metadata]
Title:Twintail Dreamer!
TitleUnicode:ツインテール・ドリーマー!
Artist:Twin-Tails
ArtistUnicode:ツインテイルズ
Creator:Minorsonek
Version:Walao's Insane
Source:俺、ツインテールになります。
Tags:ore twintail ni narimasu. gonna be the twin-tails!! ending full Sumire Uesaka Yuka Aisaka Chinatsu Akasaki twintails anime japanese Nyukai Captain Yasaija 714 RVMathew MaridiuS Seulgij walaowey
BeatmapID:1656185
BeatmapSetID:773026

[Difficulty]
HPDrainRate:6
CircleSize:3.8
OverallDifficulty:7.8
ApproachRate:9
SliderMultiplier:1.7
SliderTickRate:1

[Events]
//Background and Video events
0,0,"anime-1517497701521-1259.jpg",0,0
//Break Periods
2,83157,84175
2,85581,86599
2,136490,140387
2,172702,181599
//Storyboard Layer 0 (Background)
//Storyboard Layer 1 (Fail)
//Storyboard Layer 2 (Pass)
//Storyboard Layer 3 (Foreground)
//Storyboard Layer 4 (Overlay)
//Storyboard Sound Samples

[TimingPoints]
533,303.030303030303,4,1,2,50,1,0
2048,-100,4,1,2,70,0,0
2805,-133.333333333333,4,1,2,60,0,0
6896,-133.333333333333,4,1,2,70,0,0
12502,-100,4,1,2,70,0,0
22351,-133.333333333333,4,1,2,50,0,0
30684,-133.333333333333,4,1,2,60,0,0
32048,-100,4,1,2,60,0,0
32351,-100,4,1,2,60,0,0
41745,-133.333333333333,4,1,2,50,0,0
49017,-133.333333333333,4,1,2,60,0,0
51442,-133.333333333333,4,1,2,60,0,0
52957,-100,4,1,2,30,0,0
53411,-200,4,1,2,30,0,0
53639,-200,4,1,2,30,0,0
53714,-90.9090909090909,4,1,2,70,0,1
54926,-90.9090909090909,4,1,3,70,0,1
55229,-90.9090909090909,4,1,2,70,0,1
56139,-90.9090909090909,4,1,3,70,0,1
56442,-90.9090909090909,4,1,2,70,0,1
57351,-90.9090909090909,4,1,3,70,0,1
57654,-90.9090909090909,4,1,2,70,0,1
58563,-90.9090909090909,4,1,3,70,0,1
58866,-90.9090909090909,4,1,2,70,0,1
59926,-90.9090909090909,4,1,3,70,0,1
60229,-90.9090909090909,4,1,2,70,0,1
60532,-90.9090909090909,4,1,3,70,0,1
60835,-90.9090909090909,4,1,2,70,0,1
62957,-90.9090909090909,4,1,2,70,0,0
63411,-90.9090909090909,4,1,2,70,0,1
64623,-90.9090909090909,4,1,3,70,0,1
64926,-90.9090909090909,4,1,2,70,0,1
65836,-90.9090909090909,4,1,3,70,0,1
66139,-90.9090909090909,4,1,2,70,0,1
67048,-90.9090909090909,4,1,3,70,0,1
67351,-90.9090909090909,4,1,2,70,0,1
68260,-90.9090909090909,4,1,3,70,0,1
68563,-90.9090909090909,4,1,2,70,0,1
70684,-90.9090909090909,4,1,3,70,0,1
70987,-90.9090909090909,4,1,2,70,0,1
73108,-100,4,1,2,70,0,0
82351,-100,4,1,2,60,0,0
82957,-133.333333333333,4,1,2,60,0,0
92654,-100,4,1,2,60,0,0
102351,-133.333333333333,4,1,2,50,0,0
113563,-133.333333333333,4,1,2,60,0,0
114320,-90.9090909090909,4,1,2,70,0,1
115532,-90.9090909090909,4,1,3,70,0,1
115835,-90.9090909090909,4,1,2,70,0,1
116745,-90.9090909090909,4,1,3,70,0,1
117048,-90.9090909090909,4,1,2,70,0,1
117957,-90.9090909090909,4,1,3,70,0,1
118260,-90.9090909090909,4,1,2,70,0,1
119169,-90.9090909090909,4,1,3,70,0,1
119472,-90.9090909090909,4,1,2,70,0,1
120532,-90.9090909090909,4,1,3,70,0,1
120835,-90.9090909090909,4,1,2,70,0,1
121138,-90.9090909090909,4,1,3,70,0,1
121441,-90.9090909090909,4,1,2,70,0,1
123563,-90.9090909090909,4,1,2,70,0,0
124017,-90.9090909090909,4,1,2,70,0,1
125229,-90.9090909090909,4,1,3,70,0,1
125532,-90.9090909090909,4,1,2,70,0,1
126442,-90.9090909090909,4,1,3,70,0,1
126745,-90.9090909090909,4,1,2,70,0,1
127654,-90.9090909090909,4,1,3,70,0,1
127957,-90.9090909090909,4,1,2,70,0,1
128866,-90.9090909090909,4,1,3,70,0,1
129169,-90.9090909090909,4,1,2,70,0,1
131290,-90.9090909090909,4,1,3,70,0,1
131593,-90.9090909090909,4,1,2,70,0,1
133714,-133.333333333333,4,1,2,70,0,0
143411,-100,4,1,2,60,0,0
162957,-133.333333333333,4,1,2,50,0,0
170229,-133.333333333333,4,1,2,40,0,0
172502,-133.333333333333,4,2,2,50,0,0
182199,-133.333333333333,4,2,2,50,0,0
189472,-181.818181818182,4,2,2,50,0,0
191139,-181.818181818182,4,1,2,30,0,0
191896,-90.9090909090909,4,1,2,70,0,1
193108,-90.9090909090909,4,1,3,70,0,1
193411,-90.9090909090909,4,1,2,70,0,1
194321,-90.9090909090909,4,1,3,70,0,1
194624,-90.9090909090909,4,1,2,70,0,1
195533,-90.9090909090909,4,1,3,70,0,1
195836,-90.9090909090909,4,1,2,70,0,1
196745,-90.9090909090909,4,1,3,70,0,1
197048,-90.9090909090909,4,1,2,70,0,1
198108,-90.9090909090909,4,1,3,70,0,1
198411,-90.9090909090909,4,1,2,70,0,1
198714,-90.9090909090909,4,1,3,70,0,1
199017,-90.9090909090909,4,1,2,70,0,1
201139,-90.9090909090909,4,1,2,70,0,0
201593,-90.9090909090909,4,1,2,70,0,1
202805,-90.9090909090909,4,1,3,70,0,1
203108,-90.9090909090909,4,1,2,70,0,1
204018,-90.9090909090909,4,1,3,70,0,1
204321,-90.9090909090909,4,1,2,70,0,1
205230,-90.9090909090909,4,1,3,70,0,1
205533,-90.9090909090909,4,1,2,70,0,1
206442,-90.9090909090909,4,1,3,70,0,1
206745,-90.9090909090909,4,1,2,70,0,1
208866,-90.9090909090909,4,1,3,70,0,1
209169,-90.9090909090909,4,1,2,70,0,1
211290,-100,4,1,2,70,0,0
215078,-125,4,1,2,60,0,0
215305,-125,4,1,2,5,0,0
215381,-125,4,1,2,60,0,0
215608,-125,4,1,2,5,0,0
215684,-142.857142857143,4,1,2,60,0,0
216063,-142.857142857143,4,1,2,5,0,0
216139,-166.666666666667,4,1,2,60,0,0
216820,-166.666666666667,4,1,2,5,0,0
216896,-200,4,1,2,60,0,0
217275,-200,4,1,2,5,0,0
217351,-100,4,1,2,60,0,0
222351,-100,4,1,2,70,0,0
223411,-200,4,1,2,60,0,0
224775,-100,4,1,2,60,0,0

[Colours]
Combo1 : 184,184,171
Combo2 : 168,61,45
Combo3 : 211,216,48
Combo4 : 29,87,184

[HitObjects]
141,146,533,5,0,0:0:0:0:
211,98,684,1,0,0:0:0:0:
191,214,836,1,0,0:0:0:0:
261,166,987,1,0,0:0:0:0:
106,224,1442,5,0,0:0:0:0:
191,214,1593,1,0,0:0:0:0:
116,308,1745,1,0,0:0:0:0:
201,298,1896,1,0,0:0:0:0:
106,224,2048,6,0,L|68:191,1,42.5,8|0,0:0|0:0,0:0:0:0:
108,118,2199,2,0,L|140:145,1,42.5,2|2,0:0|0:0,0:0:0:0:
261,166,2351,1,8,0:0:0:0:
220,42,2502,1,8,0:0:0:0:
227,32,2805,6,0,L|374:65,1,127.500004863739,4|0,0:0|0:0,0:0:0:0:
427,68,3260,2,0,P|360:85|335:143,1,127.500004863739,0|0,0:0|0:0,0:0:0:0:
379,196,3714,2,0,P|401:173|410:143,1,63.7500024318696,0|0,0:0|0:0,0:0:0:0:
299,201,4017,6,0,P|241:209|175:161,1,127.500004863739,4|0,0:0|0:0,0:0:0:0:
127,122,4472,2,0,L|142:254,1,127.500004863739,0|0,0:0|0:0,0:0:0:0:
66,260,4926,2,0,L|58:184,1,63.7500024318696,0|0,0:0|0:0,0:0:0:0:
115,325,5229,6,0,P|172:323|219:272,1,127.500004863739,4|0,0:0|0:0,0:0:0:0:
276,224,5684,2,0,P|293:262|290:306,1,63.7500024318696,0|0,0:0|0:0,0:0:0:0:
141,248,5987,1,4,0:0:0:0:
141,248,6139,2,0,L|132:168,1,63.7500024318696,0|0,0:0|0:0,0:0:0:0:
87,123,6442,6,0,P|136:159|212:133,1,127.500004863739,2|0,0:0|0:0,0:0:0:0:
284,39,6896,1,8,0:0:0:0:
153,84,7048,1,0,0:0:0:0:
153,84,7123,1,0,0:0:0:0:
153,84,7199,1,8,0:0:0:0:
283,122,7351,1,0,0:0:0:0:
200,16,7502,1,0,0:0:0:0:
360,84,7654,6,0,L|376:227,1,127.500004863739,4|2,0:0|0:0,0:0:0:0:
291,335,8108,1,8,0:0:0:0:
293,196,8260,1,2,0:0:0:0:
319,335,8411,1,8,0:0:0:0:
224,231,8563,1,2,0:0:0:0:
382,289,8714,2,0,P|396:321|395:354,1,63.7500024318696,8|2,0:0|0:0,0:0:0:0:
216,366,9017,6,0,L|144:306,1,63.7500024318696,8|2,0:0|0:0,0:0:0:0:
93,208,9320,2,0,L|141:248,1,63.7500024318696,8|2,0:0|0:0,0:0:0:0:
293,196,9623,1,8,0:0:0:0:
296,187,9699,1,8,0:3:0:0:
299,178,9775,2,0,L|278:123,1,31.8750012159348,8|8,0:3|0:3,0:0:0:0:
166,126,9926,1,8,0:0:0:0:
337,78,10078,6,0,L|482:114,1,127.500004863739,4|2,0:0|0:0,0:0:0:0:
508,222,10532,1,8,0:0:0:0:
378,170,10684,1,2,0:0:0:0:
507,248,10836,1,8,0:0:0:0:
353,259,10987,1,2,0:0:0:0:
483,336,11139,2,0,L|501:275,1,63.7500024318696,8|2,0:0|0:0,0:0:0:0:
351,348,11442,6,0,P|389:340|418:322,1,63.7500024318696,8|2,0:0|0:0,0:0:0:0:
271,303,11745,2,0,P|233:311|204:329,1,63.7500024318696,8|2,0:0|0:0,0:0:0:0:
72,342,12048,2,0,L|83:277,1,63.7500024318696,8|0,0:0|0:0,0:0:0:0:
66,259,12275,1,0,0:0:0:0:
50,238,12351,1,8,0:0:0:0:
33,218,12426,1,0,0:0:0:0:
17,197,12502,6,0,P|110:169|133:98,1,170,4|2,0:0|0:0,0:0:0:0:
0,88,12957,2,0,L|2:173,1,85,8|0,0:0|0:0,0:0:0:0:
122,314,13260,2,0,L|151:234,1,85,2|2,0:0|0:0,0:0:0:0:
246,153,13563,1,8,0:0:0:0:
347,276,13714,6,0,P|335:193|425:138,1,170,0|2,0:0|0:0,0:0:0:0:
489,248,14169,2,0,P|447:246|412:222,1,85,8|0,0:0|0:0,0:0:0:0:
389,59,14472,2,0,L|452:71,1,42.5,2|0,0:0|0:0,0:0:0:0:
474,165,14623,1,2,0:0:0:0:
316,106,14775,1,8,0:0:0:0:
356,285,14926,6,0,P|274:260|178:226,1,170,2|2,0:0|0:0,0:0:0:0:
58,132,15381,2,0,P|103:155|132:213,1,85,8|0,0:0|0:0,0:0:0:0:
184,317,15684,2,0,P|139:294|110:236,1,85,2|2,0:0|0:0,0:0:0:0:
205,152,15987,1,8,0:0:0:0:
274,322,16139,6,0,P|362:286|433:249,1,170,2|2,0:0|0:0,0:0:0:0:
417,96,16593,1,8,0:0:0:0:
313,213,16745,1,0,0:0:0:0:
454,172,16896,2,0,L|496:133,1,42.5,2|0,0:0|0:0,0:0:0:0:
379,20,17048,1,2,0:0:0:0:
377,165,17199,1,8,0:0:0:0:
208,53,17351,6,0,P|133:69|106:166,1,170,4|2,0:0|0:0,0:0:0:0:
140,315,17805,2,0,L|120:232,1,85,8|0,0:0|0:0,0:0:0:0:
185,134,18108,2,0,L|223:179,1,42.5,2|0,0:0|0:0,0:0:0:0:
293,252,18260,1,2,0:0:0:0:
300,164,18411,1,8,0:0:0:0:
248,325,18563,6,0,P|317:334|377:242,1,170,2|2,0:0|0:0,0:0:0:0:
362,90,19017,2,0,P|369:115|426:164,1,85,8|0,0:0|0:0,0:0:0:0:
396,16,19320,1,2,0:0:0:0:
272,82,19472,1,2,0:0:0:0:
447,81,19623,1,8,0:0:0:0:
266,164,19775,6,0,P|202:123|221:17,1,170,2|2,0:0|0:0,0:0:0:0:
342,136,20229,2,0,P|341:193|326:218,1,85,8|0,0:0|0:0,0:0:0:0:
167,233,20533,2,0,P|224:234|249:249,1,85,2|2,0:0|0:0,0:0:0:0:
261,367,20836,1,8,0:0:0:0:
77,298,20987,6,0,L|61:197,1,85,2|0,0:0|0:0,0:0:0:0:
223,144,21290,1,2,0:0:0:0:
319,299,21442,2,0,L|423:339,1,85,8|0,0:0|0:0,0:0:0:0:
512,243,21745,1,8,0:0:0:0:
442,127,21896,1,0,0:0:0:0:
429,122,21972,1,0,0:0:0:0:
416,118,22048,1,8,0:0:0:0:
300,173,22199,1,0,0:0:0:0:
291,182,22274,1,0,0:0:0:0:
282,194,22351,6,0,L|271:53,1,127.500004863739,4|2,0:0|0:0,0:0:0:0:
200,40,22805,2,0,P|168:38|133:50,1,63.7500024318696,0|2,0:0|0:0,0:0:0:0:
86,104,23108,2,0,P|55:113|24:111,1,63.7500024318696,0|2,0:0|0:0,0:0:0:0:
10,242,23411,6,0,P|58:206|130:182,1,127.500004863739,0|0,0:0|0:0,0:0:0:0:
175,237,23866,2,0,P|172:273|196:314,1,63.7500024318696,2|0,0:0|0:0,0:0:0:0:
248,337,24169,2,0,L|332:333,1,63.7500024318696,2|0,0:0|0:0,0:0:0:0:
312,257,24472,2,0,L|228:261,1,63.7500024318696,2|0,0:0|0:0,0:0:0:0:
342,186,24775,6,0,P|383:232|380:294,1,127.500004863739,2|2,0:0|0:0,0:0:0:0:
448,327,25229,2,0,P|458:297|463:261,1,63.7500024318696,0|2,0:0|0:0,0:0:0:0:
450,189,25533,2,0,P|454:157|464:127,1,63.7500024318696,0|2,0:0|0:0,0:0:0:0:
326,42,25836,6,0,P|272:59|200:46,1,127.500004863739,0|0,0:0|0:0,0:0:0:0:
127,54,26290,2,0,P|135:83|168:116,1,63.7500024318696,2|0,0:0|0:0,0:0:0:0:
102,164,26593,2,0,L|21:161,1,63.7500024318696,2|0,0:0|0:0,0:0:0:0:
34,240,26896,2,0,L|107:243,1,63.7500024318696,2|0,0:0|0:0,0:0:0:0:
204,299,27199,6,0,P|132:315|103:366,1,127.500004863739,2|2,0:0|0:0,0:0:0:0:
263,355,27654,2,0,P|280:325|283:284,1,63.7500024318696,0|2,0:0|0:0,0:0:0:0:
351,259,27957,2,0,P|381:276|422:279,1,63.7500024318696,0|2,0:0|0:0,0:0:0:0:
378,136,28260,6,0,L|283:221,1,127.500004863739,0|0,0:0|0:0,0:0:0:0:
234,163,28714,2,0,L|302:106,1,63.7500024318696,2|0,0:0|0:0,0:0:0:0:
156,138,29017,2,0,L|143:68,1,63.7500024318696,2|0,0:0|0:0,0:0:0:0:
92,183,29320,2,0,L|25:159,1,63.7500024318696,2|0,0:0|0:0,0:0:0:0:
126,261,29623,6,0,P|152:243|169:216,1,63.7500024318696,2|0,0:0|0:0,0:0:0:0:
156,138,29926,1,2,0:0:0:0:
234,163,30078,2,0,L|256:245,1,63.7500024318696,0|2,0:0|0:0,0:0:0:0:
363,289,30381,1,8,0:0:0:0:
318,177,30533,1,2,0:0:0:0:
311,345,30684,6,0,P|365:366|430:324,1,127.500004863739,4|2,0:0|0:0,0:0:0:0:
404,174,31139,1,8,0:0:0:0:
363,289,31290,1,0,0:0:0:0:
250,224,31442,2,0,L|228:142,1,63.7500024318696,2|2,0:0|0:0,0:0:0:0:
71,153,31745,1,8,0:0:0:0:
55,172,31820,1,0,0:0:0:0:
40,193,31896,1,8,0:0:0:0:
22,212,31972,1,8,0:0:0:0:
6,233,32048,6,0,P|100:250|175:284,1,170,4|8,0:0|0:0,0:0:0:0:
278,364,32502,2,0,P|281:317|309:280,1,85,0|2,0:0|0:0,0:0:0:0:
431,237,32805,1,2,0:0:0:0:
361,346,32957,1,8,0:0:0:0:
278,191,33108,6,0,L|458:221,1,170,2|2,0:0|0:0,0:0:0:0:
451,93,33563,2,0,L|369:125,1,85,8|0,0:0|0:0,0:0:0:0:
234,49,33866,2,0,P|269:72|292:108,1,85,2|2,0:0|0:0,0:0:0:0:
248,277,34169,2,0,P|212:253|190:218,1,85,8|0,0:0|0:0,0:0:0:0:
105,78,34472,6,0,P|96:156|15:218,1,170,2|8,0:0|0:0,0:0:0:0:
25,40,34926,2,0,L|133:53,1,85,2|0,0:0|0:0,0:0:0:0:
243,121,35229,1,2,0:0:0:0:
105,78,35381,1,8,0:0:0:0:
270,46,35532,6,0,P|321:110|274:194,1,170,2|2,0:0|0:0,0:0:0:0:
127,207,35987,2,0,L|212:199,1,85,8|0,0:0|0:0,0:0:0:0:
319,323,36290,1,2,0:0:0:0:
319,323,36366,1,0,0:0:0:0:
319,323,36442,1,2,0:0:0:0:
368,247,36593,2,0,L|426:173,1,85,8|0,0:0|0:0,0:0:0:0:
493,335,36896,6,0,P|426:333|314:347,1,170,2|8,0:0|0:0,0:0:0:0:
172,260,37351,2,0,P|198:292|203:334,1,85,2|0,0:0|0:0,0:0:0:0:
86,243,37654,2,0,P|101:203|134:178,1,85,2|8,0:0|0:0,0:0:0:0:
11,244,37957,6,0,P|36:169|133:102,1,170,2|2,0:0|0:0,0:0:0:0:
220,190,38411,2,0,L|312:190,1,85,8|0,0:0|0:0,0:0:0:0:
307,42,38714,2,0,L|261:121,1,85,2|2,0:0|0:0,0:0:0:0:
393,190,39017,2,0,L|347:110,1,85,8|0,0:0|0:0,0:0:0:0:
180,116,39320,6,0,P|135:182|195:273,1,170,2|8,0:0|0:0,0:0:0:0:
325,317,39775,2,0,L|234:333,1,85,2|2,0:0|0:0,0:0:0:0:
138,362,40078,2,0,L|51:330,1,85,2|8,0:0|0:0,0:0:0:0:
62,129,40381,6,0,P|64:232|1:235,1,170,2|2,0:0|0:0,0:0:0:0:
7,69,40836,2,0,P|45:49|101:60,1,85,8|2,0:0|0:0,0:0:0:0:
210,123,41139,2,0,L|219:30,1,85,8|2,0:0|0:0,0:0:0:0:
300,93,41442,2,0,L|291:186,1,85,8|2,0:0|0:0,0:0:0:0:
323,205,41669,1,2,0:0:0:0:
323,205,41745,6,0,P|378:174|449:214,2,127.500004863739,4|0|8,0:0|0:0|0:0,0:0:0:0:
383,251,42502,2,0,P|406:266|468:261,1,63.7500024318696,0|0,0:0|0:0,0:0:0:0:
494,98,42805,6,0,L|366:98,1,127.500004863739,0|8,0:0|0:0,0:0:0:0:
293,74,43260,2,0,L|231:46,1,63.7500024318696,2|2,0:0|0:0,0:0:0:0:
260,144,43563,2,0,L|198:116,1,63.7500024318696,8|2,0:0|0:0,0:0:0:0:
226,214,43866,2,0,L|164:186,1,63.7500024318696,0|2,0:0|0:0,0:0:0:0:
176,311,44169,6,0,B|118:334|81:320|81:320|103:294,2,127.500004863739,2|8|2,0:0|0:0|0:0,0:0:0:0:
251,317,44926,2,0,L|319:348,1,63.7500024318696,2|0,0:0|0:0,0:0:0:0:
363,242,45229,6,0,P|315:281|309:343,1,127.500004863739,8|2,0:0|0:0,0:0:0:0:
440,343,45684,2,0,L|381:318,1,63.7500024318696,8|0,0:0|0:0,0:0:0:0:
426,200,45987,1,0,0:0:0:0:
426,200,46139,2,0,P|438:229|438:261,1,63.7500024318696,2|8,0:0|0:0,0:0:0:0:
241,242,46442,6,0,L|319:107,1,127.500004863739,4|2,0:0|0:0,0:0:0:0:
297,55,46896,2,0,P|265:64|236:98,1,63.7500024318696,0|2,0:0|0:0,0:0:0:0:
172,114,47199,2,0,P|141:104|119:82,1,63.7500024318696,8|0,0:0|0:0,0:0:0:0:
52,119,47502,2,0,P|58:149|50:180,1,63.7500024318696,2|0,0:0|0:0,0:0:0:0:
74,300,47805,6,0,L|143:260,1,63.7500024318696,2|8,0:0|0:0,0:0:0:0:
234,301,48108,2,0,L|165:341,1,63.7500024318696,0|2,0:0|0:0,0:0:0:0:
197,225,48411,2,0,L|252:193,1,63.7500024318696,8|2,0:0|0:0,0:0:0:0:
377,205,48714,1,8,0:0:0:0:
371,230,48790,1,0,0:0:0:0:
361,253,48866,1,10,0:0:0:0:
345,273,48942,1,2,0:0:0:0:
326,290,49017,6,0,P|397:302|461:284,1,127.500004863739,4|2,0:0|0:0,0:0:0:0:
466,194,49472,2,0,P|456:162|430:132,1,63.7500024318696,0|2,0:0|0:0,0:0:0:0:
354,116,49775,1,0,0:0:0:0:
354,116,49926,2,0,L|280:157,1,63.7500024318696,2|0,0:0|0:0,0:0:0:0:
199,76,50229,5,2,0:0:0:0:
284,65,50381,1,0,0:0:0:0:
213,157,50532,2,0,L|126:138,1,63.7500024318696,2|0,0:0|0:0,0:0:0:0:
48,207,50836,2,0,L|40:292,2,63.7500024318696,2|0|2,0:0|0:0|0:0,0:0:0:0:
131,220,51290,1,0,0:0:0:0:
220,323,51442,6,0,L|297:318,1,63.7500024318696,2|0,0:0|0:0,0:0:0:0:
317,199,51745,2,0,L|373:228,1,63.7500024318696,2|0,0:0|0:0,0:0:0:0:
374,384,52048,1,2,0:0:0:0:
220,323,52199,1,2,0:0:0:0:
384,267,52351,1,2,0:0:0:0:
171,254,52502,6,0,P|139:302|151:372,1,127.500004863739,8|0,0:0|0:0,0:0:0:0:
220,323,52957,6,0,P|263:326|311:351,1,85,0|0,0:0|0:0,0:0:0:0:
381,363,53260,1,0,0:0:0:0:
381,363,53411,6,0,B|384:326|384:326|364:290,1,63.75,0|0,0:0|0:0,0:0:0:0:
346,273,53714,6,0,P|416:288|388:205,1,187.000005706787,4|2,0:0|0:0,0:0:0:0:
216,234,54169,2,0,L|111:213,1,93.5000028533936,8|0,0:0|0:0,0:0:0:0:
18,124,54472,1,2,0:0:0:0:
148,86,54623,2,0,L|256:109,1,93.5000028533936,2|8,0:0|0:0,0:0:0:0:
396,206,54926,6,0,P|353:144|419:41,1,187.000005706787,10|2,0:0|0:0,0:0:0:0:
485,244,55381,2,0,P|452:284|395:303,1,93.5000028533936,8|0,0:0|0:0,0:0:0:0:
288,221,55684,1,2,0:0:0:0:
150,291,55836,2,0,L|222:356,1,93.5000028533936,2|8,0:0|0:0,0:0:0:0:
349,156,56139,6,0,P|277:132|199:202,1,187.000005706787,10|2,0:0|0:0,0:0:0:0:
314,310,56593,2,0,L|287:220,1,93.5000028533936,8|0,0:0|0:0,0:0:0:0:
129,141,56896,1,2,0:0:0:0:
56,284,57048,2,0,L|150:290,1,93.5000028533936,2|8,0:0|0:0,0:0:0:0:
260,130,57351,6,0,P|334:141|381:236,1,187.000005706787,10|2,0:0|0:0,0:0:0:0:
294,348,57805,2,0,L|383:320,1,93.5000028533936,8|0,0:0|0:0,0:0:0:0:
464,195,58108,1,2,0:0:0:0:
288,220,58260,2,0,L|380:234,1,93.5000028533936,2|8,0:0|0:0,0:0:0:0:
240,66,58563,6,0,P|164:79|234:135,1,187.000005706787,14|2,0:0|0:0,0:0:0:0:
348,143,59017,2,0,L|407:71,1,93.5000028533936,8|0,0:0|0:0,0:0:0:0:
380,234,59320,2,0,L|288:220,1,93.5000028533936,2|0,0:0|0:0,0:0:0:0:
441,164,59623,2,0,L|474:250,1,93.5000028533936,8|0,0:0|0:0,0:0:0:0:
323,303,59926,6,0,P|272:309|222:280,1,93.5000028533936,10|2,0:0|0:0,0:0:0:0:
298,131,60229,2,0,P|304:182|275:232,1,93.5000028533936,8|0,0:0|0:0,0:0:0:0:
130,155,60532,2,0,P|181:149|231:178,1,93.5000028533936,10|2,0:0|0:0,0:0:0:0:
154,324,60836,2,0,P|148:273|177:223,1,93.5000028533936,8|2,0:0|0:0,0:0:0:0:
323,303,61139,6,0,L|415:293,1,93.5000028533936,8|2,0:0|0:0,0:0:0:0:
468,208,61442,1,2,0:0:0:0:
377,26,61593,2,0,P|368:76|349:151,1,93.5000028533936,12|2,0:0|0:0,0:0:0:0:
494,9,61896,2,0,P|503:58|522:134,1,93.5000028533936,8|2,0:0|0:0,0:0:0:0:
415,293,62199,6,0,P|465:231|497:305,1,187.000005706787,10|2,0:0|0:0,0:0:0:0:
350,359,62654,2,0,P|327:320|328:264,1,93.5000028533936,8|2,0:0|0:0,0:0:0:0:
247,199,62957,2,0,L|209:256,1,46.7500014266968,8|8,0:0|0:0,0:0:0:0:
116,318,63108,1,8,0:0:0:0:
97,318,63184,1,8,0:0:0:0:
78,317,63260,1,8,0:0:0:0:
59,316,63336,1,8,0:0:0:0:
40,314,63411,6,0,P|62:246|-6:162,1,187.000005706787,4|2,0:0|0:0,0:0:0:0:
136,196,63866,2,0,P|199:190|246:169,1,93.5000028533936,8|0,0:0|0:0,0:0:0:0:
317,48,64169,1,2,0:0:0:0:
473,171,64320,2,0,L|379:163,1,93.5000028533936,2|8,0:0|0:0,0:0:0:0:
233,288,64623,6,0,P|334:275|333:367,1,187.000005706787,8|2,0:0|0:0,0:0:0:0:
203,379,65078,2,0,L|208:286,1,93.5000028533936,8|0,0:0|0:0,0:0:0:0:
338,188,65381,1,2,0:0:0:0:
424,349,65532,2,0,P|424:293|399:231,1,93.5000028533936,2|8,0:0|0:0,0:0:0:0:
257,107,65836,6,0,P|354:150|410:71,1,187.000005706787,10|2,0:0|0:0,0:0:0:0:
248,72,66290,2,0,L|156:91,1,93.5000028533936,8|0,0:0|0:0,0:0:0:0:
59,204,66593,1,2,0:0:0:0:
256,206,66745,2,0,L|154:188,1,93.5000028533936,2|8,0:0|0:0,0:0:0:0:
21,352,67048,6,0,P|114:328|195:277,1,187.000005706787,10|2,0:0|0:0,0:0:0:0:
349,152,67502,2,0,P|338:200|359:245,1,93.5000028533936,8|2,0:0|0:0,0:0:0:0:
509,286,67805,2,0,P|519:237|499:193,1,93.5000028533936,8|2,0:0|0:0,0:0:0:0:
352,119,68108,1,8,0:0:0:0:
252,336,68260,6,0,P|164:360|106:278,1,187.000005706787,14|2,0:0|0:0,0:0:0:0:
117,118,68714,2,0,L|108:235,1,93.5000028533936,8|0,0:0|0:0,0:0:0:0:
42,62,69017,1,2,0:0:0:0:
193,171,69169,1,2,0:0:0:0:
25,243,69320,2,0,L|33:149,1,93.5000028533936,8|0,0:0|0:0,0:0:0:0:
202,79,69623,6,0,P|246:98|281:152,1,93.5000028533936,2|0,0:0|0:0,0:0:0:0:
182,260,69926,2,0,P|176:212|205:155,1,93.5000028533936,8|0,0:0|0:0,0:0:0:0:
352,188,70229,2,0,P|313:216|249:219,1,93.5000028533936,2|2,0:0|0:0,0:0:0:0:
359,103,70532,1,8,0:0:0:0:
448,321,70684,6,0,P|361:320|261:312,1,187.000005706787,10|2,0:0|0:0,0:0:0:0:
434,156,71139,2,0,P|439:208|408:257,1,93.5000028533936,8|0,0:0|0:0,0:0:0:0:
274,132,71442,1,2,0:0:0:0:
444,76,71593,1,2,0:0:0:0:
287,47,71745,2,0,P|232:53|194:89,1,93.5000028533936,8|0,0:0|0:0,0:0:0:0:
182,265,72048,6,0,P|177:180|70:142,1,187.000005706787,2|8,0:0|0:0,0:0:0:0:
98,229,72502,1,2,0:0:0:0:
173,351,72654,2,0,L|232:343,1,46.7500014266968,8|8,0:0|0:0,0:0:0:0:
302,309,72805,2,0,L|252:246,1,46.7500014266968,8|8,0:0|0:0,0:0:0:0:
199,221,72957,2,0,L|181:264,1,46.7500014266968,8|8,0:0|0:0,0:0:0:0:
50,336,73108,6,0,P|133:349|218:344,1,170,4|2,0:0|0:0,0:0:0:0:
392,322,73563,2,0,L|431:233,1,85,8|0,0:0|0:0,0:0:0:0:
339,116,73866,2,0,L|348:200,1,85,2|2,0:0|0:0,0:0:0:0:
420,74,74169,1,8,0:0:0:0:
253,44,74320,6,0,P|166:53|133:142,1,170,0|2,0:0|0:0,0:0:0:0:
182,248,74775,2,0,L|278:246,1,85,8|0,0:0|0:0,0:0:0:0:
216,119,75078,2,0,L|202:177,1,42.5,2|0,0:0|0:0,0:0:0:0:
168,280,75229,1,2,0:0:0:0:
290,159,75381,1,8,0:0:0:0:
318,319,75532,6,0,B|138:320,1,170,2|2,0:0|0:0,0:0:0:0:
50,210,75987,2,0,P|73:177|130:151,1,85,8|0,0:0|0:0,0:0:0:0:
241,49,76290,2,0,P|218:82|161:108,1,85,2|2,0:0|0:0,0:0:0:0:
26,114,76593,1,8,0:0:0:0:
155,17,76745,6,0,P|253:56|263:143,1,170,2|2,0:0|0:0,0:0:0:0:
204,250,77199,1,8,0:0:0:0:
179,104,77351,1,0,0:0:0:0:
287,204,77502,2,0,L|304:252,1,42.5,2|0,0:0|0:0,0:0:0:0:
134,184,77654,1,2,0:0:0:0:
269,110,77805,1,8,0:0:0:0:
409,264,77957,6,0,P|465:204|476:111,1,170,4|2,0:0|0:0,0:0:0:0:
306,28,78411,2,0,L|361:101,1,85,8|0,0:0|0:0,0:0:0:0:
443,16,78714,2,0,L|400:20,1,42.5,2|0,0:0|0:0,0:0:0:0:
269,110,78866,1,2,0:0:0:0:
407,163,79017,1,8,0:0:0:0:
234,187,79169,6,0,P|187:133|225:38,1,170,2|2,0:0|0:0,0:0:0:0:
323,177,79623,2,0,P|320:220|288:264,1,85,8|0,0:0|0:0,0:0:0:0:
142,309,79926,1,2,0:0:0:0:
234,187,80078,1,2,0:0:0:0:
72,139,80229,1,8,0:0:0:0:
268,109,80381,6,0,P|199:111|151:197,1,170,2|2,0:0|0:0,0:0:0:0:
252,332,80836,2,0,P|297:338|338:337,1,85,8|0,0:0|0:0,0:0:0:0:
459,204,81139,2,0,P|417:221|382:242,1,85,2|2,0:0|0:0,0:0:0:0:
252,198,81442,1,8,0:0:0:0:
424,110,81593,6,0,L|509:117,1,85.0000016212464,2|0,0:0|0:0,0:0:0:0:
393,10,81896,1,2,0:0:0:0:
263,103,82048,2,0,L|156:135,1,85,8|0,0:0|0:0,0:0:0:0:
147,273,82351,1,8,0:0:0:0:
236,218,82502,1,2,0:0:0:0:
244,208,82578,1,2,0:0:0:0:
252,198,82654,1,8,0:0:0:0:
92,182,82805,1,2,0:0:0:0:
77,198,82881,1,2,0:0:0:0:
64,211,82957,5,4,0:0:0:0:
66,210,84775,6,0,L|145:224,1,63.7500024318696,0|0,0:0|0:0,0:0:0:0:
179,278,85078,2,0,L|254:250,1,63.7500024318696,0|0,0:0|0:0,0:0:0:0:
357,203,85381,1,4,0:0:0:0:
446,210,87199,6,0,L|367:224,1,63.7500024318696,0|0,0:0|0:0,0:0:0:0:
333,278,87502,2,0,L|257:250,1,63.7500024318696,2|2,0:0|0:0,0:0:0:0:
237,242,87729,1,0,0:0:0:0:
237,242,87805,6,0,L|92:267,1,127.500004863739,4|0,0:0|0:0,0:0:0:0:
95,188,88260,2,0,L|174:174,1,63.7500024318696,0|0,0:0|0:0,0:0:0:0:
206,117,88563,2,0,L|290:102,1,63.7500024318696,0|0,0:0|0:0,0:0:0:0:
324,52,88866,6,0,P|296:108|340:180,1,127.500004863739,0|0,0:0|0:0,0:0:0:0:
372,111,89320,2,0,L|460:97,1,63.7500024318696,0|0,0:0|0:0,0:0:0:0:
474,205,89623,2,0,L|414:181,1,63.7500024318696,0|0,0:0|0:0,0:0:0:0:
354,276,89926,2,0,L|436:264,1,63.7500024318696,0|0,0:0|0:0,0:0:0:0:
463,358,90229,6,0,L|320:380,1,127.500004863739,2|0,0:0|0:0,0:0:0:0:
256,309,90684,2,0,P|253:280|261:240,1,63.7500024318696,0|0,0:0|0:0,0:0:0:0:
355,124,90987,1,8,0:0:0:0:
354,276,91139,1,0,0:0:0:0:
254,142,91290,6,0,L|145:226,1,127.500004863739,4|2,0:0|0:0,0:0:0:0:
51,281,91745,2,0,P|37:251|38:208,1,63.7500024318696,8|0,0:0|0:0,0:0:0:0:
114,123,92048,2,0,L|165:84,1,63.7500024318696,2|2,0:0|0:0,0:0:0:0:
326,91,92351,1,8,0:0:0:0:
333,114,92426,1,8,0:0:0:0:
340,138,92502,1,8,0:0:0:0:
347,162,92578,1,8,0:0:0:0:
356,186,92654,6,0,P|320:226|272:145,1,170,4|8,0:0|0:0,0:0:0:0:
410,71,93108,2,0,L|436:162,1,85,2|0,0:0|0:0,0:0:0:0:
442,289,93411,1,2,0:0:0:0:
356,186,93563,1,8,0:0:0:0:
511,229,93714,6,0,L|354:303,1,170,2|2,0:0|0:0,0:0:0:0:
187,291,94169,2,0,P|237:287|294:314,1,85,8|0,0:0|0:0,0:0:0:0:
120,350,94472,2,0,L|104:265,1,85,2|2,0:0|0:0,0:0:0:0:
152,127,94775,2,0,L|168:212,1,85,8|0,0:0|0:0,0:0:0:0:
321,102,95078,6,0,P|276:88|285:184,1,170,2|8,0:0|0:0,0:0:0:0:
392,148,95532,2,0,P|406:111|393:56,1,85,0|2,0:0|0:0,0:0:0:0:
249,20,95835,1,2,0:0:0:0:
386,48,95987,1,8,0:0:0:0:
228,100,96138,6,0,P|154:82|67:36,1,170,2|2,0:0|0:0,0:0:0:0:
37,173,96593,2,0,L|123:164,1,85,8|0,0:0|0:0,0:0:0:0:
76,343,96896,1,2,0:0:0:0:
76,343,96972,1,0,0:0:0:0:
76,343,97048,1,2,0:0:0:0:
24,271,97199,2,0,L|130:260,1,85,8|0,0:0|0:0,0:0:0:0:
237,163,97502,6,0,P|157:198|99:295,1,170,2|8,0:0|0:0,0:0:0:0:
8,167,97957,2,0,P|22:109|45:82,1,85,0|0,0:0|0:0,0:0:0:0:
168,19,98260,2,0,P|153:76|131:104,1,85,2|8,0:0|0:0,0:0:0:0:
265,11,98563,6,0,B|310:36|316:88|316:88|321:136|379:164,1,170,0|2,0:0|0:0,0:0:0:0:
398,77,99017,1,8,0:0:0:0:
481,92,99169,1,0,0:0:0:0:
491,176,99320,1,2,0:0:0:0:
413,211,99472,1,2,0:0:0:0:
353,148,99623,1,8,0:0:0:0:
275,183,99775,1,0,0:0:0:0:
367,282,99926,6,0,P|325:216|285:277,1,170,2|8,0:0|0:0,0:0:0:0:
361,357,100381,2,0,P|397:352|434:315,1,85,0|2,0:0|0:0,0:0:0:0:
509,210,100684,2,0,P|473:215|436:252,1,85,2|8,0:0|0:0,0:0:0:0:
274,346,100987,6,0,P|215:310|221:215,1,170,2|2,0:0|0:0,0:0:0:0:
354,118,101442,2,0,L|271:146,1,85,8|2,0:0|0:0,0:0:0:0:
102,123,101745,2,0,P|144:117|182:133,1,85,0|2,0:0|0:0,0:0:0:0:
134,202,102048,2,0,P|92:208|53:192,1,85,8|8,0:0|0:0,0:0:0:0:
25,160,102275,1,8,0:0:0:0:
25,160,102351,6,0,L|40:317,2,127.500004863739,4|0|8,0:0|0:0|0:0,0:0:0:0:
26,83,103108,2,0,L|95:31,1,63.7500024318696,0|2,0:0|0:0,0:0:0:0:
236,67,103411,6,0,P|312:72|366:20,1,127.500004863739,0|8,0:0|0:0,0:0:0:0:
424,69,103866,2,0,L|458:143,1,63.7500024318696,2|2,0:0|0:0,0:0:0:0:
434,206,104169,2,0,L|376:164,1,63.7500024318696,8|2,0:0|0:0,0:0:0:0:
303,169,104472,2,0,L|334:237,1,63.7500024318696,0|0,0:0|0:0,0:0:0:0:
225,325,104775,6,0,B|207:271|228:233|228:233|244:266,2,127.500004863739,0|8|2,0:0|0:0|0:0,0:0:0:0:
296,352,105532,2,0,L|369:352,1,63.7500024318696,2|0,0:0|0:0,0:0:0:0:
329,227,105835,6,0,B|265:88,1,127.500004863739,8|2,0:0|0:0,0:0:0:0:
192,206,106290,2,0,P|230:200|261:177,1,63.7500024318696,8|0,0:0|0:0,0:0:0:0:
212,65,106593,1,2,0:0:0:0:
212,65,106745,2,0,P|197:101|202:139,1,63.7500024318696,2|8,0:0|0:0,0:0:0:0:
283,28,107048,6,0,L|430:74,1,127.500004863739,4|2,0:0|0:0,0:0:0:0:
465,112,107502,2,0,L|494:190,1,63.7500024318696,0|2,0:0|0:0,0:0:0:0:
409,170,107805,2,0,L|431:229,1,63.7500024318696,8|0,0:0|0:0,0:0:0:0:
354,231,108108,2,0,L|382:307,1,63.7500024318696,2|0,0:0|0:0,0:0:0:0:
243,295,108411,6,0,P|214:293|161:309,1,63.7500024318696,2|0,0:0|0:0,0:0:0:0:
50,257,108714,2,0,P|79:259|132:243,1,63.7500024318696,2|0,0:0|0:0,0:0:0:0:
232,177,109017,2,0,P|203:175|150:191,1,63.7500024318696,8|2,0:0|0:0,0:0:0:0:
35,128,109320,1,8,0:0:0:0:
60,128,109396,1,0,0:0:0:0:
85,125,109472,1,8,0:0:0:0:
109,118,109548,1,8,0:0:0:0:
132,109,109623,6,0,P|207:92|280:106,1,127.500004863739,4|0,0:0|0:0,0:0:0:0:
333,103,110078,2,0,L|414:75,1,63.7500024318696,0|0,0:0|0:0,0:0:0:0:
465,55,110381,1,0,0:0:0:0:
465,55,110532,2,0,P|469:98|450:133,1,63.7500024318696,0|0,0:0|0:0,0:0:0:0:
418,238,110835,5,2,0:0:0:0:
398,158,110987,1,0,0:0:0:0:
497,243,111138,2,0,P|481:284|453:308,1,63.7500024318696,2|0,0:0|0:0,0:0:0:0:
342,337,111442,2,0,L|278:337,2,63.7500024318696,2|0|2,0:0|0:0|0:0,0:0:0:0:
310,264,111896,1,0,0:0:0:0:
173,259,112048,6,0,L|137:323,1,63.7500024318696,2|0,0:0|0:0,0:0:0:0:
43,211,112351,2,0,L|79:149,1,63.7500024318696,0|0,0:0|0:0,0:0:0:0:
88,146,112578,1,0,0:0:0:0:
100,135,112654,1,0,0:0:0:0:
242,205,112805,1,0,0:0:0:0:
166,72,112957,1,0,0:0:0:0:
173,259,113108,6,0,P|219:291|308:262,1,127.500004863739,0|0,0:0|0:0,0:0:0:0:
394,173,113563,1,8,0:0:0:0:
254,104,113714,1,8,0:0:0:0:
238,104,113790,1,8,0:0:0:0:
222,105,113866,1,2,0:0:0:0:
395,70,114017,2,0,L|436:77,1,31.8750012159348,8|8,0:3|0:3,0:0:0:0:
488,150,114169,2,0,L|530:186,1,31.8750012159348,8|8,0:3|0:3,0:0:0:0:
462,254,114320,6,0,P|394:211|293:271,1,187.000005706787,4|2,0:0|0:0,0:0:0:0:
164,313,114775,2,0,L|163:195,1,93.5000028533936,8|0,0:0|0:0,0:0:0:0:
204,104,115078,1,2,0:0:0:0:
53,170,115229,2,0,L|54:274,1,93.5000028533936,2|8,0:0|0:0,0:0:0:0:
117,99,115532,6,0,P|174:25|279:68,1,187.000005706787,10|2,0:0|0:0,0:0:0:0:
334,153,115987,2,0,L|275:231,1,93.5000028533936,8|0,0:0|0:0,0:0:0:0:
204,104,116290,1,2,0:0:0:0:
342,70,116442,2,0,P|396:95|419:155,1,93.5000028533936,2|8,0:0|0:0,0:0:0:0:
320,307,116745,6,0,P|393:342|385:251,1,187.000005706787,10|2,0:0|0:0,0:0:0:0:
276,227,117199,2,0,P|239:264|230:320,1,93.5000028533936,8|0,0:0|0:0,0:0:0:0:
360,184,117502,1,2,0:0:0:0:
213,151,117654,2,0,L|120:181,1,93.5000028533936,2|8,0:0|0:0,0:0:0:0:
10,303,117957,6,0,B|44:270|30:217|30:217|14:163|54:108,1,187.000005706787,10|2,0:0|0:0,0:0:0:0:
198,56,118411,2,0,L|104:53,1,93.5000028533936,8|0,0:0|0:0,0:0:0:0:
292,39,118714,1,2,0:0:0:0:
213,151,118866,2,0,P|202:202|220:255,1,93.5000028533936,2|8,0:0|0:0,0:0:0:0:
512,221,119169,6,0,P|426:206|324:197,1,187.000005706787,14|2,0:0|0:0,0:0:0:0:
216,335,119623,2,0,P|260:321|293:288,1,93.5000028533936,8|0,0:0|0:0,0:0:0:0:
134,293,119926,2,0,P|124:338|136:382,1,93.5000028533936,2|0,0:0|0:0,0:0:0:0:
211,241,120229,2,0,P|176:209|131:198,1,93.5000028533936,8|0,0:0|0:0,0:0:0:0:
292,288,120532,6,0,L|404:275,1,93.5000028533936,10|2,0:0|0:0,0:0:0:0:
488,149,120836,2,0,L|402:111,1,93.5000028533936,8|0,0:0|0:0,0:0:0:0:
303,257,121139,2,0,L|415:244,1,93.5000028533936,10|2,0:0|0:0,0:0:0:0:
499,118,121443,2,0,L|413:80,1,93.5000028533936,8|2,0:0|0:0,0:0:0:0:
261,152,121745,6,0,P|265:104|252:58,1,93.5000028533936,8|2,0:0|0:0,0:0:0:0:
153,28,122048,1,2,0:0:0:0:
83,245,122199,2,0,P|79:180|70:130,1,93.5000028533936,12|2,0:0|0:0,0:0:0:0:
184,303,122502,2,0,P|188:238|197:188,1,93.5000028533936,8|2,0:0|0:0,0:0:0:0:
380,290,122805,6,0,B|462:298|504:273|504:273|483:241|425:270,1,187.000005706787,10|2,0:0|0:0,0:0:0:0:
329,360,123260,2,0,P|300:321|304:253,1,93.5000028533936,8|2,0:0|0:0,0:0:0:0:
365,171,123563,2,0,L|417:140,1,46.7500014266968,8|8,0:0|0:0,0:0:0:0:
312,59,123714,1,8,0:0:0:0:
293,57,123790,1,8,0:0:0:0:
274,54,123866,1,8,0:0:0:0:
255,50,123942,1,8,0:0:0:0:
236,47,124017,6,0,P|175:94|85:26,1,187.000005706787,4|2,0:0|0:0,0:0:0:0:
164,172,124472,2,0,P|138:217|91:251,1,93.5000028533936,8|0,0:0|0:0,0:0:0:0:
0,289,124775,1,2,0:0:0:0:
165,342,124926,2,0,L|276:332,1,93.5000028533936,2|8,0:0|0:0,0:0:0:0:
387,153,125229,6,0,P|308:265|332:289,1,187.000005706787,8|2,0:0|0:0,0:0:0:0:
448,202,125684,2,0,P|464:165|454:110,1,93.5000028533936,8|0,0:0|0:0,0:0:0:0:
375,227,125987,1,2,0:0:0:0:
232,143,126139,2,0,L|141:166,1,93.5000028533936,2|8,0:0|0:0,0:0:0:0:
219,371,126442,6,0,P|212:282|133:240,1,187.000005706787,10|2,0:0|0:0,0:0:0:0:
41,353,126896,2,0,L|133:336,1,93.5000028533936,8|0,0:0|0:0,0:0:0:0:
230,171,127199,1,2,0:0:0:0:
42,215,127351,2,0,L|133:239,1,93.5000028533936,2|8,0:0|0:0,0:0:0:0:
299,81,127654,6,0,P|211:58|131:103,1,187.000005706787,10|2,0:0|0:0,0:0:0:0:
319,211,128108,2,0,L|312:117,1,93.5000028533936,8|2,0:0|0:0,0:0:0:0:
466,71,128411,2,0,L|472:164,1,93.5000028533936,8|2,0:0|0:0,0:0:0:0:
321,250,128714,1,8,0:0:0:0:
131,102,128866,6,0,P|80:163|127:270,1,187.000005706787,14|2,0:0|0:0,0:0:0:0:
245,303,129320,2,0,P|232:250|254:188,1,93.5000028533936,8|0,0:0|0:0,0:0:0:0:
386,148,129623,1,2,0:0:0:0:
321,250,129775,1,2,0:0:0:0:
313,93,129926,2,0,P|354:62|419:62,1,93.5000028533936,8|0,0:0|0:0,0:0:0:0:
229,126,130229,6,0,L|114:135,1,93.5000028533936,2|0,0:0|0:0,0:0:0:0:
146,297,130532,2,0,L|195:192,1,93.5000028533936,8|0,0:0|0:0,0:0:0:0:
36,138,130836,2,0,L|101:233,1,93.5000028533936,2|2,0:0|0:0,0:0:0:0:
229,126,131138,1,8,0:0:0:0:
0,114,131290,6,0,L|56:320,1,187.000005706787,10|2,0:0|0:0,0:0:0:0:
239,290,131745,2,0,P|287:272|359:300,1,93.5000028533936,8|0,0:0|0:0,0:0:0:0:
204,375,132048,1,2,0:0:0:0:
271,195,132199,1,2,0:0:0:0:
293,366,132351,2,0,P|338:372|381:354,1,93.5000028533936,8|0,0:0|0:0,0:0:0:0:
426,178,132654,6,0,P|412:248|490:213,1,187.000005706787,2|8,0:0|0:0,0:0:0:0:
501,132,133108,1,2,0:0:0:0:
370,95,133260,2,0,L|319:140,1,46.7500014266968,8|8,0:0|0:0,0:0:0:0:
256,97,133411,2,0,L|251:164,1,46.7500014266968,8|8,0:0|0:0,0:0:0:0:
174,176,133563,2,0,L|219:227,1,46.7500014266968,8|8,0:0|0:0,0:0:0:0:
159,284,133714,1,4,0:0:0:0:
256,192,133790,12,2,136290,0:0:0:0:
168,62,140987,5,8,0:0:0:0:
168,62,141063,1,8,0:0:0:0:
168,62,141139,2,0,B|200:94|200:94|200:190,1,127.500004863739,4|8,0:0|0:0,0:0:0:0:
61,209,141593,2,0,B|29:177|29:177|29:94,1,127.500004863739,0|2,0:0|0:0,0:0:0:0:
114,139,142048,1,8,0:0:0:0:
54,290,142199,6,0,B|36:260|36:260|154:260,1,127.500004863739,2|2,0:0|0:0,0:0:0:0:
256,314,142654,2,0,L|301:346,1,31.8750012159348,8|0,0:0|0:0,0:0:0:0:
185,192,142805,2,0,L|167:138,1,31.8750012159348,2|2,0:0|0:0,0:0:0:0:
175,328,142957,2,0,L|157:381,1,31.8750012159348,8|0,0:0|0:0,0:0:0:0:
262,221,143108,2,0,L|307:187,1,31.8750012159348,8|8,0:0|0:0,0:0:0:0:
128,260,143260,2,0,L|71:260,1,31.8750012159348,2|0,0:0|0:0,0:0:0:0:
256,314,143411,6,0,P|326:345|413:314,1,170,4|2,0:0|0:0,0:0:0:0:
494,306,143866,1,8,0:0:0:0:
508,223,144017,1,0,0:0:0:0:
434,182,144169,1,2,0:0:0:0:
372,239,144320,1,2,0:0:0:0:
294,202,144472,1,8,0:0:0:0:
312,119,144623,1,2,0:0:0:0:
445,34,144775,6,0,P|474:71|480:115,1,85,0|2,0:0|0:0,0:0:0:0:
397,104,145078,1,8,0:0:0:0:
397,104,145154,1,0,0:0:0:0:
397,104,145229,1,0,0:0:0:0:
254,57,145381,2,0,L|158:73,1,85,2|2,0:0|0:0,0:0:0:0:
60,163,145684,2,0,L|143:149,1,85,8|2,0:0|0:0,0:0:0:0:
256,279,145987,5,2,0:2:0:0:
116,231,146139,1,2,0:0:0:0:
285,201,146290,1,8,0:0:0:0:
200,216,146442,1,0,0:0:0:0:
341,264,146593,1,2,0:0:0:0:
256,279,146745,1,2,0:0:0:0:
370,183,146896,1,8,0:0:0:0:
285,201,147048,6,0,L|208:116,2,85,2|0|2,0:0|0:0|0:0,0:0:0:0:
401,102,147502,1,8,0:0:0:0:
255,59,147654,1,0,0:0:0:0:
370,183,147805,1,2,0:0:0:0:
314,121,147957,1,2,0:0:0:0:
243,261,148108,1,8,0:0:0:0:
250,270,148184,1,0,0:0:0:0:
256,279,148260,6,0,L|326:364,2,85,4|0|2,0:0|0:0|0:0,0:0:0:0:
116,231,148714,1,8,0:0:0:0:
223,356,148866,1,0,0:0:0:0:
285,201,149017,1,2,0:0:0:0:
171,295,149169,1,2,0:0:0:0:
256,279,149320,1,8,0:0:0:0:
227,138,149472,6,0,P|297:112|371:179,1,170,2|2,0:0|0:0,0:0:0:0:
200,216,149926,2,0,P|162:189|143:140,1,85,8|0,0:0|0:0,0:0:0:0:
285,201,150229,1,2,0:0:0:0:
171,295,150381,1,2,0:0:0:0:
341,265,150532,1,8,0:0:0:0:
223,356,150684,6,0,P|184:297|269:298,1,170,2|2,0:0|0:0,0:0:0:0:
400,328,151139,2,0,P|424:293|421:235,1,85,8|0,0:0|0:0,0:0:0:0:
361,122,151442,1,2,0:0:0:0:
341,265,151593,1,2,0:0:0:0:
439,160,151745,1,8,0:0:0:0:
298,185,151896,6,0,P|221:182|107:153,1,170,2|2,0:0|0:0,0:0:0:0:
65,26,152351,1,8,0:0:0:0:
227,75,152502,1,0,0:0:0:0:
77,105,152654,2,0,P|54:148|63:202,1,85,8|8,0:0|0:3,0:0:0:0:
68,214,152881,1,0,0:0:0:0:
95,234,152957,1,8,0:0:0:0:
127,242,153032,1,0,0:0:0:0:
161,239,153108,6,0,P|245:254|264:340,1,170,4|2,0:0|0:0,0:0:0:0:
233,324,153487,1,0,0:0:0:0:
233,324,153563,2,0,L|174:311,1,42.5,8|0,0:0|0:0,0:0:0:0:
130,161,153714,1,0,0:0:0:0:
310,213,153866,6,0,L|359:273,1,42.5,2|0,0:0|0:0,0:0:0:0:
455,250,154017,1,2,0:0:0:0:
465,226,154093,1,0,0:0:0:0:
474,204,154169,1,8,0:0:0:0:
407,65,154320,6,0,L|353:65,1,42.5,2|0,0:0|0:0,0:0:0:0:
269,133,154471,1,0,0:0:0:0:
244,133,154547,1,0,0:0:0:0:
219,133,154623,1,2,0:0:0:0:
155,73,154775,5,8,0:0:0:0:
322,66,154927,1,2,0:2:0:0:
291,222,155078,2,0,L|193:223,1,85,2|2,0:0|0:0,0:0:0:0:
132,265,155381,1,8,0:0:0:0:
134,182,155532,1,2,0:0:0:0:
206,305,155684,5,0,0:0:0:0:
205,142,155836,1,2,0:0:0:0:
60,220,155987,2,0,P|51:179|66:133,1,85,8|0,0:0|0:0,0:0:0:0:
206,222,156290,1,2,0:0:0:0:
54,302,156442,1,2,0:0:0:0:
206,305,156593,2,0,P|252:293|282:252,1,85,8|2,0:0|0:0,0:0:0:0:
277,95,156896,5,0,0:0:0:0:
134,182,157048,1,2,0:0:0:0:
279,179,157199,2,0,P|328:194|354:220,1,85,8|0,0:0|0:0,0:0:0:0:
391,358,157502,1,2,0:0:0:0:
276,266,157654,1,2,0:0:0:0:
424,277,157805,1,8,0:0:0:0:
299,347,157957,6,0,P|226:336|197:240,1,170,4|2,0:0|0:0,0:0:0:0:
169,110,158411,2,0,P|167:155|126:203,1,85,8|0,0:0|0:0,0:0:0:0:
0,142,158714,1,2,0:0:0:0:
86,127,158866,1,2,0:0:0:0:
59,207,159017,1,8,0:0:0:0:
110,46,159169,6,0,P|172:23|251:80,1,170,2|2,0:0|0:0,0:0:0:0:
392,136,159623,2,0,L|424:28,1,85,8|0,0:0|0:0,0:0:0:0:
305,144,159926,1,2,0:0:0:0:
447,199,160078,1,2,0:0:0:0:
336,69,160229,1,8,0:0:0:0:
269,221,160381,6,0,P|222:154|250:78,1,170,4|2,0:0|0:0,0:0:0:0:
305,144,160836,1,10,0:0:0:0:
345,260,160987,1,8,0:3:0:0:
340,271,161063,1,8,0:3:0:0:
332,281,161139,2,0,L|282:309,1,42.5,2|8,0:0|0:3,0:0:0:0:
230,351,161290,2,0,L|193:329,1,42.5,8|8,0:3|0:3,0:0:0:0:
120,293,161442,2,0,L|120:235,1,42.5,8|0,0:0|0:0,0:0:0:0:
124,169,161593,5,4,0:0:0:0:
250,77,161745,2,0,L|310:149,1,85,8|2,0:0|0:0,0:0:0:0:
472,169,162048,1,8,0:0:0:0:
399,115,162199,1,2,0:0:0:0:
399,115,162275,1,2,0:0:0:0:
399,115,162351,2,0,P|382:163|393:214,1,85,8|2,0:3|0:0,0:0:0:0:
450,256,162654,2,0,P|452:298|436:337,1,85,2|0,0:0|0:0,0:0:0:0:
301,269,162957,6,0,L|163:249,2,127.500004863739,4|0|8,0:0|0:0|0:0,0:0:0:0:
258,340,163714,2,0,L|187:330,1,63.7500024318696,0|2,0:0|0:0,0:0:0:0:
84,266,164017,6,0,P|103:193|172:158,1,127.500004863739,0|8,0:0|0:0,0:0:0:0:
218,150,164472,2,0,P|206:118|180:97,1,63.7500024318696,2|2,0:0|0:0,0:0:0:0:
233,40,164775,2,0,P|266:45|297:33,1,63.7500024318696,8|2,0:0|0:0,0:0:0:0:
322,107,165078,2,0,P|300:133|295:166,1,63.7500024318696,0|8,0:0|0:0,0:0:0:0:
392,223,165381,6,0,B|392:135|392:135|383:157|370:166,2,127.500004863739,2|8|2,0:0|0:0|0:0,0:0:0:0:
348,286,166138,2,0,L|319:364,1,63.7500024318696,2|0,0:0|0:0,0:0:0:0:
197,302,166441,6,0,L|246:180,1,127.500004863739,8|2,0:0|0:0,0:0:0:0:
152,110,166896,2,0,L|128:171,1,63.7500024318696,8|0,0:0|0:0,0:0:0:0:
5,176,167199,1,2,0:0:0:0:
5,176,167351,2,0,L|33:105,1,63.7500024318696,2|8,0:0|0:0,0:0:0:0:
172,33,167654,6,0,P|224:68|289:71,1,127.500004863739,4|2,0:0|0:0,0:0:0:0:
357,42,168108,2,0,P|363:77|345:120,1,63.7500024318696,0|2,0:0|0:0,0:0:0:0:
292,147,168411,2,0,P|284:177|290:208,1,63.7500024318696,8|0,0:0|0:0,0:0:0:0:
354,251,168714,2,0,P|360:282|352:312,1,63.7500024318696,2|0,0:0|0:0,0:0:0:0:
222,249,169017,6,0,L|145:234,1,63.7500024318696,2|0,0:0|0:0,0:0:0:0:
65,346,169320,2,0,L|116:286,1,63.7500024318696,2|0,0:0|0:0,0:0:0:0:
56,159,169623,2,0,L|81:233,1,63.7500024318696,8|2,0:0|0:0,0:0:0:0:
204,166,169926,1,8,0:0:0:0:
229,164,170002,1,0,0:0:0:0:
253,169,170078,1,10,0:0:0:0:
275,180,170154,1,0,0:0:0:0:
291,199,170229,6,0,L|337:329,2,127.500004863739,4|2|2,0:0|0:0|0:0,0:0:0:0:
364,175,170987,2,0,L|392:254,1,63.7500024318696,0|2,0:0|0:0,0:0:0:0:
499,220,171290,6,0,P|439:204|384:234,1,127.500004863739,6|2,0:0|0:0,0:0:0:0:
237,285,171745,2,0,L|169:264,1,63.7500024318696,8|2,0:0|0:0,0:0:0:0:
40,195,172048,1,8,0:3:0:0:
31,284,172199,2,0,L|99:263,1,63.7500024318696,8|8,0:3|0:3,0:0:0:0:
232,201,172502,1,4,0:0:0:0:
198,44,182199,6,0,P|214:108|214:188,1,127.500004863739,2|0,0:0|0:0,0:0:0:0:
310,44,182654,2,0,P|294:108|294:188,1,127.500004863739,0|0,0:0|0:0,0:0:0:0:
337,236,183108,2,0,L|424:212,1,63.7500024318696,0|0,0:0|0:0,0:0:0:0:
257,241,183411,6,0,L|127:195,1,127.500004863739,2|0,0:0|0:0,0:0:0:0:
98,310,183866,2,0,L|218:352,1,127.500004863739,0|0,0:0|0:0,0:0:0:0:
294,352,184320,2,0,L|357:334,1,63.7500024318696,0|0,0:0|0:0,0:0:0:0:
377,170,184623,6,0,P|375:237|426:278,1,127.500004863739,2|0,0:0|0:0,0:0:0:0:
501,179,185078,2,0,P|476:198|445:204,1,63.7500024318696,0|0,0:0|0:0,0:0:0:0:
444,127,185381,1,0,0:0:0:0:
444,127,185532,2,0,P|419:102|380:92,1,63.7500024318696,0|0,0:0|0:0,0:0:0:0:
250,149,185836,6,0,L|376:169,1,127.500004863739,2|0,0:0|0:0,0:0:0:0:
330,267,186290,2,0,L|255:255,1,63.7500024318696,0|0,0:0|0:0,0:0:0:0:
112,206,186593,2,0,L|174:215,1,63.7500024318696,0|0,0:0|0:0,0:0:0:0:
182,311,186896,1,0,0:0:0:0:
29,253,187048,6,0,P|16:211|58:128,1,127.500004863739,2|0,0:0|0:0,0:0:0:0:
139,113,187502,1,0,0:0:0:0:
305,206,187805,1,0,0:0:0:0:
112,206,188108,1,0,0:0:0:0:
277,110,188411,5,0,0:0:0:0:
102,31,188714,1,0,0:0:0:0:
211,187,189017,1,2,0:0:0:0:
307,21,189320,1,0,0:0:0:0:
365,87,189472,6,0,B|403:149|391:268|350:306|350:306|306:304|275:264|275:264|316:222|301:158,1,420.750012840271,2|0,0:0|0:0,0:0:0:0:
58,87,191896,6,0,P|72:180|99:269,1,187.000005706787,4|2,0:0|0:0,0:0:0:0:
249,177,192351,2,0,P|207:191|168:237,1,93.5000028533936,8|0,0:0|0:0,0:0:0:0:
122,359,192654,1,2,0:0:0:0:
252,266,192805,2,0,P|304:255|346:266,1,93.5000028533936,2|8,0:0|0:0,0:0:0:0:
512,335,193108,6,0,P|448:359|477:265,1,187.000005706787,10|2,0:0|0:0,0:0:0:0:
512,134,193563,2,0,L|405:116,1,93.5000028533936,8|0,0:0|0:0,0:0:0:0:
294,170,193866,1,2,0:0:0:0:
344,51,194017,2,0,L|451:18,1,93.5000028533936,2|8,0:0|0:0,0:0:0:0:
333,243,194321,6,0,P|264:247|219:138,1,187.000005706787,10|2,0:0|0:0,0:0:0:0:
410,221,194775,2,0,P|409:273|372:316,1,93.5000028533936,8|0,0:0|0:0,0:0:0:0:
294,170,195078,1,2,0:0:0:0:
185,307,195229,2,0,L|86:323,1,93.5000028533936,2|8,0:0|0:0,0:0:0:0:
105,123,195533,6,0,P|106:214|10:231,1,187.000005706787,10|2,0:0|0:0,0:0:0:0:
5,80,195987,2,0,L|131:101,1,93.5000028533936,8|0,0:0|0:0,0:0:0:0:
202,216,196290,1,2,0:0:0:0:
27,239,196442,2,0,L|114:193,1,93.5000028533936,2|8,0:0|0:0,0:0:0:0:
387,248,196745,6,0,P|394:173|317:82,1,187.000005706787,14|2,0:0|0:0,0:0:0:0:
179,50,197199,2,0,L|93:97,1,93.5000028533936,8|0,0:0|0:0,0:0:0:0:
124,229,197502,2,0,L|172:149,1,93.5000028533936,2|0,0:0|0:0,0:0:0:0:
305,189,197805,2,0,L|222:233,1,93.5000028533936,8|0,0:0|0:0,0:0:0:0:
76,316,198108,6,0,P|121:328|167:318,1,93.5000028533936,10|2,0:0|0:0,0:0:0:0:
359,326,198411,2,0,P|313:314|268:324,1,93.5000028533936,8|0,0:0|0:0,0:0:0:0:
60,338,198714,2,0,P|105:349|150:339,1,93.5000028533936,10|2,0:0|0:0,0:0:0:0:
372,301,199017,2,0,P|326:289|281:299,1,93.5000028533936,8|2,0:0|0:0,0:0:0:0:
482,341,199321,6,0,L|470:242,1,93.5000028533936,8|2,0:0|0:0,0:0:0:0:
427,146,199624,1,2,0:0:0:0:
215,186,199775,2,0,P|269:179|313:188,1,93.5000028533936,12|2,0:0|0:0,0:0:0:0:
263,58,200078,2,0,P|306:91|348:105,1,93.5000028533936,8|2,0:0|0:0,0:0:0:0:
345,313,200381,6,0,B|224:340|224:340|226:285|287:315,1,187.000005706787,10|2,0:0|0:0,0:0:0:0:
151,360,200836,2,0,P|152:316|186:248,1,93.5000028533936,8|2,0:0|0:0,0:0:0:0:
255,189,201139,2,0,L|296:153,1,46.7500014266968,8|8,0:0|0:0,0:0:0:0:
208,45,201290,1,8,0:0:0:0:
203,62,201366,1,8,0:0:0:0:
198,80,201442,1,8,0:0:0:0:
194,98,201518,1,8,0:0:0:0:
189,115,201593,6,0,B|148:157|101:142|101:142|50:125|3:167,1,187.000005706787,4|2,0:0|0:0,0:0:0:0:
18,299,202048,2,0,L|73:224,1,93.5000028533936,8|0,0:0|0:0,0:0:0:0:
124,65,202351,1,2,0:0:0:0:
188,231,202502,2,0,L|242:306,1,93.5000028533936,2|8,0:0|0:0,0:0:0:0:
425,212,202805,6,0,P|343:195|361:264,1,187.000005706787,8|2,0:0|0:0,0:0:0:0:
507,243,203260,2,0,P|503:170|482:143,1,93.5000028533936,8|0,0:0|0:0,0:0:0:0:
367,91,203563,1,2,0:0:0:0:
281,225,203714,2,0,L|187:230,1,93.5000028533936,2|8,0:0|0:0,0:0:0:0:
67,58,204018,6,0,P|166:88|238:159,1,187.000005706787,10|2,0:0|0:0,0:0:0:0:
117,291,204472,2,0,P|96:245|105:185,1,93.5000028533936,8|0,0:0|0:0,0:0:0:0:
241,311,204775,1,2,0:0:0:0:
372,196,204926,2,0,P|373:242|353:283,1,93.5000028533936,2|8,0:0|0:0,0:0:0:0:
117,291,205230,6,0,P|209:251|240:321,1,187.000005706787,10|2,0:0|0:0,0:0:0:0:
28,331,205684,2,0,P|21:282|45:226,1,93.5000028533936,8|2,0:0|0:0,0:0:0:0:
116,89,205987,2,0,P|123:138|99:194,1,93.5000028533936,8|2,0:0|0:0,0:0:0:0:
33,28,206290,1,8,0:0:0:0:
271,97,206442,6,0,P|361:93|463:21,1,187.000005706787,14|2,0:0|0:0,0:0:0:0:
235,14,206896,2,0,L|244:107,1,93.5000028533936,8|0,0:0|0:0,0:0:0:0:
299,238,207199,1,2,0:0:0:0:
379,123,207351,1,2,0:0:0:0:
219,194,207502,2,0,P|208:244|239:307,1,93.5000028533936,8|0,0:0|0:0,0:0:0:0:
396,319,207805,6,0,L|303:333,1,93.5000028533936,2|0,0:0|0:0,0:0:0:0:
127,298,208108,2,0,L|222:283,1,93.5000028533936,8|0,0:0|0:0,0:0:0:0:
391,223,208411,2,0,L|296:238,1,93.5000028533936,2|2,0:0|0:0,0:0:0:0:
126,208,208714,1,8,0:0:0:0:
382,129,208866,6,0,P|330:136|213:46,1,187.000005706787,10|2,0:0|0:0,0:0:0:0:
47,23,209320,2,0,P|98:15|160:48,1,93.5000028533936,8|0,0:0|0:0,0:0:0:0:
196,206,209624,1,2,0:0:0:0:
88,109,209775,1,2,0:0:0:0:
147,285,209926,2,0,P|191:298|236:290,1,93.5000028533936,8|0,0:0|0:0,0:0:0:0:
358,59,210230,6,0,P|293:123|288:214,1,187.000005706787,2|0,0:0|0:0,0:0:0:0:
340,293,210684,1,2,0:0:0:0:
472,196,210836,2,0,L|407:180,1,46.7500014266968,8|8,0:0|0:0,0:0:0:0:
383,94,210987,2,0,L|427:106,1,46.7500014266968,8|8,0:0|0:0,0:0:0:0:
512,53,211139,2,0,L|467:38,1,46.7500014266968,8|8,0:0|0:0,0:0:0:0:
325,20,211290,6,0,P|281:54|163:69,1,170,4|2,0:0|0:0,0:0:0:0:
23,59,211745,1,8,0:0:0:0:
149,165,211896,1,2,0:0:0:0:
40,39,212048,1,8,0:0:0:0:
56,192,212199,1,2,0:0:0:0:
242,175,212351,2,0,L|337:149,1,85,8|2,0:0|0:0,0:0:0:0:
379,311,212654,6,0,P|356:275|353:233,1,85,8|2,0:0|0:0,0:0:0:0:
382,90,212957,2,0,P|405:126|408:168,1,85,8|2,0:0|0:0,0:0:0:0:
266,263,213260,1,8,0:0:0:0:
253,265,213336,1,8,0:3:0:0:
240,267,213411,2,0,L|192:256,1,42.5,8|8,0:3|0:3,0:0:0:0:
113,152,213563,1,8,0:0:0:0:
248,27,213714,6,0,P|281:102|242:173,1,170,4|2,0:0|0:0,0:0:0:0:
103,180,214169,1,8,0:0:0:0:
192,98,214320,1,2,0:0:0:0:
92,208,214472,1,8,0:0:0:0:
100,71,214623,1,2,0:0:0:0:
164,221,214775,2,0,L|80:238,1,85,8|2,0:0|0:0,0:0:0:0:
68,272,215002,1,2,0:0:0:0:
68,272,215078,6,0,B|115:280|115:280|143:340,1,102,0|0,0:0|0:0,0:0:0:0:
137,329,215381,2,0,L|258:305,1,102,0|0,0:0|0:0,0:0:0:0:
303,258,215684,6,0,P|240:243|236:308,1,148.74999546051,0|0,0:0|0:0,0:0:0:0:
319,334,216139,6,0,B|394:304|379:240|367:220|367:220|347:188|354:148|379:123,1,229.499992996216,0|0,0:0|0:0,0:0:0:0:
432,180,216896,6,0,P|445:136|414:75,1,106.25,0|0,0:0|0:0,0:0:0:0:
343,58,217351,6,0,P|414:82|503:31,1,170,4|2,0:0|0:0,0:0:0:0:
317,40,217806,2,0,L|272:141,1,85,8|0,0:0|0:0,0:0:0:0:
151,171,218108,2,0,L|142:86,1,85,2|2,0:0|0:0,0:0:0:0:
228,217,218412,1,8,0:0:0:0:
49,263,218563,6,0,P|54:172|60:75,1,170,0|2,0:0|0:0,0:0:0:0:
147,259,219018,2,0,P|180:297|235:307,1,85,8|0,0:0|0:0,0:0:0:0:
411,237,219320,2,0,L|357:229,1,42.5,2|0,0:0|0:0,0:0:0:0:
228,217,219472,1,2,0:0:0:0:
381,318,219624,1,8,0:0:0:0:
258,375,219775,6,0,L|244:189,1,170,2|2,0:0|0:0,0:0:0:0:
392,148,220230,2,0,P|432:150|489:184,1,85,8|0,0:0|0:0,0:0:0:0:
302,131,220532,2,0,P|262:129|205:95,1,85,2|2,0:0|0:0,0:0:0:0:
356,62,220836,1,8,0:0:0:0:
165,188,220988,6,0,P|127:108|186:23,1,170,2|2,0:0|0:0,0:0:0:0:
245,205,221442,1,8,0:0:0:0:
119,257,221594,1,0,0:0:0:0:
253,293,221745,2,0,L|310:276,1,42.5,2|0,0:0|0:0,0:0:0:0:
165,188,221897,1,2,0:0:0:0:
173,322,222048,1,8,0:0:0:0:
245,205,222199,1,2,0:0:0:0:
247,188,222275,1,2,0:0:0:0:
249,171,222351,5,8,0:0:0:0:
394,142,222502,2,0,L|415:240,1,85,2|2,0:0|0:0,0:0:0:0:
313,108,222805,1,8,0:0:0:0:
459,79,222956,2,0,L|480:177,1,85,2|2,0:0|0:0,0:0:0:0:
428,309,223260,1,8,0:0:0:0:
245,205,223411,6,0,P|182:252|327:278,1,340,4|0,0:0|0:0,0:0:0:0:
241,117,224775,2,0,L|244:168,1,42.5,8|0,0:0|0:0,0:0:0:0:
252,279,224926,1,2,0:0:0:0:
